osu file format v9

[General]
AudioFilename: ducaaaaaaaaaaaa.mp3
AudioLeadIn: 500
PreviewTime: 68675
Countdown: 0
SampleSet: Soft
StackLeniency: 0.7
Mode: 0
LetterboxInBreaks: 0

[Editor]
Bookmarks: 69692
DistanceSpacing: 0.8
BeatDivisor: 4
GridSize: 4

[Metadata]
Title:Futari (Short Ver.)
Artist:Duca
Creator:Melophobia
Version:Hard
Source:Haruka na Sora
Tags:yosuga no sora Sphere fandisk hentai eroge game visual novel opening those

[Difficulty]
HPDrainRate:5
CircleSize:4
OverallDifficulty:6
ApproachRate:7
SliderMultiplier:1.7
SliderTickRate:1

[Events]
//Background and Video events
0,0,"BG.jpg"
Video,699,"video.avi"
//Break Periods
//Storyboard Layer 0 (Background)
//Storyboard Layer 1 (Fail)
//Storyboard Layer 2 (Pass)
//Storyboard Layer 3 (Foreground)
//Storyboard Sound Samples
//Background Colour Transformations
3,100,163,162,255

[TimingPoints]
542,508.259212198221,4,2,1,50,1,0
2066,-100,4,2,1,40,0,0
2320,-100,4,2,1,50,0,0
8674,-100,4,2,1,40,0,0
10453,-100,4,2,1,50,0,0
15535,-100,4,2,1,40,0,0
16298,-100,4,2,1,50,0,0
17314,-100,4,2,1,20,0,0
17822,-100,4,2,1,50,0,0
18331,-100,4,2,1,20,0,0
18839,-100,4,2,1,45,0,0
20745,-100,4,2,1,25,0,0
20872,-100,4,2,1,45,0,0
22015,-100,4,2,1,35,0,0
22524,-100,4,2,1,45,0,0
24811,-100,4,2,1,25,0,0
24938,-100,4,2,1,45,0,0
25700,-100,4,2,1,35,0,0
26590,-100,4,2,1,45,0,0
28877,-100,4,2,1,25,0,0
29004,-100,4,2,1,45,0,0
30148,-100,4,2,1,35,0,0
30656,-100,4,2,1,45,0,0
32943,-100,4,2,1,25,0,0
33070,-100,4,2,1,45,0,0
33578,-100,4,2,1,35,0,0
34722,-100,4,2,1,45,0,0
37009,-100,4,2,1,25,0,0
37136,-100,4,2,1,45,0,0
38280,-100,4,2,1,35,0,0
38788,-100,4,2,1,45,0,0
42092,-100,4,2,1,35,0,0
42854,-100,4,2,1,45,0,0
44506,-100,4,2,1,25,0,0
44887,-100,4,2,1,45,0,0
46412,-100,4,2,1,35,0,0
46920,-100,4,2,1,45,0,0
48445,-100,4,2,1,35,0,0
48953,-100,4,2,1,45,0,0
50097,-100,4,2,1,35,0,0
50605,-100,4,2,1,45,0,0
51367,-100,4,2,1,40,0,0
52511,-100,4,2,1,30,0,0
52638,-100,4,2,1,40,0,0
54544,-100,4,2,1,30,0,0
54671,-100,4,2,1,40,0,0
56577,-100,4,2,1,30,0,0
56704,-100,4,2,1,40,0,0
58356,-100,4,2,1,30,0,0
58483,-100,4,2,1,40,0,0
58991,-100,4,2,1,30,0,0
59245,-100,4,2,1,40,0,0
60643,-100,4,2,1,30,0,0
60770,-100,4,2,1,40,0,0
62676,-100,4,2,1,30,0,0
62803,-100,4,2,1,40,0,0
65345,-100,4,2,1,50,0,0
66615,-100,4,2,1,40,0,0
66869,-100,4,2,1,50,0,0
69665,-100,4,2,1,60,0,1
70808,-100,4,2,1,50,0,1
70935,-100,4,2,1,60,0,1
72841,-100,4,2,1,50,0,1
72968,-100,4,2,1,60,0,1
74874,-100,4,2,1,50,0,1
75001,-100,4,2,1,60,0,1
76907,-100,4,2,1,50,0,1
77035,-100,4,2,1,60,0,1
78940,-100,4,2,1,50,0,1
79068,-100,4,2,1,60,0,1
80974,-100,4,2,1,50,0,1
81101,-100,4,2,1,60,0,1
83007,-100,4,2,1,50,0,1
83134,-100,4,2,1,60,0,1
84913,-100,4,2,1,50,0,1
85929,-100,4,2,1,60,0,1
87073,-100,4,2,1,50,0,1
87200,-100,4,2,1,60,0,1
88852,-100,4,2,1,50,0,1
88979,-100,4,2,1,60,0,1
90758,-100,4,2,1,50,0,1
91774,-100,4,2,1,60,0,1
92918,-100,4,2,1,50,0,1
93299,-100,4,2,1,60,0,1
93553,-100,4,2,1,50,0,1
93807,-100,4,2,1,60,0,1
94061,-100,4,2,1,50,0,1
94188,-100,4,2,1,60,0,1
95205,-100,4,2,1,50,0,1
95332,-100,4,2,1,60,0,1
97238,-100,4,2,1,50,0,1
97365,-100,4,2,1,60,0,1
100414,-100,4,2,1,50,0,1
101431,-100,4,2,1,40,0,1
102193,-100,4,2,1,50,0,0
108292,-100,4,2,1,40,0,0
110071,-100,4,2,1,50,0,0
114392,-100,4,2,1,40,0,0
120364,-100,4,2,1,5,0,0

[Colours]
Combo1 : 128,255,128
Combo2 : 128,128,255

[HitObjects]
56,272,1558,1,2
40,80,2066,1,8
40,80,2193,1,8
184,56,2575,6,0,B|264:88|352:56,1,170,4|8
416,144,3337,2,0,B|416:96|440:64,1,85
480,216,3845,2,0,B|480:256|456:296,1,85,0|8
368,328,4353,1,0
336,240,4608,6,0,B|240:240|240:240|168:200,1,170,2|8
88,248,5370,1,0
56,160,5624,2,0,B|64:112|105:93,1,85
192,56,6132,2,0,B|304:56,1,85,8|0
368,72,6641,6,0,B|416:144|400:240,1,170,2|8
248,328,7403,2,0,B|200:256|216:160,1,170
248,80,8165,1,8
328,40,8420,1,0
382,183,8674,6,0,B|294:199|214:167,1,170,4|8
80,56,9436,2,0,B|24:128|40:240,1,170,4|0
88,296,10198,1,8
88,296,10325,1,8
88,296,10453,1,0
152,232,10707,6,0,B|224:232|224:232|336:280,1,170,4|8
482,214,11469,2,0,B|410:214|410:214|320:176,1,170
256,104,12231,1,8
176,160,12486,1,0
88,120,12740,6,0,B|40:104|24:64,1,85,2|0
168,56,13248,1,8
256,104,13502,2,0,B|288:192|256:280,1,170
200,344,14264,1,8
72,168,14773,5,4
152,216,15027,1,0
216,148,15281,1,8
300,188,15535,2,0,B|311:229,1,42.5,0|8
368,124,15916,2,0,B|379:82,1,42.5,8|0
464,136,16298,2,0,B|488:176|488:240,1,85,8|0
260,262,16806,6,0,B|352:240|424:288,1,170,4|0
248,80,17822,2,0,B|156:57|84:105,1,170,4|0
48,288,18839,6,0,B|88:272|144:272,1,85,4|0
216,312,19347,1,0
264,232,19601,1,0
264,232,19728,2,0,B|304:256|323:296|304:352,1,127.5
216,312,20364,1,2
128,280,20618,5,0
128,280,20745,1,8
128,280,20872,2,0,B|80:264|40:272,1,85,0|0
168,128,21634,2,0,B|216:112|256:120,1,85
296,144,22015,1,8
296,144,22143,1,0
352,224,22397,2,0,B|304:240|264:232,1,85,8|0
124,295,22905,6,0,B|172:311|208:304,1,85,2|0
288,360,23413,1,0
384,352,23667,1,0
384,352,23794,2,0,B|416:288|408:200,1,127.5
368,144,24430,1,2
296,200,24684,5,0
296,200,24811,1,8
296,200,24938,2,0,B|208:152|112:176,1,170,0|0
64,112,25700,1,0
64,112,25827,1,8
24,192,26082,1,8
24,192,26209,1,0
96,248,26463,2,0,B|208:248,1,85,8|0
264,296,26971,6,0,B|320:256|400:264,2,127.5,2|0|0
328,120,28242,1,0
232,120,28496,1,2
160,56,28750,5,0
160,56,28877,1,8
160,56,29004,2,0,B|32:56,2,127.5,0|0|0
296,104,30148,1,8
296,104,30275,2,0,B|328:144|336:192,1,85,0|8
416,216,30783,1,0
408,312,31037,6,0,B|224:312,1,170,2|0
97,240,31799,2,0,B|161:240|161:240|201:224|201:224|264:224,1,170,0|0
320,144,32562,1,2
296,56,32816,5,0
296,56,32943,1,8
296,56,33070,2,0,B|344:40|415:93|408:153,1,170,0|0
344,216,33832,1,0
344,216,33960,1,8
264,160,34214,1,8
264,160,34341,1,0
264,160,34468,1,0
264,160,34595,2,0,B|216:136|176:136,1,85,8|0
192,256,35103,6,0,B|288:256,1,85,4|0
352,304,35611,1,0
432,264,35866,1,0
432,264,35993,1,0
432,168,36247,1,0
432,168,36374,1,0
432,264,36628,1,2
344,120,36882,5,0
344,120,37009,1,8
344,120,37136,2,0,B|312:88|269:82,1,85,0|0
176,208,37644,2,0,B|221:203|252:173,1,85
176,112,38153,1,0
176,112,38280,1,8
176,112,38407,1,0
96,160,38661,2,0,B|71:197|74:241,1,85,8|0
136,312,39169,5,2
224,272,39423,2,0,B|272:264|309:272,1,85
392,312,39932,1,0
392,312,40059,1,0
392,312,40186,2,0,B|440:288|456:248,1,85,0|0
384,192,40694,2,0,B|360:152|368:96,1,85,2|0
440,48,41202,6,0,B|376:96|275:79,1,170,2|0
184,64,41965,2,0,B|200:24,1,42.5,0|8
256,168,42346,2,0,B|239:207,1,42.5,8|0
160,256,42727,1,8
208,336,42981,1,0
300,320,43235,6,0,B|348:280|420:286,2,127.5,2|0|0
208,336,44252,1,0
200,336,44379,1,0
192,336,44506,1,8
184,336,44633,1,0
176,336,44760,1,8
80,352,45014,1,0
104,224,45268,5,2
104,224,45395,1,0
168,152,45650,1,0
168,152,45777,1,0
264,176,46031,1,0
272,176,46158,1,0
280,176,46285,1,0
288,176,46412,1,8
296,176,46539,1,0
304,176,46666,1,0
312,176,46793,1,8
392,232,47047,1,0
416,104,47301,6,0,B|344:64|344:64|232:64,1,170,2|0
184,128,48064,1,0
96,96,48318,2,0,B|56:80,2,42.5,0|8|0
184,128,48826,1,8
256,184,49080,5,0
256,184,49207,1,0
256,184,49334,2,0,B|224:240|144:240|112:184,1,170,4|8
184,40,50097,2,0,B|226:23|280:32,1,85,4|0
301,37,50478,1,8
331,51,50605,1,0
440,136,50859,1,8
448,176,50986,1,8
456,216,51113,1,0
352,304,51367,6,0,B|480:304,2,127.5,4|0|0
224,248,52511,1,8
224,248,52638,2,0,B|120:248,1,85,0|8
80,176,53146,1,0
152,112,53400,6,0,B|152:64|136:24,1,85,2|0
256,56,53909,1,0
374,28,54163,2,0,B|360:64|360:112,1,85
376,144,54544,1,8
376,144,54671,2,0,B|376:256,1,85,0|8
440,304,55179,1,0
296,344,55433,6,0,B|296:296|296:296|280:264|280:264|280:208,2,127.5,2|0|0
168,280,56577,1,8
168,280,56704,2,0,B|120:248|120:248|72:248,1,85,0|8
16,192,57212,1,0
92,136,57467,6,0,B|120:136|120:136|168:104,1,85,2|0
256,88,57975,1,0
344,48,58229,1,0
376,72,58356,1,8
392,104,58483,1,0
392,144,58610,1,0
376,176,58737,1,0
304,240,58991,1,8
304,240,59118,1,8
304,240,59245,1,0
232,184,59500,6,0,B|184:168|148:175,1,85,4|0
40,312,60008,2,0,B|144:312,1,85,8|0
256,352,60516,1,0
256,352,60643,1,8
256,352,60770,2,0,B|296:336|360:352,1,85,0|8
408,288,61278,1,0
464,216,61533,5,0
464,216,61660,1,0
408,136,61914,1,0
408,136,62041,1,8
320,96,62295,2,0,B|312:136|317:180,1,85
320,216,62676,1,8
328,248,62803,1,0
272,324,63057,1,8
176,320,63312,1,0
104,256,63566,6,0,B|64:224|16:224,1,85,4|0
16,128,64074,1,8
104,88,64328,2,0,B|144:56|192:56,1,85
299,167,64836,2,0,B|257:182|216:167,1,85,0|8
330,56,65345,6,0,B|368:56|408:88,1,85,4|0
449,180,65853,1,0
449,180,65980,1,0
449,180,66107,1,8
414,275,66361,1,0
312,256,66615,1,8
312,256,66742,1,8
312,256,66869,1,0
216,280,67123,2,0,B|200:320|208:368,1,85,8|0
80,188,67632,1,4
384,64,68648,5,8
448,144,68902,1,0
456,184,69029,1,0
448,224,69156,1,8
416,256,69284,1,8
376,264,69411,1,0
280,232,69665,6,0,B|240:208|197:218,1,85,4|0
120,152,70173,1,8
64,292,70427,2,0,B|48:248|68:209,1,85,2|0
88,176,70808,1,8
120,152,70935,2,0,B|160:128|202:138,1,85,0|8
288,88,71444,5,0
312,112,71571,1,0
336,136,71698,2,0,B|360:160|360:160|432:160,1,85,2|0
400,264,72206,2,0,B|485:264,1,85,8|2
320,328,72714,1,0
320,328,72841,1,8
320,328,72968,1,0
232,280,73223,2,0,B|192:256|152:256,1,85,8|0
64,200,73731,6,0,B|88:160|88:120,1,85,2|0
168,48,74239,1,8
224,128,74493,1,2
320,96,74747,1,0
320,96,74874,1,8
320,96,75001,2,0,B|376:88|424:96,1,85,0|8
456,184,75510,1,0
416,280,75764,6,0,B|336:240|248:272,1,170,2|8
152,304,76526,1,2
72,240,76780,1,0
72,240,76907,1,8
72,240,77035,2,0,B|72:192|40:160,1,85,0|8
120,96,77543,1,0
216,136,77797,6,0,B|264:88|344:96,1,127.5,4|0
360,136,78305,2,0,B|464:136,1,85,8|2
456,240,78813,1,0
456,240,78940,1,8
456,240,79068,2,0,B|408:264|392:295,1,85,0|8
464,368,79576,1,0
304,232,79830,6,0,B|256:288|280:360,1,127.5,2|0
277,351,80338,2,0,B|224:328|184:344,1,85,8|2
112,280,80846,1,0
88,248,80974,1,8
80,208,81101,2,0,B|96:160|144:128,1,85,0|8
200,72,81609,1,0
248,160,81863,6,0,B|304:128|392:144,1,127.5,4|0
384,176,82371,2,0,B|469:176,1,85,8|4
312,248,82879,1,0
312,248,83007,1,8
312,248,83134,2,0,B|296:296|304:352,1,85,0|8
384,176,83642,1,0
176,168,83896,6,0,B|192:120|184:64,1,85,4|0
48,232,84404,1,0
48,232,84531,1,0
48,232,84658,1,2
144,336,84913,1,8
176,336,85040,1,8
208,336,85167,1,0
288,272,85421,1,8
320,272,85548,1,8
352,272,85675,1,8
488,192,85929,6,0,B|424:192|424:192|384:176|384:176|312:176,1,170,4|8
240,112,86691,1,2
152,160,86946,1,0
152,160,87073,1,8
152,160,87200,2,0,B|128:200|128:248,1,85,0|8
256,312,87708,1,0
384,240,87962,6,0,B|385:200|361:160,1,85,2|0
392,64,88470,1,8
288,48,88724,1,2
288,48,88852,1,8
288,48,88979,2,0,B|232:56|208:104,1,85,0|0
240,192,89487,1,8
136,192,89741,1,0
112,88,89995,6,0,B|40:136|32:240,1,170,2|8
64,328,90758,1,4
256,64,91266,1,4
448,328,91774,6,0,B|368:288|280:304,1,170,4|0
184,336,92536,1,8
96,288,92791,1,0
96,288,92918,1,8
56,192,93172,1,8
56,192,93299,1,0
96,96,93553,1,8
96,96,93680,1,8
96,96,93807,1,0
192,56,94061,6,0,B|248:24|320:40,1,127.5,4|0
304,88,94569,2,0,B|259:81|219:97,1,85,8|2
68,184,95078,1,0
68,184,95205,1,8
68,184,95332,2,8,B|113:191|153:175,1,85,0|8
251,196,95840,1,0
185,274,96094,5,2
185,274,96221,1,0
196,375,96475,1,0
196,375,96602,1,8
184,274,96857,2,0,B|240:282|272:306,1,85,2|0
291,320,97238,1,8
309,348,97365,1,0
392,296,97619,1,8
480,344,97873,1,0
392,296,98127,6,0,B|368:208|400:120,1,170,4|8
296,112,98890,2,0,B|264:72|216:56,1,85,4|0
128,80,99398,1,0
128,80,99525,1,0
128,80,99652,1,0
179,325,99906,6,0,B|227:245|186:163,1,170,4|4
64,238,100669,1,4
360,64,101431,1,0
400,152,101685,1,0
336,224,101939,1,0
384,304,102193,6,0,B|304:256|208:288,1,170,4|8
128,304,102956,2,0,B|96:272|88:216,1,85
96,136,103464,2,0,B|64:104|0:104,2,85,0|8|0
176,96,104226,6,0,B|240:72|320:88,1,127.5,2|0
336,64,104735,2,0,B|376:88|392:152,1,85,8|0
336,208,105243,1,0
384,288,105497,2,0,B|496:288,2,85,0|8|0
296,328,106259,6,0,B|232:272|128:272,1,170,2|8
96,192,107022,2,0,B|48:176|12:182,1,85
136,112,107530,2,0,B|184:96|219:102,1,85,0|8
288,168,108038,5,0
288,168,108165,1,0
288,168,108292,2,0,B|320:136|328:88,1,85,4|0
392,24,108801,1,8
456,88,109055,2,0,B|512:160|472:280,1,170,4|0
400,304,109817,1,8
360,304,109944,1,8
328,320,110071,1,0
248,264,110325,6,0,B|208:240|144:240,1,85,4|0
120,160,110834,1,8
200,112,111088,2,0,B|216:64|200:24,1,85
32,120,111596,2,0,B|16:168|32:208,1,85,0|8
112,256,112104,5,0
112,256,112231,1,0
112,256,112359,2,0,B|216:256,1,85,2|0
261,187,112867,2,0,B|277:147|317:123,1,85,8|0
291,284,113375,2,0,B|312:321|305:367,1,85
197,255,113883,2,0,B|153:254|117:225,1,85,8|0
192,80,114392,6,0,B|280:72|341:148,1,170,4|8
272,320,115154,2,0,B|184:328|122:251,1,170,4|0
120,128,115916,2,0,B|136:80,2,42.5,8|0|0
24,192,116425,5,4
488,192,117441,1,4
256,192,118458,6,0,B|240:144|256:127|272:112|256:64,2,127.5,4|4|4
56,168,119728,1,0
64,48,119982,1,2
164,116,120237,1,4
256,192,120364,12,0,124557
