osu file format v13

[General]
AudioFilename: OP.mp3
AudioLeadIn: 1500
PreviewTime: 57963
Countdown: 0
SampleSet: Soft
StackLeniency: 0.7
Mode: 0
LetterboxInBreaks: 0
WidescreenStoryboard: 0

[Editor]
DistanceSpacing: 1.8
BeatDivisor: 4
GridSize: 4
TimelineZoom: 1

[Metadata]
Title:Dreamer Short ver.
TitleUnicode:Dreamer ショート ver.
Artist:Duca
ArtistUnicode:Duca
Creator:Tsukuyomi
Version:wkyik's Insane
Source:恋する彼女の不器用な舞台
Tags:koi suru kanojo no bukiyou na butai baldrace cube kantoku Moecho Kawaiwkyik [Teichan] Minakami Yuki opening galgame eroge
BeatmapID:553085
BeatmapSetID:238669

[Difficulty]
HPDrainRate:6
CircleSize:4
OverallDifficulty:7
ApproachRate:8
SliderMultiplier:1.6
SliderTickRate:1

[Events]
//Background and Video events
0,0,"BG.jpg",0,0
Video,-100,"MOVIE.AVI"
//Break Periods
//Storyboard Layer 0 (Background)
//Storyboard Layer 1 (Fail)
//Storyboard Layer 2 (Pass)
//Storyboard Layer 3 (Foreground)
//Storyboard Sound Samples

[TimingPoints]
-500,361.44578313253,4,2,89,60,1,0
11608,-100,4,2,89,40,0,0
11969,-100,4,2,89,60,0,0
12512,-133.333333333333,4,2,89,40,0,0
24078,-200,4,2,89,40,0,0
32753,-133.333333333333,4,2,89,40,0,0
33295,-133.333333333333,4,2,2,30,0,0
33475,-133.333333333333,4,2,89,40,0,0
33837,-133.333333333333,4,2,2,40,0,0
34018,-133.333333333333,4,2,89,50,0,0
34198,-133.333333333333,4,2,2,40,0,0
34379,-133.333333333333,4,2,89,40,0,0
34560,-133.333333333333,4,2,2,30,0,0
34740,-133.333333333333,4,2,89,45,0,0
34921,-133.333333333333,4,2,2,30,0,0
35283,-133.333333333333,4,2,89,50,0,0
35644,-100,4,2,89,40,0,0
44680,-100,4,2,89,50,0,0
52993,-100,4,2,89,55,0,0
55885,-100,4,2,89,70,0,0
56066,-100,4,2,89,60,0,0
58234,-100,4,2,89,60,0,0
58777,-100,4,2,89,60,0,1
81909,-133.333333333333,4,2,89,40,0,0
82271,-133.333333333333,4,2,89,50,0,0
82451,-133.333333333333,4,2,2,50,0,0
82632,-133.333333333333,4,2,89,50,0,0
82993,-133.333333333333,4,2,2,50,0,0
83536,-133.333333333333,4,2,89,50,0,0
83716,-133.333333333333,4,2,2,50,0,0
84078,-133.333333333333,4,2,89,50,0,0
84801,-133.333333333333,4,2,2,50,0,0
85524,-133.333333333333,4,2,89,50,0,0
85885,-133.333333333333,4,2,2,50,0,0
86066,-133.333333333333,4,2,89,50,0,0
87692,-100,4,2,89,60,0,1
93475,-100,4,2,89,60,0,0
100524,-166.666666666667,4,2,89,60,0,0
103596,-166.666666666667,4,2,1,60,0,0
104138,-166.666666666667,4,2,89,60,0,0

[Colours]
Combo1 : 192,192,192
Combo2 : 255,128,64
Combo3 : 128,0,255
Combo4 : 0,255,64

[HitObjects]
144,132,945,6,0,P|200:120|316:104,2,160,4|8|0,0:0|0:0|0:0,0:0:0:0:
96,287,1849,2,0,P|108:248|108:208,1,80,2|8,0:0|0:0,0:0:0:0:
40,88,2210,6,0,P|8:144|32:248,1,160,2|2,0:0|0:0,0:0:0:0:
108,308,2753,2,0,L|188:296,1,80,8|0,0:0|0:0,0:0:0:0:
256,216,3114,1,2,0:0:0:0:
336,296,3295,1,0,0:0:0:0:
244,360,3475,1,8,0:0:0:0:
208,212,3656,1,0,0:0:0:0:
208,212,3746,1,0,0:0:0:0:
208,212,3837,6,0,P|252:168|360:188,2,160,2|8|0,0:0|0:0|0:0,0:0:0:0:
244,360,4740,2,0,P|256:308|264:256,1,80,2|8,0:0|0:0,0:0:0:0:
196,132,5102,6,0,P|152:152|152:272,1,160,2|2,0:0|0:0,0:0:0:0:
296,164,5644,2,0,L|288:76,1,80,8|0,0:0|0:0,0:0:0:0:
208,212,6006,2,0,L|216:292,1,80,2|0,0:0|0:0,0:0:0:0:
316,324,6367,1,8,0:0:0:0:
368,244,6548,1,2,0:0:0:0:
296,164,6728,6,0,P|288:248|288:356,2,160,4|8|0,0:0|0:0|0:0,0:0:0:0:
336,60,7632,1,2,0:0:0:0:
408,144,7813,1,8,0:0:0:0:
224,76,7993,6,0,B|148:56|148:56|56:64,1,160,2|2,0:0|0:0,0:0:0:0:
144,252,8536,2,0,P|152:188|156:148,1,80,8|0,0:0|0:0,0:0:0:0:
104,80,8897,1,2,0:0:0:0:
8,120,9078,1,0,0:0:0:0:
40,260,9259,1,8,0:0:0:0:
180,228,9439,1,0,0:0:0:0:
180,228,9530,1,0,0:0:0:0:
180,228,9620,6,0,P|224:232|248:352,1,160,2|8,0:0|0:0,0:0:0:0:
188,368,10162,2,0,L|360:352,1,160,2|0,0:0|0:0,0:0:0:0:
444,364,10704,2,0,P|480:332|448:228,1,160,8|0,0:0|0:0,0:0:0:0:
379,121,11246,2,0,P|371:160|368:200,1,80,8|2,0:0|0:0,0:0:0:0:
360,296,11608,1,8,0:3:0:0:
360,296,11698,1,8,0:3:0:0:
360,296,11789,2,0,L|260:288,1,80,8|0,0:0|0:0,0:0:0:0:
208,152,12150,2,0,L|308:160,1,80,8|0,0:0|0:0,0:0:0:0:
416,192,12512,6,0,P|448:168|448:88,2,120.000004577637,2|0|0,0:0|0:0|0:0,0:0:0:0:
336,156,13415,2,0,L|332:224,1,60.0000022888184
364,296,13777,1,0,0:0:0:0:
364,296,13957,1,0,0:0:0:0:
364,296,14138,6,0,P|328:304|256:264,1,120.000004577637,0|0,0:0|0:0,0:0:0:0:
432,344,14861,2,0,L|500:340,2,60.0000022888184,0|8|0,0:0|0:0|0:0,0:0:0:0:
356,264,15403,6,0,L|368:196|380:128,2,120.000004577637,0|0|0,0:0|0:0|0:0,0:0:0:0:
296,324,16307,2,0,P|248:320|220:324,1,60.0000022888184
160,352,16668,2,0,P|158:322|162:292,1,60.0000022888184
208,188,17030,5,0,0:0:0:0:
208,188,17210,2,0,B|225:246|225:246|205:302,1,120.000004577637
64,168,17933,2,0,P|100:152|140:148,1,60.0000022888184,8|0,0:0|0:0,0:0:0:0:
208,188,18295,6,0,P|220:140|248:68,1,120.000004577637
352,264,19018,1,0,0:0:0:0:
352,264,19198,2,0,L|336:192,1,60.0000022888184
312,332,19560,1,0,0:0:0:0:
312,332,19740,6,0,P|360:344|424:304,1,120.000004577637
392,132,20463,1,0,0:0:0:0:
272,80,20825,1,8,0:0:0:0:
184,176,21186,6,0,L|60:168,2,120.000004577637,0|0|0,0:0|0:0|0:0,0:0:0:0:
236,240,22090,2,0,L|296:228,1,60.0000022888184
376,208,22451,1,0,0:0:0:0:
376,208,22632,6,0,P|408:256|400:320,1,120.000004577637
236,348,23355,2,0,L|168:340,1,60.0000022888184
104,372,23716,2,0,P|96:340|104:308,1,60.0000022888184,8|0,0:0|0:0,0:0:0:0:
160,144,24078,6,0,P|176:204|160:264,1,120
162,259,24801,2,0,L|72:252,1,80,8|0,0:0|0:0,0:0:0:0:
220,368,25524,6,0,L|228:328,1,40,0|8,0:0|0:0,0:0:0:0:
296,364,25885,2,0,L|304:324,1,40
376,352,26246,2,0,P|416:344|472:340,2,80,8|0|0,0:0|0:0|0:0,0:0:0:0:
324,128,27512,5,0,0:0:0:0:
324,128,27692,2,0,L|368:124,2,40,8|0|0,0:0|0:0|0:0,0:0:0:0:
264,176,28234,2,0,P|248:136|288:56,1,120
336,208,29138,2,0,L|332:264,1,40,8|0,0:0|0:0,0:0:0:0:
328,324,29499,1,0,0:0:0:0:
328,324,29861,6,0,P|280:304|184:364,1,160,0|8,0:0|0:0,0:0:0:0:
44,292,30945,2,0,L|52:348,1,40
132,252,31307,2,0,L|124:308,1,40,0|8,0:0|0:0,0:0:0:0:
32,216,31668,2,0,L|40:272,1,40
140,212,32030,2,0,P|148:184|132:124,1,80,8|0,0:0|0:0,0:0:0:0:
373,134,32753,5,0,0:0:0:0:
373,134,33114,2,0,P|368:172|372:216,1,60.0000022888184,8|2,0:0|0:0,0:0:0:0:
408,276,33475,2,0,L|340:284,2,60.0000022888184,8|0|2,0:0|0:0|0:0,0:0:0:0:
484,324,34018,1,8,0:0:0:0:
404,364,34198,5,2,0:0:0:0:
484,324,34379,2,0,P|496:280|496:256,1,60.0000022888184,8|2,0:0|0:0,0:0:0:0:
436,132,34740,1,8,0:0:0:0:
436,132,34831,1,8,0:0:0:0:
436,132,34921,2,0,L|444:216,1,60.0000022888184,2|2,0:0|0:0,0:0:0:0:
272,176,35283,1,8,0:0:0:0:
272,176,35644,6,0,P|280:124|288:4,1,160,4|8,0:0|0:0,0:0:0:0:
204,48,36186,1,0,0:0:0:0:
204,48,36367,1,0,0:0:0:0:
280,136,36548,2,0,L|364:128,1,80,8|0,0:0|0:0,0:0:0:0:
336,232,36909,6,0,P|272:224|168:216,1,160,8|0,0:0|0:0,0:0:0:0:
64,244,37451,2,0,L|52:160,1,80,8|0,0:0|0:0,0:0:0:0:
132,120,37813,2,0,L|144:204,1,80
164,324,38174,1,8,0:0:0:0:
164,324,38355,1,0,0:0:0:0:
252,232,38536,6,0,P|216:204|88:224,1,160,0|8,0:0|0:0,0:0:0:0:
72,300,39078,1,0,0:0:0:0:
72,300,39259,1,0,0:0:0:0:
164,324,39439,2,0,L|244:312,1,80,8|0,0:0|0:0,0:0:0:0:
332,348,39801,6,0,P|340:300|360:188,1,160,8|0,0:0|0:0,0:0:0:0:
264,176,40343,2,0,P|280:132|404:104,1,160,8|0,0:0|0:0,0:0:0:0:
484,256,41066,1,8,0:0:0:0:
424,316,41246,1,0,0:0:0:0:
424,316,41337,1,0,0:0:0:0:
424,316,41427,6,0,L|316:304,1,80
268,352,41789,1,8,0:0:0:0:
200,300,41969,2,0,P|180:248|236:160,1,160
228,163,42512,1,0,0:0:0:0:
428,236,42692,6,0,B|380:244|380:244|320:236|320:236|268:244,1,160,8|0,0:0|0:0,0:0:0:0:
200,300,43234,2,0,L|116:288,1,80,8|0,0:0|0:0,0:0:0:0:
48,236,43596,1,0,0:0:0:0:
68,152,43777,1,0,0:0:0:0:
152,120,43957,2,0,P|144:68|136:28,1,80,8|0,0:0|0:0,0:0:0:0:
228,164,44319,6,0,P|264:148|320:148,1,80
400,188,44680,1,8,0:0:0:0:
400,188,44861,1,0,0:0:0:0:
380,332,45042,1,8,0:0:0:0:
380,332,45222,1,0,0:0:0:0:
236,312,45403,1,0,0:0:0:0:
252,168,45584,1,8,0:0:0:0:
236,312,45765,6,0,L|152:320,1,80
56,352,46126,1,8,0:0:0:0:
24,252,46307,1,0,0:0:0:0:
110,104,46487,1,0,0:0:0:0:
110,104,46668,2,0,L|104:184,1,80,0|8,0:0|0:0,0:0:0:0:
236,312,47030,1,0,0:0:0:0:
236,312,47210,6,0,P|268:268|240:156,1,160,0|8,0:0|0:0,0:0:0:0:
188,108,47753,1,0,0:0:0:0:
104,228,47933,1,0,0:0:0:0:
104,228,48114,2,0,L|200:212,1,80,8|0,0:0|0:0,0:0:0:0:
264,352,48475,6,0,P|276:304|264:176,1,160,8|0,0:0|0:0,0:0:0:0:
188,108,49018,2,0,P|176:156|188:284,1,160,8|0,0:0|0:0,0:0:0:0:
352,292,49560,1,0,0:0:0:0:
380,208,49740,2,0,P|376:160|352:112,1,80,8|0,0:0|0:0,0:0:0:0:
352,292,50102,6,0,B|400:312|400:312|464:320|504:280,1,160,8|0,0:0|0:0,0:0:0:0:
500,283,50644,1,0,0:0:0:0:
440,144,50825,2,0,L|428:232,2,80,8|0|0,0:0|0:0|0:0,0:0:0:0:
328,16,51367,6,0,P|340:96|360:200,1,160,8|0,0:0|0:0,0:0:0:0:
424,56,51909,1,8,0:0:0:0:
424,56,52090,1,0,0:0:0:0:
316,184,52271,2,0,L|396:168,1,80
256,84,52632,1,8,0:0:0:0:
196,184,52813,1,0,0:0:0:0:
196,184,52903,1,0,0:0:0:0:
196,184,52993,6,0,L|116:168,1,80,4|0,0:0|0:0,0:0:0:0:
184,352,53355,2,0,P|204:304|204:260,1,80,8|0,0:0|0:0,0:0:0:0:
316,184,53716,2,0,L|394:168,1,80,8|0,0:0|0:0,0:0:0:0:
327,351,54078,2,0,P|310:316|306:276,1,80,8|0,0:0|0:0,0:0:0:0:
324,100,54439,6,0,P|364:116|376:240,2,160,8|8|8,0:0|0:0|0:0,0:0:0:0:
232,136,55343,1,0,0:0:0:0:
148,84,55524,2,0,L|64:88,1,80,8|0,0:0|0:0,0:0:0:0:
80,240,55885,5,4,0:0:0:0:
180,268,56066,1,0,0:0:0:0:
192,164,56246,2,0,L|108:168,1,80,8|0,0:0|0:0,0:0:0:0:
20,296,56608,2,0,P|0:252|8:200,1,80,8|0,0:0|0:0,0:0:0:0:
28,120,56969,1,8,0:0:0:0:
124,76,57150,1,0,0:0:0:0:
180,268,57331,5,8,0:0:0:0:
180,268,57512,1,8,0:0:0:0:
276,228,57692,5,0,0:0:0:0:
276,228,57783,1,8,0:3:0:0:
260,340,57963,1,0,0:0:0:0:
260,340,58054,1,0,0:0:0:0:
180,268,58234,5,8,0:0:0:0:
356,304,58415,1,8,0:0:0:0:
356,304,58777,6,0,P|384:256|360:152,1,160,4|8,0:0|0:0,0:0:0:0:
272,128,59319,1,2,0:0:0:0:
276,228,59499,2,0,L|444:232,1,160,0|8,0:0|0:0,0:0:0:0:
435,231,60042,1,0,0:0:0:0:
384,8,60222,6,0,B|352:80|352:80|384:172,1,160,2|8,0:0|0:0,0:0:0:0:
276,228,60765,2,0,L|180:220,1,80,2|0,0:0|0:0,0:0:0:0:
228,312,61126,1,0,0:0:0:0:
244,132,61307,2,0,L|340:140,1,80,8|2,0:0|0:0,0:0:0:0:
168,192,61668,6,0,P|144:144|200:48,1,160,4|8,0:0|0:0,0:0:0:0:
244,132,62210,1,0,0:0:0:0:
168,192,62391,2,0,L|80:184,1,80,2|0,0:0|0:0,0:0:0:0:
8,264,62753,1,8,0:0:0:0:
80,352,62933,1,0,0:0:0:0:
176,296,63114,6,0,P|216:280|268:288,1,80,0|2,0:0|0:0,0:0:0:0:
420,345,63475,2,0,P|380:347|344:332,1,80,8|0,0:0|0:0,0:0:0:0:
328,144,63837,2,0,L|340:232,1,80,2|0,0:0|0:0,0:0:0:0:
316,36,64198,1,8,0:0:0:0:
424,120,64379,1,2,0:0:0:0:
404,256,64560,6,0,P|336:244|224:228,1,160,4|8,0:0|0:0,0:0:0:0:
246,230,65102,1,0,0:0:0:0:
140,288,65283,2,0,P|108:248|124:144,1,160,2|8,0:0|0:0,0:0:0:0:
200,76,65825,1,0,0:0:0:0:
256,204,66006,6,0,P|216:216|168:208,1,80,2|0,0:0|0:0,0:0:0:0:
212,112,66367,2,0,P|252:100|300:108,1,80,8|0,0:0|0:0,0:0:0:0:
224,300,66728,5,2,0:0:0:0:
256,204,66909,1,0,0:0:0:0:
160,224,67090,1,8,0:0:0:0:
320,284,67271,1,2,0:0:0:0:
160,224,67451,6,0,P|148:180|200:80,2,160,4|8|0,0:0|0:0|0:0,0:0:0:0:
224,300,68355,1,2,0:0:0:0:
256,204,68536,1,8,0:0:0:0:
140,324,68716,1,6,0:0:0:0:
140,324,69078,6,0,P|148:272|152:228,1,80,0|8,0:0|0:0,0:0:0:0:
124,152,69439,1,2,0:0:0:0:
0,212,69620,2,0,P|32:228|88:220,1,80,0|0,0:0|0:0,0:0:0:0:
212,160,69981,2,0,P|209:124|174:79,1,80,8|2,0:0|0:0,0:0:0:0:
160,236,70343,6,0,P|176:292|220:384,1,160,4|8,0:0|0:0,0:0:0:0:
356,256,70885,2,0,L|272:248,1,80,2|0,0:0|0:0,0:0:0:0:
312,348,71246,2,0,L|396:356,1,80,2|8,0:0|0:0,0:0:0:0:
456,272,71608,6,0,P|448:216|440:104,1,160,2|0,0:0|0:0,0:0:0:0:
440,112,72150,1,8,0:0:0:0:
376,52,72331,2,0,P|420:24|476:32,1,80,2|0,0:0|0:0,0:0:0:0:
360,136,72692,2,0,P|320:140|284:125,1,80,2|8,0:0|0:0,0:0:0:0:
228,56,73054,1,0,0:0:0:0:
156,128,73234,6,0,L|160:224,1,80,6|0,0:0|0:0,0:0:0:0:
220,284,73596,1,8,0:0:0:0:
328,240,73777,1,2,0:0:0:0:
228,320,73957,2,0,P|172:308|136:304,1,80,0|2,0:0|0:0,0:0:0:0:
60,336,74319,2,0,P|28:288|56:168,1,160,8|0,0:0|0:0,0:0:0:0:
112,56,74861,5,2,0:0:0:0:
112,56,75042,2,0,P|116:104|88:148,1,80,8|0,0:0|0:0,0:0:0:0:
32,80,75403,1,2,0:0:0:0:
156,208,75584,2,0,L|244:192,1,80,0|8,0:0|0:0,0:0:0:0:
344,144,75945,1,2,0:0:0:0:
424,264,76126,6,0,P|388:304|264:276,1,160,4|8,0:0|0:0,0:0:0:0:
288,300,76668,1,2,0:0:0:0:
297,82,76849,2,0,B|348:144|348:144|340:224,1,160,0|8,0:0|0:0,0:0:0:0:
340,224,77391,1,2,0:0:0:0:
176,188,77572,6,0,L|264:180,1,80,0|0,0:0|0:0,0:0:0:0:
288,300,77933,2,0,L|200:308,1,80,8|0,0:0|0:0,0:0:0:0:
128,360,78295,1,0,0:0:0:0:
128,360,78475,1,2,0:0:0:0:
12,272,78656,1,8,0:0:0:0:
12,272,78837,1,0,0:0:0:0:
68,136,79018,5,4,0:0:0:0:
68,136,79198,1,0,0:0:0:0:
160,164,79379,2,0,L|248:148,1,80,8|2,0:0|0:0,0:0:0:0:
304,264,79740,2,0,L|216:280,1,80,8|0,0:0|0:0,0:0:0:0:
238,149,80102,1,8,0:0:0:0:
400,152,80283,6,0,P|432:192|384:296,1,160,4|0,0:0|0:0,0:0:0:0:
304,376,80825,2,0,L|312:296,1,80,8|2,0:0|0:0,0:0:0:0:
200,296,81186,2,0,L|208:376,1,80
110,287,81548,2,0,P|75:219|112:152,1,160,8|4,0:0|0:0,0:0:0:0:
256,88,82271,5,0,0:0:0:0:
256,88,82451,2,0,L|248:156,1,60.0000022888184,2|8,0:0|0:0,0:0:0:0:
304,280,82993,2,0,L|311:220,1,60.0000022888184,2|0,0:0|0:0,0:0:0:0:
384,252,83355,6,0,P|420:260|468:248,1,60.0000022888184,0|8,0:0|0:0,0:0:0:0:
480,188,83716,2,0,P|444:180|396:192,1,60.0000022888184,2|0,0:0|0:0,0:0:0:0:
384,252,84078,2,0,L|392:328,1,60.0000022888184,8|0,0:0|0:0,0:0:0:0:
304,280,84439,2,0,L|296:204,1,60.0000022888184
228,256,84801,6,0,P|196:248|128:312,1,120.000004577637,2|2,0:0|0:0,0:0:0:0:
68,252,85343,1,0,0:0:0:0:
68,252,85524,2,0,P|64:192|56:128,1,120.000004577637,8|2,0:0|0:0,0:0:0:0:
96,68,86066,2,0,L|160:64,1,60.0000022888184,8|0,0:0|0:0,0:0:0:0:
200,128,86427,2,0,L|264:124,2,60.0000022888184,0|8|0,0:0|0:0|0:0,0:0:0:0:
144,184,86969,5,8,0:0:0:0:
144,184,87150,1,0,0:0:0:0:
116,263,87331,1,8,0:0:0:0:
172,324,87512,1,0,0:0:0:0:
256,336,87692,6,0,L|352:328,1,80,4|0,0:0|0:0,0:0:0:0:
492,380,88054,2,0,P|496:336|484:296,1,80,8|0,0:0|0:0,0:0:0:0:
440,224,88415,2,0,L|344:232,1,80,2|0,0:0|0:0,0:0:0:0:
256,336,88777,2,0,P|244:284|248:248,1,80,8|0,0:0|0:0,0:0:0:0:
244,100,89138,6,0,P|256:178|245:257,1,160,2|8,0:0|0:0,0:0:0:0:
244,257,89861,1,2,0:0:0:0:
336,208,90042,1,0,0:0:0:0:
256,336,90222,6,0,L|96:328,1,160,12|8,0:0|0:0,0:0:0:0:
96,328,90765,1,0,0:0:0:0:
0,244,90945,2,0,L|8:324,1,80,8|0,0:0|0:0,0:0:0:0:
112,240,91307,2,0,L|120:160,1,80,8|0,0:0|0:0,0:0:0:0:
84,28,91668,1,8,0:0:0:0:
56,112,91849,1,8,0:0:0:0:
200,144,92030,6,0,L|288:132,1,80,0|0,0:0|0:0,0:0:0:0:
352,184,92391,2,0,P|368:144|360:100,1,80,8|0,0:0|0:0,0:0:0:0:
272,216,92753,2,0,P|256:256|264:300,1,80
412,48,93114,2,0,P|372:32|328:40,1,80,8|0,0:0|0:0,0:0:0:0:
352,184,93475,6,0,P|392:208|496:144,2,160,4|8|0,0:0|0:0|0:0,0:0:0:0:
272,216,94379,2,0,L|172:208,1,80,2|8,0:0|0:0,0:0:0:0:
120,260,94740,6,0,P|104:216|172:124,1,160,2|2,0:0|0:0,0:0:0:0:
272,216,95283,1,8,0:0:0:0:
256,304,95463,1,0,0:0:0:0:
176,344,95644,2,0,L|92:336,1,80,0|2,0:0|0:0,0:0:0:0:
256,304,96006,1,8,0:0:0:0:
336,344,96186,1,0,0:0:0:0:
412,300,96367,6,0,P|424:252|440:208,1,80,2|0,0:0|0:0,0:0:0:0:
388,128,96728,1,8,0:0:0:0:
433,223,96909,1,0,0:0:0:0:
388,128,97090,2,0,P|336:120|288:128,1,80,8|2,0:0|0:0,0:0:0:0:
228,156,97451,1,8,0:0:0:0:
220,244,97632,6,0,B|260:228|260:228|324:260|384:212,1,160,2|2,0:0|0:0,0:0:0:0:
315,83,98174,2,0,P|301:120|308:160,1,80,8|0,0:0|0:0,0:0:0:0:
388,128,98536,1,2,0:0:0:0:
388,128,98716,1,0,0:0:0:0:
240,36,98897,1,8,0:0:0:0:
240,36,99077,1,8,0:0:0:0:
112,172,99259,6,0,L|216:160,2,80,4|0|8,0:0|0:0|0:0,0:0:0:0:
48,264,99801,2,0,P|60:308|172:320,1,160,4|0,0:0|0:0,0:0:0:0:
256,192,100343,5,12,0:0:0:0:
256,192,100524,2,0,B|240:236|272:288|257:335,1,143.999995605469,0|4,0:0|0:0,0:0:0:0:
256,192,101246,12,2,103596,0:0:0:0:
176,139,104138,5,2,0:0:0:0:
176,139,104228,1,0,0:0:0:0:
176,139,104319,1,10,0:0:0:0:
308,112,104499,1,8,0:0:0:0:
335,244,104680,1,10,0:0:0:0:
203,271,104860,1,12,0:0:0:0:
