osu file format v13

[General]
AudioFilename: OP.mp3
AudioLeadIn: 1500
PreviewTime: 57963
Countdown: 0
SampleSet: Soft
StackLeniency: 0.7
Mode: 0
LetterboxInBreaks: 0
WidescreenStoryboard: 0

[Editor]
DistanceSpacing: 1.2
BeatDivisor: 4
GridSize: 16
TimelineZoom: 1

[Metadata]
Title:Dreamer Short ver.
TitleUnicode:Dreamer ショート ver.
Artist:Duca
ArtistUnicode:Duca
Creator:Tsukuyomi
Version:Yuki's Hard
Source:恋する彼女の不器用な舞台
Tags:koi suru kanojo no bukiyou na butai baldrace cube kantoku Moecho Kawaiwkyik [Teichan] Minakami Yuki opening galgame eroge
BeatmapID:557788
BeatmapSetID:238669

[Difficulty]
HPDrainRate:5.5
CircleSize:3.8
OverallDifficulty:6
ApproachRate:7.5
SliderMultiplier:1.4
SliderTickRate:1

[Events]
//Background and Video events
Video,-100,"MOVIE.AVI"
0,0,"BG.jpg",0,0
//Break Periods
//Storyboard Layer 0 (Background)
//Storyboard Layer 1 (Fail)
//Storyboard Layer 2 (Pass)
//Storyboard Layer 3 (Foreground)
//Storyboard Sound Samples

[TimingPoints]
-500,361.44578313253,4,2,3,60,1,0
6729,-100,4,2,1,60,0,0
7451,-100,4,2,3,60,0,0
12512,-100,4,2,2,40,0,0
24078,-133.333333333333,4,2,1,40,0,0
52993,-100,4,2,1,50,0,0
58054,-133.333333333333,4,2,1,40,0,0
58777,-100,4,2,1,70,0,1
81909,-133.333333333333,4,2,1,50,0,0
87692,-100,4,2,1,70,0,1
93475,-100,4,2,3,60,0,0
99259,-100,4,2,1,60,0,0
100433,-100,4,2,1,45,0,0

[Colours]
Combo1 : 0,128,255
Combo2 : 255,128,64
Combo3 : 0,255,0
Combo4 : 255,0,255

[HitObjects]
357,96,945,6,0,P|425:110|484:77,1,140,10|0,0:0|1:0,0:0:0:0:
326,19,1668,1,4,0:0:0:0:
357,96,1849,1,8,0:0:0:0:
299,157,2030,1,0,1:0:0:0:
218,133,2210,6,0,P|150:119|91:152,1,140,8|0,0:0|0:0,0:0:0:0:
57,229,2753,1,0,1:0:0:0:
57,229,3114,2,0,P|62:263|58:297,1,70,0|8,0:0|0:0,0:0:0:0:
142,293,3475,2,0,P|135:327|119:358,1,70,0|8,1:0|0:0,0:0:0:0:
206,237,3837,6,0,B|251:227|251:227|303:232|303:232|351:221,1,140,2|0,0:0|1:0,0:0:0:0:
490,141,4560,1,2,0:0:0:0:
490,141,4740,2,0,P|476:109|473:74,1,70,8|0,0:0|1:0,0:0:0:0:
402,26,5102,6,0,P|347:65|269:43,1,140,8|8,0:0|0:0,0:0:0:0:
200,21,5644,2,0,L|126:27,1,70,0|0,1:0|0:0,0:0:0:0:
82,113,6006,2,0,L|152:108,1,70,2|8,0:0|0:0,0:0:0:0:
223,151,6367,1,0,1:0:0:0:
198,231,6548,1,4,0:0:0:0:
223,151,6728,6,0,P|272:197|273:265,1,140,12|0,0:0|1:0,0:0:0:0:
419,349,7451,2,0,P|455:341|487:343,2,70,2|8|0,0:0|0:0|1:0,0:0:0:0:
366,283,7993,6,0,P|366:214|416:168,1,140,8|8,0:0|0:0,0:0:0:0:
500,164,8536,2,0,L|505:86,1,70,0|0,1:0|0:0,0:0:0:0:
416,10,8897,2,0,L|421:80,1,70,2|8,0:0|0:0,0:0:0:0:
348,123,9259,1,0,1:0:0:0:
269,95,9439,1,4,0:0:0:0:
259,91,9530,1,0,0:0:0:0:
249,87,9620,6,0,B|191:103|191:103|92:92,1,140,12|0,0:0|1:0,0:0:0:0:
33,125,10162,2,0,P|-7:185|11:247,1,140,2|8,0:0|0:0,0:0:0:0:
129,311,10704,2,0,P|125:242|76:194,1,140,2|8,1:2|0:0,0:0:0:0:
129,311,11246,2,0,B|187:295|187:295|286:306,1,140,2|4,1:2|0:0,0:0:0:0:
279,320,11698,1,0,0:0:0:0:
291,337,11789,6,0,L|371:330,1,70,2|8,1:2|0:0,0:0:0:0:
477,235,12150,2,0,L|408:229,1,70,2|0,1:2|0:0,0:0:0:0:
366,93,12512,6,0,P|299:109|241:74,2,140,2|2|2,0:0|0:0|0:0,0:0:0:0:
472,257,13596,2,0,L|403:263,1,70,2|4,0:0|0:0,0:0:0:0:
331,218,13957,5,0,0:0:0:0:
331,218,14138,2,0,P|321:255|322:287,1,70,4|2,0:0|0:0,0:0:0:0:
246,347,14499,2,0,P|246:312|238:279,1,70,4|2,0:0|0:0,0:0:0:0:
167,231,14861,1,0,0:0:0:0:
110,293,15042,2,0,P|78:303|36:297,1,70,10|0,0:0|0:0,0:0:0:0:
11,156,15403,6,0,P|47:97|21:25,2,140,2|2|2,0:0|0:0|0:0,0:0:0:0:
68,219,16307,2,0,P|100:209|142:215,1,70,0|2,0:0|0:0,0:0:0:0:
206,259,16668,1,4,0:0:0:0:
168,135,16849,5,2,0:0:0:0:
223,72,17030,2,0,P|230:37|227:2,1,70,4|2,0:0|0:0,0:0:0:0:
304,92,17391,2,0,P|324:63|337:30,1,70,4|2,0:0|0:0,0:0:0:0:
358,157,17753,2,0,P|388:139|413:115,1,70,0|10,0:0|0:0,0:0:0:0:
478,329,18295,6,0,B|435:325|435:325|387:341|387:341|341:336,1,140,2|2,0:0|0:0,0:0:0:0:
341,336,19018,1,2,0:0:0:0:
278,279,19198,2,0,P|261:310|257:344,1,70,0|2,0:0|0:0,0:0:0:0:
351,239,19560,6,0,P|297:198|230:210,1,140,4|0,0:0|0:0,0:0:0:0:
171,270,20102,2,0,P|128:279|93:270,1,70,6|0,0:0|0:0,0:0:0:0:
41,217,20463,1,6,0:0:0:0:
41,217,20644,1,0,0:0:0:0:
86,146,20825,2,0,L|79:69,1,70,10|0,0:0|0:0,0:0:0:0:
150,30,21186,6,0,L|162:169,2,140,2|2|2,0:0|0:0|0:0,0:0:0:0:
329,165,22271,1,2,0:0:0:0:
329,165,22451,6,0,B|395:152|395:152|474:159,1,140,0|4,0:0|0:0,0:0:0:0:
504,82,22993,2,0,L|434:75,1,70,2|0,0:0|0:0,0:0:0:0:
467,158,23355,2,0,P|479:191|477:225,1,70,2|4,0:0|0:0,0:0:0:0:
421,288,23716,1,8,0:0:0:0:
273,368,24078,6,0,P|269:321|287:265,1,105.000004005432,10|0,0:0|0:0,0:0:0:0:
243,194,24620,1,8,0:0:0:0:
243,194,24801,2,0,L|126:202,1,105.000004005432,0|0,1:0|0:0,0:0:0:0:
34,333,25524,6,0,L|91:343,1,52.5000020027161,0|0,0:0|1:0,0:0:0:0:
161,305,25885,1,10,0:0:0:0:
161,305,26066,1,8,0:0:0:0:
125,227,26246,2,0,P|122:175|134:125,1,105.000004005432,0|2,1:0|0:0,0:0:0:0:
271,26,26969,6,0,P|321:39|373:32,1,105.000004005432,8|0,0:0|0:0,0:0:0:0:
511,146,27692,2,0,P|504:179|507:217,1,52.5000020027161,0|2,1:0|0:0,0:0:0:0:
437,249,28054,1,8,0:0:0:0:
368,201,28234,6,0,P|317:187|265:194,1,105.000004005432,0|8,0:0|0:0,0:0:0:0:
192,237,28777,2,0,L|126:229,1,52.5000020027161,8|0,0:0|0:0,0:0:0:0:
63,194,29138,2,0,P|77:135|69:87,1,105.000004005432,0|8,1:0|0:0,0:0:0:0:
105,15,29680,1,0,0:0:0:0:
183,44,29861,6,0,L|299:36,1,105.000004005432,8|0,0:0|0:0,0:0:0:0:
478,187,30584,2,0,L|374:180,1,105.000004005432,0|0,1:0|0:0,0:0:0:0:
301,138,31126,1,2,0:0:0:0:
301,138,31307,6,0,L|287:193,1,52.5000020027161,0|0,0:0|1:0,0:0:0:0:
207,213,31668,2,0,L|216:273,1,52.5000020027161,8|8,0:0|0:0,0:0:0:0:
243,344,32030,2,0,P|293:363|350:356,1,105.000004005432,0|2,1:0|0:0,0:0:0:0:
192,282,32753,6,0,P|140:277|91:296,1,105.000004005432,8|0,0:0|1:0,0:0:0:0:
37,360,33295,1,0,0:0:0:0:
37,360,33475,2,0,P|37:298|13:241,1,105.000004005432,0|8,1:0|0:0,0:0:0:0:
51,178,34018,1,2,0:0:0:0:
130,205,34198,6,0,L|206:194,1,52.5000020027161,0|0,0:0|1:0,0:0:0:0:
245,120,34560,2,0,L|194:113,1,52.5000020027161,8|0,0:0|1:0,0:0:0:0:
177,100,34831,1,0,0:0:0:0:
160,87,34921,1,8,0:0:0:0:
227,13,35102,1,8,0:0:0:0:
324,35,35283,1,0,1:0:0:0:
495,155,35644,6,0,P|488:210|504:270,2,105.000004005432,12|0|0,0:0|1:0|0:0,0:0:0:0:
430,100,36548,2,0,L|367:107,1,52.5000020027161,8|0,0:0|0:0,0:0:0:0:
411,182,36909,2,0,L|289:195,1,105.000004005432,8|8,0:0|0:0,0:0:0:0:
268,268,37451,5,0,1:0:0:0:
334,319,37632,1,2,0:0:0:0:
334,319,37813,2,0,L|407:311,1,52.5000020027161,8|8,0:0|0:0,0:0:0:0:
469,304,38174,1,0,1:0:0:0:
268,268,38536,6,0,P|251:316|266:366,2,105.000004005432,8|0|0,0:0|1:0|0:0,0:0:0:0:
225,195,39439,2,0,L|221:132,1,52.5000020027161,8|0,0:0|0:0,0:0:0:0:
137,152,39801,2,0,L|129:26,1,105.000004005432,8|0,0:0|0:0,0:0:0:0:
53,11,40343,5,0,1:0:0:0:
4,79,40524,1,0,0:0:0:0:
4,79,40704,2,0,L|7:131,1,52.5000020027161,8|0,0:0|0:0,0:0:0:0:
65,192,41066,2,0,P|70:231|46:279,1,78.7500030040742,0|0,1:0|0:0,0:0:0:0:
31,300,41427,6,0,L|145:282,2,105.000004005432,8|0|0,0:0|1:0|1:0,0:0:0:0:
78,370,42331,2,0,L|146:359,1,52.5000020027161,8|0,0:0|0:0,0:0:0:0:
213,356,42692,2,0,P|264:359|307:331,1,105.000004005432,0|8,1:0|0:0,0:0:0:0:
247,223,43234,6,0,L|243:276,1,52.5000020027161,0|0,1:0|0:0,0:0:0:0:
181,168,43596,2,0,P|164:120|174:69,1,105.000004005432,2|0,0:0|1:0,0:0:0:0:
330,6,44319,5,8,0:0:0:0:
407,36,44499,2,0,L|478:30,2,52.5000020027161,0|0|0,0:0|1:0|0:0,0:0:0:0:
390,119,45042,1,0,1:0:0:0:
313,149,45222,2,0,L|242:143,2,52.5000020027161,8|0|0,0:0|0:0|3:0,0:0:0:0:
430,191,45765,6,0,L|501:185,2,52.5000020027161,8|0|0,0:0|3:0|3:2,0:0:0:0:
358,235,46307,2,0,P|368:285|352:335,1,105.000004005432,0|0,3:0|0:0,0:0:0:0:
276,371,46849,2,0,L|212:374,1,52.5000020027161,0|0,3:0|3:0,0:0:0:0:
146,271,47210,6,0,L|251:267,2,105.000004005432,8|0|2,0:0|1:0|0:0,0:0:0:0:
105,195,48114,2,0,P|106:169|114:144,1,52.5000020027161,8|0,0:0|0:0,0:0:0:0:
43,100,48475,2,0,P|24:154|24:216,1,105.000004005432,0|8,1:0|0:0,0:0:0:0:
65,274,49018,5,0,1:0:0:0:
139,312,49198,2,0,L|131:381,2,52.5000020027161,0|2|8,0:0|0:0|0:0,0:0:0:0:
219,287,49740,2,0,L|212:234,1,52.5000020027161,0|0,1:0|0:0,0:0:0:0:
301,303,50102,6,0,L|289:199,2,105.000004005432,10|0|2,0:0|1:0|0:0,0:0:0:0:
365,358,51006,2,0,L|428:362,1,52.5000020027161,8|0,0:0|1:0,0:0:0:0:
493,325,51367,2,0,P|515:278|511:226,1,105.000004005432,8|8,0:0|0:0,0:0:0:0:
396,159,51909,6,0,P|420:169|447:171,1,52.5000020027161,0|0,1:0|0:0,0:0:0:0:
393,73,52271,2,0,P|344:87|313:129,1,105.000004005432,8|0,0:0|1:0,0:0:0:0:
293,362,52993,6,0,P|291:323|278:291,1,70,4|0,1:0|0:0,0:0:0:0:
352,250,53355,2,0,P|323:223|291:210,1,70,0|0,1:0|0:0,0:0:0:0:
314,129,53716,2,0,P|275:131|243:144,1,70,0|0,1:0|0:0,0:0:0:0:
200,71,54078,2,0,P|173:99|160:131,1,70,0|0,1:2|0:0,0:0:0:0:
187,272,54439,6,0,P|196:238|192:203,1,70,0|0,1:0|0:0,0:0:0:0:
104,293,54801,2,0,P|144:348|212:352,2,140,0|0|0,1:0|1:0|1:0,0:0:0:0:
121,126,55885,6,0,L|51:134,1,70,4|2,1:0|0:0,0:0:0:0:
140,207,56246,2,0,L|312:186,1,140,2|0,1:2|1:2,0:0:0:0:
359,211,56789,1,10,0:0:0:0:
433,174,56969,1,0,1:2:0:0:
464,98,57150,1,10,0:0:0:0:
502,220,57331,5,8,0:0:0:0:
502,220,58054,2,0,L|496:291,2,52.5000020027161,0|0|0,0:0|1:2|1:2,0:0:0:0:
464,98,58777,6,0,P|416:102|360:74,1,105,4|0,0:1|0:0,0:0:0:0:
341,47,59138,2,0,L|349:139,1,70,0|2,1:0|0:0,0:0:0:0:
294,182,59499,1,2,0:0:0:0:
255,107,59680,1,8,0:0:0:0:
207,176,59861,2,0,L|131:190,1,70,0|2,1:0|0:0,0:0:0:0:
20,147,60222,6,0,P|66:98|134:105,1,140,8|0,0:0|1:0,0:0:0:0:
138,188,60765,2,0,L|118:353,1,140,2|8,0:0|0:0,0:0:0:0:
193,370,61307,1,0,1:0:0:0:
193,370,61487,1,2,0:0:0:0:
193,370,61668,6,0,P|260:341|336:363,1,140,8|0,0:0|1:0,0:0:0:0:
390,304,62210,1,2,0:0:0:0:
390,304,62391,2,0,L|385:229,1,70,2|8,0:0|0:0,0:0:0:0:
473,168,62753,2,0,L|469:238,1,70,0|2,1:0|0:0,0:0:0:0:
398,126,63114,6,0,P|382:61|418:3,2,140,8|0|2,0:0|1:0|0:0,0:0:0:0:
329,175,64018,1,8,0:0:0:0:
245,172,64198,2,0,L|209:92,1,70,0|0,1:0|0:0,0:0:0:0:
108,200,64560,6,0,P|82:252|96:306,1,105,4|0,0:1|0:0,0:0:0:0:
114,329,64921,2,0,L|29:345,1,70,0|2,1:0|0:0,0:0:0:0:
166,261,65283,1,0,0:0:0:0:
244,293,65463,1,8,0:0:0:0:
321,259,65644,2,0,L|406:275,1,70,0|2,1:0|0:0,0:0:0:0:
494,184,66006,6,0,L|425:195,1,70,8|8,0:0|0:0,0:0:0:0:
352,148,66367,2,0,P|342:115|342:80,1,70,0|2,1:0|0:0,0:0:0:0:
268,12,66728,2,0,P|268:47|258:81,1,70,0|8,0:0|0:0,0:0:0:0:
180,115,67090,2,0,L|111:104,1,70,0|2,1:0|0:0,0:0:0:0:
58,37,67451,6,0,P|27:98|50:162,2,140,8|0|2,0:0|1:0|0:0,0:0:0:0:
180,115,68355,1,8,0:0:0:0:
127,180,68536,2,0,P|118:217|123:259,1,70,0|8,1:0|0:0,0:0:0:0:
145,328,68897,5,0,0:0:0:0:
145,328,69078,1,2,0:0:0:0:
145,328,69259,2,0,L|76:340,1,70,0|0,1:0|0:0,0:0:0:0:
205,269,69620,2,0,L|296:286,1,70,2|8,0:0|0:0,0:0:0:0:
351,250,69981,2,0,P|367:200|355:150,1,105,0|0,1:0|0:0,0:0:0:0:
323,122,70343,6,0,L|473:106,1,140,4|0,0:1|1:0,0:0:0:0:
494,184,70885,2,0,P|468:230|491:337,1,140,2|8,0:0|0:0,0:0:0:0:
414,371,71427,1,0,1:0:0:0:
341,328,71608,6,0,P|290:310|211:349,1,140,2|2,0:0|0:0,0:0:0:0:
215,343,72150,1,0,1:0:0:0:
140,304,72331,2,0,L|145:164,1,140,2|8,0:0|0:0,0:0:0:0:
225,140,72873,2,0,L|222:209,1,70,0|2,1:0|0:0,0:0:0:0:
146,164,73234,6,0,P|85:193|21:171,1,140,8|0,0:0|1:0,0:0:0:0:
81,112,73777,1,2,0:0:0:0:
146,164,73957,2,0,L|143:233,1,70,0|8,0:0|0:0,0:0:0:0:
225,140,74319,2,0,L|222:70,1,70,0|2,1:0|0:0,0:0:0:0:
291,21,74680,6,0,B|341:50|394:13|394:13|423:22,1,140,8|0,0:0|1:0,0:0:0:0:
489,73,75222,2,0,P|518:135|488:214,1,140,2|8,0:0|0:0,0:0:0:0:
366,148,75765,2,0,L|436:144,1,70,0|2,1:0|0:0,0:0:0:0:
502,318,76126,6,0,P|436:300|379:337,1,140,4|0,0:1|1:0,0:0:0:0:
312,285,76668,1,0,0:0:0:0:
312,285,76849,2,0,B|317:217|317:217|284:194|280:149,1,140,2|0,0:0|1:0,0:0:0:0:
309,78,77391,1,2,0:0:0:0:
244,24,77572,6,0,L|174:18,1,70,8|0,0:0|0:0,0:0:0:0:
123,112,77933,2,0,L|192:100,1,70,0|0,1:0|0:0,0:0:0:0:
72,45,78295,2,0,P|46:74|37:114,1,70,2|8,0:0|0:0,0:0:0:0:
64,181,78656,2,0,P|71:216|65:250,1,70,0|0,1:0|0:0,0:0:0:0:
24,323,79018,5,10,0:0:0:0:
24,323,79198,1,8,0:0:0:0:
95,367,79379,2,0,L|172:362,1,70,0|10,1:0|0:0,0:0:0:0:
224,232,79740,2,0,L|154:225,1,70,0|10,1:0|0:0,0:0:0:0:
275,299,80102,1,0,0:0:0:0:
275,299,80283,6,0,P|352:303|397:258,1,140,0|8,1:0|0:0,0:0:0:0:
357,187,80825,2,0,L|351:110,1,70,4|2,1:0|0:0,0:0:0:0:
471,216,81186,2,0,L|476:285,2,70,8|8|0,0:0|0:0|1:0,0:0:0:0:
427,32,81909,6,0,B|375:28|375:28|317:41,1,105.000004005432,10|0,0:0|0:0,0:0:0:0:
254,87,82451,1,8,0:0:0:0:
254,87,82632,2,0,P|201:90|151:54,1,105.000004005432,0|8,1:0|0:0,0:0:0:0:
78,36,83174,1,8,0:0:0:0:
15,92,83355,6,0,L|9:160,1,52.5000020027161,0|2,0:0|0:0,0:0:0:0:
93,131,83716,2,0,L|102:198,1,52.5000020027161,8|0,0:0|0:0,0:0:0:0:
178,214,84078,2,0,P|148:247|88:263,1,105.000004005432,0|0,1:0|3:0,0:0:0:0:
50,336,84620,1,2,0:0:0:0:
50,336,84801,6,0,L|172:347,1,105.000004005432,8|8,0:0|0:0,0:0:0:0:
217,289,85343,1,2,0:0:0:0:
178,214,85524,2,0,L|184:149,1,52.5000020027161,0|0,1:0|0:0,0:0:0:0:
232,94,85885,1,8,0:0:0:0:
308,129,86066,6,0,P|358:138|406:117,1,105.000004005432,8|2,0:0|0:0,0:0:0:0:
464,57,86608,1,8,0:0:0:0:
505,284,86969,2,0,P|457:263|406:272,1,105.000004005432,0|0,1:0|0:0,0:0:0:0:
259,353,87692,6,0,P|266:285|231:226,1,140,4|0,0:0|1:0,0:0:0:0:
40,239,88415,2,0,P|96:279|165:279,1,140,0|0,0:0|1:0,0:0:0:0:
247,107,89138,6,0,P|184:136|150:196,2,140,8|0|2,0:0|1:0|0:0,0:0:0:0:
473,163,90222,2,0,L|404:168,1,70,4|0,1:2|0:0,0:0:0:0:
330,126,90584,5,0,1:0:0:0:
330,126,90765,1,8,0:0:0:0:
330,126,90945,2,0,P|328:86|310:46,1,70,0|8,1:0|0:0,0:0:0:0:
243,18,91307,2,0,L|208:15,2,35,0|0|8,1:0|0:0|0:0,0:0:0:0:
171,90,91668,2,0,P|139:104|104:102,1,70,0|0,0:0|1:0,0:0:0:0:
20,92,92030,6,0,L|39:244,2,140,2|4|4,0:0|1:0|1:0,0:0:0:0:
104,102,92933,1,0,0:0:0:0:
149,173,93114,2,0,P|160:228|142:286,1,105,4|0,1:0|0:0,0:0:0:0:
125,309,93475,6,0,P|201:293|277:319,1,140,10|0,0:0|1:0,0:0:0:0:
332,352,94018,1,0,0:0:0:0:
414,337,94198,2,0,L|497:321,2,70,0|8|0,0:0|0:0|0:0,0:0:0:0:
332,352,94740,6,0,B|340:303|340:303|329:265|329:265|342:193,1,140,0|8,1:0|0:0,0:0:0:0:
383,143,95283,1,0,1:0:0:0:
383,143,95644,2,0,P|418:135|453:135,1,70,10|8,0:0|0:0,0:0:0:0:
387,58,96006,2,0,P|352:65|317:65,1,70,0|8,1:0|0:0,0:0:0:0:
210,32,96367,6,0,L|191:172,1,140,2|0,0:0|1:0,0:0:0:0:
191,170,97090,1,0,1:0:0:0:
115,133,97271,2,0,L|41:143,1,70,10|0,0:0|0:0,0:0:0:0:
12,219,97632,6,0,P|72:252|80:319,1,140,0|8,1:0|0:0,0:0:0:0:
153,361,98174,1,2,1:2:0:0:
221,311,98355,1,0,1:0:0:0:
297,345,98536,2,0,L|441:355,1,140,0|0,0:0|1:0,0:0:0:0:
300,176,99259,6,0,L|230:180,1,70,4|8,0:0|0:0,0:0:0:0:
146,185,99620,1,0,1:0:0:0:
193,83,99801,2,0,L|262:87,1,70,10|0,0:0|0:0,0:0:0:0:
347,91,100162,1,0,0:0:0:0:
347,91,100343,5,4,0:0:0:0:
256,192,100433,12,8,103596,0:0:0:0:
207,193,104138,5,0,0:0:0:0:
207,193,104228,1,0,0:0:0:0:
207,193,104319,2,0,L|301:184,1,70,0|2,1:0|0:0,0:0:0:0:
347,232,104680,1,0,1:0:0:0:
311,111,104861,1,4,0:0:0:0:
