osu file format v13

[General]
AudioFilename: OP.mp3
AudioLeadIn: 1500
PreviewTime: 57963
Countdown: 0
SampleSet: Soft
StackLeniency: 0.7
Mode: 0
LetterboxInBreaks: 0
WidescreenStoryboard: 0

[Editor]
DistanceSpacing: 1.2
BeatDivisor: 4
GridSize: 8
TimelineZoom: 1

[Metadata]
Title:Dreamer Short ver.
TitleUnicode:Dreamer ショート ver.
Artist:Duca
ArtistUnicode:Duca
Creator:Tsukuyomi
Version:Teichan's Normal
Source:恋する彼女の不器用な舞台
Tags:koi suru kanojo no bukiyou na butai baldrace cube kantoku Moecho Kawaiwkyik [Teichan] Minakami Yuki opening galgame eroge
BeatmapID:552345
BeatmapSetID:238669

[Difficulty]
HPDrainRate:4
CircleSize:3.5
OverallDifficulty:4
ApproachRate:5
SliderMultiplier:1
SliderTickRate:1

[Events]
//Background and Video events
0,0,"BG.jpg",0,0
Video,-100,"MOVIE.AVI"
//Break Periods
//Storyboard Layer 0 (Background)
//Storyboard Layer 1 (Fail)
//Storyboard Layer 2 (Pass)
//Storyboard Layer 3 (Foreground)
//Storyboard Sound Samples

[TimingPoints]
-500,361.44578313253,4,2,1,60,1,0
12512,-100,4,2,2,60,0,0
24078,-100,4,2,1,50,0,0
26969,-100,4,2,1,55,0,0
29861,-100,4,2,1,60,0,0
44319,-100,4,2,1,70,0,0
47210,-100,4,2,1,60,0,0
54439,-100,4,2,1,65,0,0
55885,-100,4,2,1,70,0,0
58777,-100,4,2,1,65,0,1
81909,-100,4,2,1,60,0,0
87692,-100,4,2,1,60,0,1
89138,-100,4,2,1,65,0,1
89861,-100,4,2,1,55,0,1
90222,-100,4,2,1,70,0,1
93475,-100,4,2,1,65,0,0
100343,-100,4,2,1,40,0,0
104319,-100,4,2,1,55,0,0
104861,-83.3333333333333,4,2,1,70,0,0

[Colours]
Combo1 : 192,192,192
Combo2 : 255,128,64
Combo3 : 128,0,255
Combo4 : 0,255,64

[HitObjects]
78,83,584,5,2,0:0:0:0:
68,204,945,6,0,P|116:204|164:168,1,100,12|0,0:0|1:0,0:0:0:0:
240,88,1668,2,0,L|240:36,2,50,2|8|0,0:0|0:0|1:0,0:0:0:0:
240,148,2210,2,0,B|240:196|240:196|240:268|300:296,1,150,8|0,0:0|1:0,0:0:0:0:
364,198,3114,1,0,0:0:0:0:
400,312,3475,1,0,1:0:0:0:
480,224,3837,6,0,P|482:176|449:126,1,100,8|0,0:0|1:0,0:0:0:0:
370,47,4560,2,0,L|401:7,2,50,2|8|0,0:0|0:0|1:0,0:0:0:0:
337,97,5102,2,0,B|320:137|248:137|248:137|201:137,1,150,8|0,0:0|1:0,0:0:0:0:
120,48,6006,1,0,0:0:0:0:
40,136,6367,1,0,1:0:0:0:
120,224,6728,5,12,0:0:0:0:
39,312,7090,2,0,P|73:347|121:353,1,100,0|2,1:0|0:0,0:0:0:0:
182,353,7632,2,0,L|262:353,1,50,8|0,0:0|1:0,0:0:0:0:
292,353,7993,2,0,P|356:321|372:247,1,150,8|0,0:0|1:0,0:0:0:0:
325,138,8897,1,0,0:0:0:0:
260,239,9259,1,0,1:0:0:0:
153,293,9620,6,0,L|1:237,1,150,8|0,0:0|1:0,0:0:0:0:
145,120,10704,2,0,L|305:64,1,150,8|0,0:0|1:0,0:0:0:0:
464,104,11789,1,0,1:0:0:0:
464,224,12150,1,0,1:0:0:0:
496,336,12512,6,0,P|446:340|402:319,1,100,2|2,0:0|0:0,0:0:0:0:
304,384,13234,2,0,P|282:339|287:290,1,100,2|2,0:0|0:0,0:0:0:0:
352,192,13957,2,0,P|307:170|258:175,1,100,2|2,0:0|0:0,0:0:0:0:
160,112,14680,2,0,P|138:157|143:206,1,100,2|10,0:0|0:0,0:0:0:0:
136,328,15403,6,0,L|240:304,1,100,2|2,0:0|0:0,0:0:0:0:
344,344,16126,1,2,0:0:0:0:
416,248,16487,1,2,0:0:0:0:
384,128,16849,2,0,P|285:103|172:144,1,200,2|2,0:0|0:0,0:0:0:0:
144,240,17933,1,10,0:0:0:0:
96,129,18295,6,0,P|144:118|193:129,1,100,2|2,0:0|0:0,0:0:0:0:
144,240,19018,2,0,P|192:251|240:240,1,100,2|2,0:0|0:0,0:0:0:0:
295,134,19740,1,2,0:0:0:0:
415,153,20102,1,2,0:0:0:0:
434,272,20463,1,2,0:0:0:0:
326,325,20825,1,10,0:0:0:0:
216,280,21186,6,0,P|202:326|229:388,2,100,2|2|2,0:0|0:0|0:0,0:0:0:0:
120,208,22271,1,2,0:0:0:0:
72,176,22451,2,0,P|61:101|130:23,1,150,2|2,0:0|0:0,0:0:0:0:
184,128,23355,2,0,L|264:56,1,100,2|10,0:0|0:0,0:0:0:0:
368,16,24078,6,0,B|392:64|368:108|368:108|440:152,1,150,2|2,0:0|0:0,0:0:0:0:
464,168,24801,2,0,P|445:243|388:300,1,150,0|0,1:0|0:0,0:0:0:0:
344,320,25524,2,0,L|280:344,1,50,0|0,0:0|1:0,0:0:0:0:
240,328,25885,2,0,L|176:328,1,50,2|2,0:0|0:0,0:0:0:0:
144,288,26246,2,0,P|141:234|173:155,1,100,0|0,1:0|0:0,0:0:0:0:
48,136,26969,6,0,P|96:80|184:72,1,150,2|2,0:0|0:0,0:0:0:0:
228,74,27692,2,0,L|252:30,2,50,0|0|0,1:0|0:0|0:0,0:0:0:0:
256,128,28234,2,0,L|360:200,1,100,2|0,0:0|1:0,0:0:0:0:
352,240,28777,2,0,L|392:308,1,50,2|2,0:0|0:0,0:0:0:0:
432,304,29138,1,0,1:0:0:0:
480,192,29499,1,2,0:0:0:0:
432,80,29861,6,0,B|365:45|272:48,1,150,2|2,0:0|0:0,0:0:0:0:
227,53,30584,2,0,L|127:113,1,100,0|0,1:0|0:0,0:0:0:0:
104,152,31126,2,0,P|76:224|116:296,1,150,2|2,0:0|0:0,0:0:0:0:
200,216,32030,1,0,1:0:0:0:
304,152,32391,2,0,L|352:188,1,50,2|0,0:0|0:0,0:0:0:0:
392,216,32753,5,8,0:0:0:0:
344,328,33114,2,0,P|392:344|456:320,2,100,0|0|2,1:0|1:0|0:0,0:0:0:0:
232,360,34198,2,0,P|144:320|104:208,1,200,2|2,0:0|0:0,0:0:0:0:
64,112,35283,1,0,1:0:0:0:
184,136,35644,5,4,0:0:0:0:
408,335,36548,1,2,0:0:0:0:
288,347,36909,2,0,P|220:317|174:240,1,150,8|0,0:0|1:0,0:0:0:0:
184,136,37813,2,0,L|284:80,1,100,8|0,0:0|1:0,0:0:0:0:
376,32,38536,5,4,0:0:0:0:
123,194,39440,1,2,0:0:0:0:
237,158,39801,2,0,P|299:138|393:168,1,150,8|0,0:0|1:0,0:0:0:0:
424,272,40704,2,0,L|324:328,1,100,8|0,0:0|1:0,0:0:0:0:
216,320,41427,6,0,P|176:274|176:195,1,100,8|0,0:0|1:0,0:0:0:0:
192,120,42150,1,0,1:0:0:0:
208,62,42331,2,0,L|312:14,2,100,8|0|8,0:0|1:0|0:0,0:0:0:0:
151,81,43234,2,0,P|90:85|35:141,1,100,0|8,1:0|0:0,0:0:0:0:
32,224,43957,1,0,1:0:0:0:
96,328,44319,6,0,L|300:307,2,200,8|0|8,0:0|1:0|0:0,0:0:0:0:
152,222,46126,1,0,1:0:0:0:
264,176,46487,2,0,L|360:128,1,100,8|0,0:0|1:0,0:0:0:0:
464,80,47210,5,4,0:0:0:0:
224,56,47933,2,0,L|168:24,2,50,0|8|0,1:0|0:0|0:0,0:0:0:0:
256,106,48475,2,0,B|256:151|256:151|256:223|215:240,1,150,8|0,0:0|1:0,0:0:0:0:
109,297,49379,2,0,P|149:342|197:353,1,100,8|0,0:0|1:0,0:0:0:0:
299,315,50102,5,12,0:0:0:0:
88,192,50825,2,0,L|32:208,2,50,8|0|0,0:0|1:0|0:0,0:0:0:0:
121,142,51367,2,0,B|137:101|209:101|209:101|255:101,1,150,8|0,0:0|1:0,0:0:0:0:
373,76,52271,2,0,P|349:20|309:0,1,100,8|0,0:0|1:0,0:0:0:0:
200,16,52993,6,0,L|120:92,1,100,12|0,0:0|1:0,0:0:0:0:
248,88,53716,2,0,L|190:182,1,100,8|0,0:0|1:0,0:0:0:0:
312,152,54439,2,0,L|280:257,1,100,8|0,0:0|1:0,0:0:0:0:
392,192,55162,2,0,L|389:302,1,100,8|0,0:0|1:0,0:0:0:0:
496,240,55885,6,0,P|496:136|408:84,1,200,12|0,0:0|1:0,0:0:0:0:
304,72,56969,1,0,1:0:0:0:
232,168,57331,1,8,0:0:0:0:
424,312,58054,6,0,L|336:264,1,100,2|0,0:0|1:0,0:0:0:0:
232,320,58777,6,0,P|216:280|224:222,1,100,12|0,0:0|1:0,0:0:0:0:
232,168,59319,1,0,0:0:0:0:
248,112,59499,2,0,L|352:64,1,100,8|0,0:0|1:0,0:0:0:0:
392,176,60222,1,8,0:0:0:0:
368,296,60584,2,0,P|432:296|480:264,2,100,0|8|0,1:0|0:0|1:0,0:0:0:0:
267,230,61668,6,0,P|180:187|123:94,2,200,8|8|8,0:0|0:0|0:0,0:0:0:0:
352,144,63475,1,0,1:0:0:0:
456,88,63837,2,0,P|472:144|448:200,1,100,8|0,0:0|1:0,0:0:0:0:
392,280,64560,6,0,P|304:320|195:293,1,200,8|8,0:0|0:0,0:0:0:0:
112,224,65644,1,0,1:0:0:0:
48,120,66006,2,0,L|28:12,1,100,8|0,0:0|1:0,0:0:0:0:
152,24,66728,2,0,L|169:122,1,100,8|0,0:0|1:0,0:0:0:0:
112,224,67451,6,0,P|170:303|266:323,1,200,8|0,0:0|1:0,0:0:0:0:
324,308,68355,2,0,L|380:284,1,50,8|0,0:0|1:0,0:0:0:0:
423,260,68716,2,0,P|450:217|459:148,1,100,8|0,0:0|1:0,0:0:0:0:
474,110,69259,2,0,L|461:55,1,50,8|0,0:0|0:0,0:0:0:0:
436,7,69620,1,0,1:0:0:0:
336,72,69981,1,0,1:0:0:0:
296,184,70343,6,0,P|246:156|223:104,1,100,12|0,0:0|1:0,0:0:0:0:
184,8,71066,2,0,P|140:28|112:80,1,100,8|0,0:0|1:0,0:0:0:0:
32,160,71789,2,0,L|48:280,1,100,8|0,0:0|1:0,0:0:0:0:
80,304,72331,2,0,P|125:333|184:336,1,100
232,336,72873,1,0,1:0:0:0:
352,328,73234,6,0,P|432:280|488:184,2,200,8|8|8,0:0|0:0|0:0,0:0:0:0:
280,232,75042,1,0,1:0:0:0:
212,133,75403,2,0,L|115:106,1,100,8|0,0:0|1:0,0:0:0:0:
8,160,76126,6,0,P|8:216|48:264,1,100,8|0,0:0|1:0,0:0:0:0:
80,288,76668,1,0,0:0:0:0:
136,312,76849,2,0,L|248:328,1,100,8|0,0:0|1:0,0:0:0:0:
344,368,77572,2,0,P|392:344|420:296,1,100,8|0,0:0|1:0,0:0:0:0:
312,248,78295,2,0,P|340:207|384:186,1,100,8|0,0:0|1:0,0:0:0:0:
496,224,79018,6,0,P|488:128|400:72,1,200,8|0,0:0|1:0,0:0:0:0:
352,64,79921,2,0,L|280:64,1,50,8|0,0:0|0:0,0:0:0:0:
240,64,80283,1,0,1:0:0:0:
126,198,80825,2,0,P|89:166|72:120,2,100,0|8|0,1:0|0:0|1:0,0:0:0:0:
248,176,81909,6,0,P|244:80|324:0,1,200,8|0,0:0|1:0,0:0:0:0:
416,56,82993,1,8,0:0:0:0:
465,89,83174,2,0,L|449:205,1,100,8|0,0:0|1:0,0:0:0:0:
448,248,83716,2,0,P|415:295|360:316,1,100,8|0,0:0|1:0,0:0:0:0:
336,200,84439,2,0,L|296:232,1,50,0|8,0:0|0:0,0:0:0:0:
248,264,84801,6,0,P|184:256|144:224,1,100,8|0,0:0|0:0,0:0:0:0:
40,256,85524,2,0,P|40:200|80:152,1,100,0|8,1:0|0:0,0:0:0:0:
104,120,86066,2,0,L|188:44,1,100,8|0,0:0|1:0,0:0:0:0:
224,16,86608,1,8,0:0:0:0:
328,72,86969,1,0,1:0:0:0:
432,8,87331,1,0,0:0:0:0:
424,128,87692,6,0,L|440:237,1,100,12|0,0:0|1:0,0:0:0:0:
340,156,88415,2,0,L|327:265,1,100,8|0,0:0|1:0,0:0:0:0:
256,160,89138,2,0,L|216:264,1,100,8|0,0:0|1:0,0:0:0:0:
168,144,89861,1,12,0:0:0:0:
112,248,90222,1,4,1:2:0:0:
256,192,90403,12,8,92753,0:0:0:0:
276,48,93475,6,0,P|229:85|150:83,1,100,12|0,0:0|1:0,0:0:0:0:
72,88,94198,2,0,L|32:32,2,50,2|8|0,0:0|0:0|1:0,0:0:0:0:
69,148,94740,2,0,B|50:242|106:284,1,150,8|0,0:0|1:0,0:0:0:0:
189,195,95644,1,8,0:0:0:0:
309,195,96006,1,0,1:0:0:0:
383,101,96367,6,0,P|423:141|431:197,1,100,8|0,0:0|1:0,0:0:0:0:
472,296,97090,2,0,L|524:256,2,50,2|8|0,0:0|0:0|1:0,0:0:0:0:
424,328,97632,2,0,P|381:352|331:356,1,100,8|8,0:0|0:0,0:0:0:0:
272,344,98174,2,0,L|160:296,2,100,0|8|0,1:0|0:0|1:0,0:0:0:0:
320,232,99259,6,0,L|360:176,2,50,12|0|0,0:0|0:0|1:0,0:0:0:0:
262,213,99801,2,0,L|261:155,2,50,8|0|8,0:0|0:0|0:0,0:0:0:0:
256,192,100343,12,8,103596,0:0:0:0:
320,192,104319,6,0,L|272:237,1,50,0|0,1:0|1:0,0:0:0:0:
223,226,104680,2,0,L|186:191,1,50,0|4,1:0|1:2,0:0:0:0:
