osu file format v13

[General]
AudioFilename: OP.mp3
AudioLeadIn: 1500
PreviewTime: 57963
Countdown: 0
SampleSet: Soft
StackLeniency: 0.7
Mode: 0
LetterboxInBreaks: 0
WidescreenStoryboard: 0

[Editor]
DistanceSpacing: 1
BeatDivisor: 4
GridSize: 4
TimelineZoom: 2.7

[Metadata]
Title:Dreamer Short ver.
TitleUnicode:Dreamer ショート ver.
Artist:Duca
ArtistUnicode:Duca
Creator:Tsukuyomi
Version:Moecho's Insane
Source:恋する彼女の不器用な舞台
Tags:koi suru kanojo no bukiyou na butai baldrace cube kantoku Moecho Kawaiwkyik [Teichan] Minakami Yuki opening galgame eroge
BeatmapID:554378
BeatmapSetID:238669

[Difficulty]
HPDrainRate:7
CircleSize:4
OverallDifficulty:7.5
ApproachRate:8.8
SliderMultiplier:1.66
SliderTickRate:2

[Events]
//Background and Video events
Video,-100,"MOVIE.AVI"
0,0,"BG.jpg",0,0
//Break Periods
//Storyboard Layer 0 (Background)
//Storyboard Layer 1 (Fail)
//Storyboard Layer 2 (Pass)
//Storyboard Layer 3 (Foreground)
//Storyboard Sound Samples

[TimingPoints]
-500,361.44578313253,4,2,4,40,1,0
584,-100,4,2,4,20,0,0
945,-100,4,2,4,40,0,0
7632,-100,4,2,4,38,0,0
7813,-100,4,2,4,35,0,0
7993,-100,4,2,1,35,0,0
8536,-100,4,2,4,35,0,0
12512,-117.647058823529,4,2,4,30,0,0
21186,-117.647058823529,4,2,4,33,0,0
21548,-117.647058823529,4,2,4,34,0,0
21909,-117.647058823529,4,2,4,35,0,0
22271,-117.647058823529,4,2,4,36,0,0
22632,-117.647058823529,4,2,4,37,0,0
22993,-117.647058823529,4,2,4,38,0,0
23355,-117.647058823529,4,2,4,39,0,0
23716,-117.647058823529,4,2,4,40,0,0
24078,-117.647058823529,4,2,4,35,0,0
32301,-117.647058823529,4,2,4,20,0,0
32391,-117.647058823529,4,2,4,35,0,0
35283,-200,4,2,4,35,0,0
35554,-200,4,2,4,20,0,0
35644,-100,4,2,4,40,0,0
38174,-200,4,2,4,40,0,0
38445,-200,4,2,4,20,0,0
38536,-100,4,2,4,40,0,0
39981,-100,4,2,4,20,0,0
40162,-100,4,2,4,40,0,0
41427,-90.9090909090909,4,2,4,40,0,0
46849,-181.818181818182,4,2,4,40,0,0
47120,-181.818181818182,4,2,4,20,0,0
47210,-100,4,2,4,40,0,0
48475,-133.333333333333,4,2,4,40,0,0
49018,-100,4,2,4,40,0,0
50102,-133.333333333333,4,2,4,40,0,0
50644,-100,4,2,4,40,0,0
51367,-200,4,2,4,40,0,0
51909,-100,4,2,4,40,0,0
58415,-200,4,2,4,40,0,0
58460,-200,4,2,4,5,0,0
58777,-86.9565217391304,4,2,4,60,0,1
68716,-111.111111111111,4,2,4,60,0,1
69078,-86.9565217391304,4,2,4,60,0,1
79018,-86.9565217391304,4,2,1,60,0,1
79198,-86.9565217391304,4,2,4,60,0,1
80283,-173.913043478261,4,2,4,60,0,1
80825,-86.9565217391304,4,2,4,60,0,1
81006,-173.913043478261,4,2,4,60,0,1
81548,-86.9565217391304,4,2,4,60,0,1
81909,-111.111111111111,4,2,4,40,0,0
87692,-80,4,2,4,60,0,1
90222,-160,4,2,4,60,0,1
90765,-90.9090909090909,4,2,4,60,0,1
93114,-86.9565217391304,4,2,4,60,0,1
93475,-83.3333333333333,4,2,4,40,0,0
103596,-83.3333333333333,4,2,1,40,0,0
103777,-83.3333333333333,4,2,4,40,0,0

[Colours]
Combo1 : 192,192,192
Combo2 : 255,128,64
Combo3 : 128,0,255
Combo4 : 0,255,64

[HitObjects]
251,316,584,6,0,B|243:282|243:282|248:257|268:239|268:239|247:188,1,124.5
228,180,945,6,0,P|185:156|120:190,1,124.5,6|0,0:0|0:0,0:0:0:0:
117,219,1307,1,10,0:0:0:0:
160,327,1487,1,0,0:0:0:0:
288,238,1668,2,0,B|315:227|315:227|342:235|375:232|375:232|394:235,1,83,0|2,0:0|0:0,0:0:0:0:
483,134,2030,1,8,0:0:0:0:
484,134,2210,6,0,B|437:161|437:161|482:202|468:262|465:262,1,166,2|0,0:0|0:0,0:0:0:0:
279,128,2753,2,0,P|318:116|359:126,1,83,10|0,0:0|0:0,0:0:0:0:
369,232,3114,1,0,0:0:0:0:
283,336,3295,1,2,0:0:0:0:
290,201,3475,1,8,0:0:0:0:
364,314,3656,1,2,0:0:0:0:
238,266,3837,6,0,P|194:260|148:268,1,83,6|0,0:0|0:0,0:0:0:0:
25,299,4198,1,10,0:0:0:0:
77,183,4379,1,0,0:0:0:0:
77,183,4469,1,0,0:0:0:0:
77,183,4560,2,0,P|76:126|80:83,1,83,0|2,0:0|0:0,0:0:0:0:
189,39,4921,1,10,0:0:0:0:
236,179,5102,6,0,P|311:179|317:104,1,166,2|2,0:0|0:0,0:0:0:0:
33,39,5644,2,0,P|30:80|32:121,1,83,10|2,0:0|0:0,0:0:0:0:
71,257,6006,2,0,P|111:250|140:221,1,83,0|2,0:0|0:0,0:0:0:0:
309,214,6367,2,0,P|282:183|236:170,1,83,8|0,0:0|0:0,0:0:0:0:
236,251,6638,1,0,0:0:0:0:
236,252,6728,6,0,P|313:296|377:259,2,166,6|10|0,0:0|0:0|0:0,0:0:0:0:
154,164,7632,1,0,0:0:0:0:
175,335,7813,1,8,0:0:0:0:
309,215,7993,6,0,B|321:174|321:174|312:145|312:145|339:100|296:58,1,166,8|8,0:0|0:0,0:0:0:0:
186,237,8536,2,0,P|145:245|106:233,1,83,8|2,0:0|0:0,0:0:0:0:
238,168,8897,2,0,P|251:129|281:101,1,83,0|0,0:0|0:0,0:0:0:0:
271,247,9259,2,0,P|298:277|307:317,1,83,10|0,0:0|0:0,0:0:0:0:
226,316,9530,1,0,0:0:0:0:
226,316,9620,6,0,P|154:319|98:234,1,166,6|8,0:0|0:0,0:0:0:0:
44,119,10162,1,2,0:0:0:0:
44,119,10343,2,0,L|44:24,1,83,0|0,0:0|0:0,0:0:0:0:
208,61,10704,1,10,0:0:0:0:
208,61,10885,6,0,L|290:108,1,83,0|0,0:0|0:0,0:0:0:0:
165,223,11246,1,10,0:0:0:0:
165,223,11427,2,0,L|93:264,1,83,8|0,0:0|0:0,0:0:0:0:
141,138,11789,2,0,L|119:90,2,41.5,10|0|0,0:0|0:0|0:0,0:0:0:0:
254,216,12150,2,0,P|294:224|334:215,1,83,14|0,0:0|0:0,0:0:0:0:
414,189,12421,1,0,0:0:0:0:
414,189,12512,6,0,L|411:104,1,70.5500013456345,2|0,0:0|0:0,0:0:0:0:
404,20,12873,2,0,P|352:16|314:26,1,70.5500013456345
209,139,13234,2,0,P|175:145|141:138,2,70.5500013456345,0|0|0,0:0|0:0|0:0,0:0:0:0:
263,75,13777,6,0,P|282:105|288:140,1,70.5500013456345,0|0,0:0|0:0,0:0:0:0:
242,244,14138,2,0,P|286:253|328:240,1,70.5500013456345,2|0,0:0|0:0,0:0:0:0:
495,219,14499,2,0,P|451:210|409:223,1,70.5500013456345
347,344,14861,1,0,0:0:0:0:
399,236,15042,1,8,0:0:0:0:
253,342,15222,1,0,0:0:0:0:
165,284,15403,6,0,P|110:262|55:312,1,141.100002691269,2|0,0:0|0:0,0:0:0:0:
23,198,15945,2,0,L|23:110,1,70.5500013456345
106,110,16307,2,0,L|106:22,1,70.5500013456345
215,21,16668,6,0,P|281:51|349:15,1,141.100002691269,2|2,0:0|0:0,0:0:0:0:
191,136,17210,2,0,P|188:182|196:214,1,70.5500013456345,0|2,0:0|0:0,0:0:0:0:
238,295,17572,1,0,0:0:0:0:
294,212,17753,1,0,0:0:0:0:
193,205,17933,2,0,P|158:201|123:206,1,70.5500013456345,8|0,0:0|0:0,0:0:0:0:
88,278,18204,1,0,0:0:0:0:
88,278,18295,6,0,P|44:223|72:145,2,141.100002691269,2|0|0,0:0|0:0|0:0,0:0:0:0:
167,341,19198,2,0,L|238:292,1,70.5500013456345,2|0,0:0|0:0,0:0:0:0:
304,344,19560,6,0,B|370:332|370:332|411:370|466:339,1,141.100002691269,2|0,0:0|0:0,0:0:0:0:
429,259,20102,2,0,L|444:174,1,70.5500013456345,0|2,0:0|0:0,0:0:0:0:
510,136,20463,2,0,L|473:57,1,70.5500013456345,2|0,0:0|0:0,0:0:0:0:
389,44,20825,1,8,0:0:0:0:
345,141,21006,1,0,0:0:0:0:
345,141,21096,1,0,0:0:0:0:
345,141,21186,6,0,P|293:152|257:143,1,70.5500013456345,2|0,0:0|0:0,0:0:0:0:
180,87,21548,1,2,0:0:0:0:
173,219,21728,1,0,0:0:0:0:
137,18,21909,2,0,P|114:39|100:85,1,70.5500013456345,2|0,0:0|0:0,0:0:0:0:
222,156,22271,2,0,P|248:131|259:98,1,70.5500013456345,2|2,0:0|0:0,0:0:0:0:
141,158,22632,6,0,P|150:192|173:219,1,70.5500013456345,0|2,0:0|0:0,0:0:0:0:
340,96,22993,2,0,P|331:62|308:35,1,70.5500013456345,0|2,0:0|0:0,0:0:0:0:
180,87,23355,2,0,P|139:77|67:118,1,105.825002018452,2|0,0:0|0:0,0:0:0:0:
60,118,23716,2,0,L|60:201,1,70.5500013456345,10|0,0:0|0:0,0:0:0:0:
31,302,24078,6,0,P|84:339|184:313,1,141.100002691269,2|0,0:0|0:0,0:0:0:0:
257,286,24620,1,0,0:0:0:0:
257,286,24801,2,0,B|252:248|252:248|287:211|270:152,1,141.100002691269,10|2,0:0|0:0,0:0:0:0:
176,186,25343,1,0,0:0:0:0:
176,186,25524,6,0,P|141:206|112:238,2,70.5500013456345,0|8|0,0:0|0:0|0:0,0:0:0:0:
270,152,26066,1,0,0:0:0:0:
270,152,26246,2,0,P|345:171|381:136,1,105.825002018452,10|0,0:0|0:0,0:0:0:0:
387,141,26608,2,0,L|389:65,1,70.5500013456345
470,35,26969,6,0,L|485:126,1,70.5500013456345,8|0,0:0|0:0,0:0:0:0:
499,210,27331,2,0,P|469:230|417:226,1,70.5500013456345
323,200,27692,2,0,P|280:195|240:211,1,70.5500013456345,10|0,0:0|0:0,0:0:0:0:
139,273,28054,1,0,0:0:0:0:
34,190,28234,1,0,0:0:0:0:
34,190,28415,6,0,P|31:149|37:101,1,70.5500013456345,2|0,0:0|0:0,0:0:0:0:
62,36,28777,2,0,P|103:33|151:39,1,70.5500013456345
233,68,29138,1,10,0:0:0:0:
158,127,29319,1,2,0:0:0:0:
231,181,29499,2,0,P|237:215|232:250,1,70.5500013456345,2|0,0:0|0:0,0:0:0:0:
191,323,29771,1,0,0:0:0:0:
191,323,29861,6,0,P|265:326|312:272,1,141.100002691269,2|0,0:0|0:0,0:0:0:0:
406,239,30403,1,0,0:0:0:0:
406,239,30584,2,0,L|429:329,1,70.5500013456345,8|0,0:0|0:0,0:0:0:0:
337,190,30945,1,2,0:0:0:0:
337,190,31126,6,0,B|383:137|447:166|447:166|458:151,1,141.100002691269,0|8,0:0|0:0,0:0:0:0:
458,151,31668,2,0,L|462:71,1,70.5500013456345,0|0,0:0|0:0,0:0:0:0:
406,239,32030,2,0,P|365:278|312:277,1,105.825002018452,8|0,0:0|0:0,0:0:0:0:
276,261,32391,1,0,0:0:0:0:
170,325,32572,1,0,0:0:0:0:
170,325,32753,6,0,P|129:331|82:325,1,70.5500013456345,0|0,0:0|0:0,0:0:0:0:
101,225,33114,2,0,P|67:200|38:163,1,70.5500013456345,10|0,0:0|0:0,0:0:0:0:
123,106,33475,2,0,P|117:64|123:18,1,70.5500013456345,10|0,0:0|0:0,0:0:0:0:
224,127,33837,2,0,P|230:168|224:215,1,70.5500013456345,2|2,0:0|0:0,0:0:0:0:
170,325,34198,5,2,0:0:0:0:
310,286,34379,1,8,0:0:0:0:
170,233,34560,2,0,P|136:227|100:225,1,70.5500013456345,2|8,0:0|0:0,0:0:0:0:
20,242,34831,1,8,0:0:0:0:
20,242,34921,2,0,P|24:196|46:160,1,70.5500013456345,10|0,0:0|0:0,0:0:0:0:
123,106,35283,6,0,L|193:139,1,62.25,10|0,0:0|0:0,0:0:0:0:
214,154,35644,5,6,0:0:0:0:
214,154,36006,2,0,B|255:137|294:156,1,83,8|0,0:0|0:0,0:0:0:0:
446,242,36367,2,0,L|446:159,1,83
446,159,36909,2,0,P|371:128|294:157,1,166,8|0,0:0|0:0,0:0:0:0:
195,263,37451,2,0,P|192:317|199:368,1,83,10|2,0:0|0:0,0:0:0:0:
127,210,37813,1,0,0:0:0:0:
284,310,37993,1,0,0:0:0:0:
120,336,38174,6,0,P|78:340|44:331,1,62.25,10|0,0:0|0:0,0:0:0:0:
24,312,38536,5,2,0:0:0:0:
24,312,38897,2,0,P|20:243|34:196,1,83,8|0,0:0|0:0,0:0:0:0:
57,122,39259,2,0,B|68:96|68:96|68:12,1,83,0|2,0:0|0:0,0:0:0:0:
68,41,39801,2,0,B|94:30|94:30|178:30,1,83,10|0,0:0|0:0,0:0:0:0:
204,153,40162,5,0,0:0:0:0:
204,153,40253,1,0,0:0:0:0:
204,153,40343,2,0,P|266:169|306:149,1,83,10|2,0:0|0:0,0:0:0:0:
396,171,40705,2,0,P|351:216|348:261,1,83,2|0,0:0|0:0,0:0:0:0:
284,329,41066,2,0,P|266:267|229:242,1,83,10|0,0:0|0:0,0:0:0:0:
203,319,41337,1,0,0:0:0:0:
203,319,41427,6,0,B|180:332|180:332|109:332,1,91.300002786255
23,257,41789,2,0,B|10:234|10:234|10:163,1,91.300002786255,8|0,0:0|0:0,0:0:0:0:
97,88,42150,1,8,0:0:0:0:
208,162,42331,6,0,P|297:194|373:119,1,182.60000557251,0|8,0:0|0:0,0:0:0:0:
481,39,42873,1,0,0:0:0:0:
481,39,43054,1,2,0:0:0:0:
481,39,43234,2,0,L|478:133,1,91.300002786255,8|0,0:0|0:0,0:0:0:0:
415,197,43596,2,0,L|412:288,1,91.300002786255,2|0,0:0|0:0,0:0:0:0:
478,349,43867,1,0,0:0:0:0:
478,349,43957,1,10,0:0:0:0:
492,236,44138,1,0,0:0:0:0:
345,328,44319,6,0,P|285:346|227:329,1,91.300002786255
99,284,44680,2,0,P|159:266|217:283,1,91.300002786255,8|0,0:0|0:0,0:0:0:0:
332,312,45042,1,10,0:0:0:0:
230,193,45222,1,2,0:0:0:0:
249,339,45403,1,2,0:0:0:0:
315,203,45584,1,10,0:0:0:0:
421,269,45765,6,0,B|427:286|427:286|423:364,1,91.300002786255,2|8,0:0|0:0,0:0:0:0:
317,292,46126,2,0,B|310:275|310:275|315:203,1,91.300002786255,8|0,0:0|0:0,0:0:0:0:
327,34,46487,1,2,0:0:0:0:
444,133,46668,1,0,0:0:0:0:
444,133,46759,1,0,0:0:0:0:
444,133,46849,6,0,L|440:214,1,68.4750020896912,10|0,0:0|0:0,0:0:0:0:
437,242,47210,5,2,0:0:0:0:
389,348,47391,1,0,0:0:0:0:
263,240,47572,2,0,L|265:157,1,83,8|0,0:0|0:0,0:0:0:0:
361,197,47933,2,0,L|364:92,1,83
295,35,48295,1,0,0:0:0:0:
295,35,48475,6,0,P|219:38|174:83,1,124.500004749298,10|2,0:0|0:0,0:0:0:0:
213,193,49018,6,0,P|243:164|260:127,1,83,10|0,0:0|0:0,0:0:0:0:
185,272,49379,2,0,P|227:273|265:258,1,83,2|0,0:0|0:0,0:0:0:0:
110,310,49740,2,0,P|138:339|176:356,1,83,10|0,0:0|0:0,0:0:0:0:
334,304,50102,6,0,P|345:243|315:190,1,124.5,2|8,0:0|0:0,0:0:0:0:
316,191,50644,5,0,0:0:0:0:
265,258,50825,2,0,P|252:301|272:358,2,83,0|0|0,0:0|0:0|0:0,0:0:0:0:
400,182,51367,6,0,B|399:141|399:141|404:122|404:122|399:99|399:99|400:89,1,83,10|2,0:0|0:0,0:0:0:0:
283,55,51909,5,10,0:0:0:0:
283,55,52090,1,0,0:0:0:0:
176,144,52271,1,2,0:0:0:0:
83,44,52451,1,0,0:0:0:0:
83,44,52542,1,0,0:0:0:0:
83,44,52632,2,0,B|66:64|66:64|66:128,1,83,10|0,0:0|0:0,0:0:0:0:
104,284,52993,6,0,P|29:272|31:196,1,166,4|8,0:0|0:0,0:0:0:0:
233,143,53536,1,0,0:0:0:0:
233,143,53716,2,0,B|245:156|245:156|245:234,1,83,2|0,0:0|0:0,0:0:0:0:
104,284,54078,2,0,B|92:271|92:271|92:193,1,83,10|0,0:0|0:0,0:0:0:0:
121,64,54439,5,2,0:0:0:0:
121,64,54620,2,0,P|164:84|217:70,1,83,0|8,0:0|0:0,0:0:0:0:
341,50,54981,2,0,P|321:93|335:146,1,83,2|0,0:0|0:0,0:0:0:0:
355,270,55343,2,0,P|312:250|259:264,1,83,2|8,0:0|0:0,0:0:0:0:
135,284,55704,1,0,0:0:0:0:
135,284,55885,6,0,P|154:239|148:184,1,83,0|0,0:0|0:0,0:0:0:0:
135,61,56246,1,10,0:0:0:0:
232,262,56427,1,2,0:0:0:0:
57,123,56608,1,10,0:0:0:0:
276,173,56789,1,2,0:0:0:0:
57,222,56969,1,0,0:0:0:0:
232,83,57150,1,2,0:0:0:0:
439,83,57331,5,8,0:0:0:0:
456,231,57692,1,0,3:0:0:0:
460,272,57783,1,0,3:0:0:0:
311,265,57963,1,0,3:0:0:0:
296,304,58054,1,0,3:0:0:0:
158,360,58234,1,8,0:0:0:0:
158,360,58415,6,0,P|157:314|157:293,1,62.25,8|0,0:0|0:0,0:0:0:0:
155,249,58777,6,0,P|120:215|18:256,1,143.175002730846,6|0,0:0|0:0,0:0:0:0:
33,231,59138,1,8,0:0:0:0:
83,122,59319,1,0,0:0:0:0:
83,122,59499,2,0,P|81:57|84:27,2,95.4500018205643,0|0|8,0:0|0:0|0:0,0:0:0:0:
234,245,60042,1,0,0:0:0:0:
234,245,60222,6,0,P|197:315|91:298,1,190.900003641129,0|8,0:0|0:0,0:0:0:0:
181,159,60765,2,0,P|237:152|283:159,1,95.4500018205643,2|0,0:0|0:0,0:0:0:0:
445,238,61126,1,0,0:0:0:0:
284,169,61307,1,8,0:0:0:0:
424,120,61487,1,0,0:0:0:0:
424,120,61578,1,0,0:0:0:0:
424,120,61668,6,0,P|432:66|424:23,1,95.4500018205643,2|0,0:0|0:0,0:0:0:0:
511,198,62030,1,8,0:0:0:0:
339,71,62210,1,2,0:0:0:0:
330,260,62391,1,0,0:0:0:0:
253,93,62572,1,2,0:0:0:0:
330,260,62753,2,0,P|376:270|423:264,1,95.4500018205643,10|2,0:0|0:0,0:0:0:0:
258,185,63114,5,0,0:0:0:0:
222,324,63295,1,2,0:0:0:0:
178,182,63475,1,8,0:0:0:0:
222,324,63656,1,2,0:0:0:0:
103,211,63837,2,0,P|46:199|8:213,1,95.4500018205643,2|0,0:0|0:0,0:0:0:0:
130,323,64198,2,0,P|176:336|222:324,1,95.4500018205643,10|0,0:0|0:0,0:0:0:0:
294,302,64469,1,0,0:0:0:0:
294,302,64560,6,0,L|294:206,1,95.4500018205643,6|0,0:0|0:0,0:0:0:0:
294,39,64921,1,8,0:0:0:0:
404,131,65102,1,0,0:0:0:0:
404,131,65283,2,0,L|404:230,2,95.4500018205643,2|0|8,0:0|0:0|0:0,0:0:0:0:
231,139,65825,1,0,0:0:0:0:
231,139,66006,6,0,P|208:83|220:39,1,95.4500018205643,2|0,0:0|0:0,0:0:0:0:
351,213,66367,2,0,P|373:268|361:312,1,95.4500018205643,8|0,0:0|0:0,0:0:0:0:
291,81,66728,2,0,P|346:58|390:70,1,95.4500018205643,2|0,0:0|0:0,0:0:0:0:
291,269,67090,2,0,P|248:290|201:285,1,95.4500018205643,8|0,0:0|0:0,0:0:0:0:
86,224,67451,5,2,0:0:0:0:
234,209,67632,1,0,0:0:0:0:
121,123,67813,1,8,0:0:0:0:
172,272,67993,1,0,0:0:0:0:
121,123,68174,2,0,P|54:114|21:120,1,95.4500018205643,2|0,0:0|0:0,0:0:0:0:
133,264,68536,1,8,0:0:0:0:
132,264,68716,6,0,B|130:221|130:221|189:213|210:160,1,149.399995440674,2|2,0:0|0:0,0:0:0:0:
256,20,69259,1,10,0:0:0:0:
301,160,69439,1,2,0:0:0:0:
182,73,69620,1,2,0:0:0:0:
329,73,69801,1,2,0:0:0:0:
210,160,69981,2,0,P|202:211|213:274,1,95.4500018205643,10|0,0:0|0:0,0:0:0:0:
221,330,70253,1,0,0:0:0:0:
221,330,70343,6,0,B|296:330|296:330|318:300,1,95.4500018205643,4|0,0:0|0:0,0:0:0:0:
351,158,70704,1,8,0:0:0:0:
351,158,70885,2,0,P|430:148|462:161,1,95.4500018205643
260,232,71246,2,0,P|181:242|149:229,2,95.4500018205643,0|8|0,0:0|0:0|0:0,0:0:0:0:
349,72,71789,5,2,0:0:0:0:
404,243,71969,1,2,0:0:0:0:
209,148,72150,2,0,P|161:139|111:148,1,95.4500018205643,8|2,0:0|0:0,0:0:0:0:
95,304,72512,2,0,P|133:276|160:237,1,95.4500018205643,0|2,0:0|0:0,0:0:0:0:
167,65,72873,1,10,0:0:0:0:
55,196,73054,1,0,0:0:0:0:
55,196,73144,1,0,0:0:0:0:
55,196,73234,5,2,0:0:0:0:
55,196,73596,1,8,0:0:0:0:
55,196,73777,2,0,P|43:249|65:303,1,95.4500018205643,0|2,0:0|0:0,0:0:0:0:
185,346,74138,1,2,0:0:0:0:
267,167,74319,1,10,0:0:0:0:
125,242,74499,1,2,0:0:0:0:
327,238,74680,6,0,P|352:197|358:150,1,95.4500018205643,0|2,0:0|0:0,0:0:0:0:
313,17,75042,1,8,0:0:0:0:
313,17,75222,2,0,B|274:21|246:63|246:63|235:57,1,95.4500018205643,2|0,0:0|0:0,0:0:0:0:
358,150,75584,2,0,P|414:162|461:153,2,95.4500018205643,2|8|0,0:0|0:0|0:0,0:0:0:0:
275,135,76036,1,0,0:0:0:0:
275,135,76126,6,0,P|192:140|138:57,1,190.900003641129,6|8,0:0|0:0,0:0:0:0:
31,98,76668,1,0,0:0:0:0:
31,98,76849,2,0,L|17:193,1,95.4500018205643,2|2,0:0|0:0,0:0:0:0:
129,324,77210,2,0,L|142:228,1,95.4500018205643,10|2,0:0|0:0,0:0:0:0:
137,57,77572,6,0,P|225:34|284:104,1,190.900003641129,0|8,0:0|0:0,0:0:0:0:
389,136,78114,1,0,0:0:0:0:
492,30,78295,1,0,0:0:0:0:
471,214,78475,1,0,0:0:0:0:
327,36,78656,2,0,P|254:27|228:45,1,95.4500018205643,8|0,0:0|0:0,0:0:0:0:
134,187,79018,1,8,0:0:0:0:
283,103,79198,1,0,0:0:0:0:
157,35,79379,1,8,0:0:0:0:
256,187,79560,1,0,0:0:0:0:
157,35,79740,6,0,P|110:25|53:44,1,95.4500018205643,8|0,0:0|0:0,0:0:0:0:
40,149,80102,1,0,0:0:0:0:
40,149,80283,6,0,L|40:260,1,95.4500018205643,10|0,0:0|0:0,0:0:0:0:
153,333,80825,1,10,0:0:0:0:
153,333,81006,6,0,L|154:234,1,95.4500018205643,2|0,0:0|0:0,0:0:0:0:
153,61,81548,1,8,0:0:0:0:
258,116,81728,1,0,0:0:0:0:
344,58,81909,6,0,P|406:38|487:68,2,149.399995440674,2|0|8,0:0|0:0|0:0,0:0:0:0:
258,116,82813,2,0,L|178:116,1,74.699997720337,0|2,0:0|0:0,0:0:0:0:
72,131,83174,6,0,P|88:210|132:197,1,112.049996580505,2|0,0:0|0:0,0:0:0:0:
136,209,83536,2,0,P|144:246|142:283,1,74.699997720337,2|0,0:0|0:0,0:0:0:0:
51,349,83897,1,0,0:0:0:0:
204,340,84078,2,0,P|220:306|224:269,1,74.699997720337,10|0,0:0|0:0,0:0:0:0:
320,258,84439,2,0,P|305:218|278:187,1,74.699997720337
248,183,84710,1,0,0:0:0:0:
248,183,84801,6,0,P|192:186|155:171,2,74.699997720337,2|0|0,0:0|0:0|0:0,0:0:0:0:
421,75,85343,1,0,0:0:0:0:
421,75,85524,2,0,P|435:108|436:146,1,74.699997720337,8|0,0:0|0:0,0:0:0:0:
445,244,85885,1,0,0:0:0:0:
444,244,86066,6,0,P|408:239|375:222,1,74.699997720337,2|0,0:0|0:0,0:0:0:0:
286,180,86427,2,0,P|319:141|351:127,2,74.699997720337,2|0|0,0:0|0:0|0:0,0:0:0:0:
228,263,86969,1,10,0:0:0:0:
278,350,87150,1,2,0:0:0:0:
362,295,87331,2,0,P|369:259|366:222,1,74.699997720337,2|0,0:0|0:0,0:0:0:0:
384,189,87602,1,0,0:0:0:0:
384,189,87692,6,0,P|382:95|277:71,1,207.5,6|8,0:0|0:0,0:0:0:0:
214,213,88234,1,0,0:0:0:0:
316,145,88415,1,2,0:0:0:0:
173,88,88596,1,0,0:0:0:0:
214,213,88777,2,0,P|224:266|203:318,1,103.75,8|0,0:0|0:0,0:0:0:0:
79,354,89138,5,2,0:0:0:0:
17,193,89319,1,0,0:0:0:0:
143,259,89499,1,8,0:0:0:0:
79,354,89680,1,0,0:0:0:0:
142,166,89861,2,0,P|185:134|241:131,1,103.75,2|0,0:0|0:0,0:0:0:0:
384,216,90222,6,0,P|348:155|362:114,1,103.75,10|8,0:0|0:0,0:0:0:0:
457,49,90765,5,0,0:0:0:0:
478,211,90945,2,0,P|463:272|438:294,1,91.300002786255,8|2,0:0|0:0,0:0:0:0:
300,223,91307,2,0,P|315:162|340:140,1,91.300002786255,8|0,0:0|0:0,0:0:0:0:
457,49,91668,1,2,0:0:0:0:
384,216,91849,1,10,0:0:0:0:
249,117,92030,6,0,P|192:105|144:120,1,91.300002786255
198,255,92391,1,8,0:0:0:0:
332,101,92572,2,0,P|300:52|255:28,1,91.300002786255,2|8,0:0|0:0,0:0:0:0:
198,162,92933,1,0,0:0:0:0:
402,148,93114,6,0,B|416:122|416:122|412:102|412:102|416:84|416:84|406:68|406:68|410:48|398:36|398:36|420:22,1,143.175002730846,10|0,0:0|0:0,0:0:0:0:
416,24,93475,6,0,B|496:28|496:28|514:57,1,99.5999969604493,6|0,0:0|0:0,0:0:0:0:
461,214,93837,2,0,P|400:238|349:221,1,99.5999969604493,10|0,0:0|0:0,0:0:0:0:
198,162,94198,1,2,0:0:0:0:
310,305,94379,1,2,0:0:0:0:
402,148,94560,1,10,0:0:0:0:
259,238,94740,6,0,P|231:282|239:349,2,99.5999969604493,2|0|0,0:0|0:0|0:0,0:0:0:0:
402,148,95283,2,0,P|430:104|422:37,1,99.5999969604493,10|2,0:0|0:0,0:0:0:0:
512,183,95644,2,0,L|495:288,1,99.5999969604493,2|0,0:0|0:0,0:0:0:0:
392,368,96006,2,0,L|407:269,1,99.5999969604493,10|2,0:0|0:0,0:0:0:0:
301,124,96367,6,0,P|254:199|336:231,1,199.199993920899,6|10,0:0|0:0,0:0:0:0:
188,96,96909,1,0,0:0:0:0:
188,96,97090,2,0,P|129:93|69:109,1,99.5999969604493,10|0,0:0|0:0,0:0:0:0:
336,231,97451,1,0,0:0:0:0:
336,231,97632,2,0,P|395:234|455:218,1,99.5999969604493,10|0,0:0|0:0,0:0:0:0:
512,110,97993,5,2,0:0:0:0:
379,151,98174,1,10,0:0:0:0:
432,308,98355,1,10,0:0:0:0:
378,150,98536,2,0,P|330:141|284:157,1,99.5999969604493,2|2,0:0|0:0,0:0:0:0:
77,263,98897,2,0,P|125:273|172:256,1,99.5999969604493,10|2,0:0|0:0,0:0:0:0:
229,208,99168,1,0,0:0:0:0:
229,208,99259,6,0,L|231:99,1,99.5999969604493,4|0,0:0|0:0,0:0:0:0:
97,42,99620,1,10,0:0:0:0:
11,165,99801,1,10,0:0:0:0:
160,173,99981,1,0,0:0:0:0:
36,90,100162,1,2,0:0:0:0:
82,288,100343,1,14,0:0:0:0:
256,192,100433,12,0,103234,0:0:0:0:
164,157,103596,5,10,0:0:0:0:
260,258,103777,1,0,0:0:0:0:
298,124,103957,1,2,0:0:0:0:
170,66,104138,5,8,0:0:0:0:
170,66,104228,1,0,0:0:0:0:
170,66,104319,1,8,0:0:0:0:
242,184,104499,1,0,0:0:0:0:
289,52,104680,1,8,0:0:0:0:
89,107,104861,1,14,0:0:0:0:
