osu file format v13

[General]
AudioFilename: OP.mp3
AudioLeadIn: 1500
PreviewTime: 57963
Countdown: 0
SampleSet: Soft
StackLeniency: 0.7
Mode: 0
LetterboxInBreaks: 0
WidescreenStoryboard: 0

[Editor]
DistanceSpacing: 1
BeatDivisor: 4
GridSize: 8
TimelineZoom: 1

[Metadata]
Title:Dreamer Short ver.
TitleUnicode:Dreamer ショート ver.
Artist:Duca
ArtistUnicode:Duca
Creator:Tsukuyomi
Version:Easy
Source:恋する彼女の不器用な舞台
Tags:koi suru kanojo no bukiyou na butai baldrace cube kantoku Moecho Kawaiwkyik [Teichan] Minakami Yuki opening galgame eroge
BeatmapID:562932
BeatmapSetID:238669

[Difficulty]
HPDrainRate:2
CircleSize:3
OverallDifficulty:2
ApproachRate:3
SliderMultiplier:1
SliderTickRate:1

[Events]
//Background and Video events
Video,-100,"MOVIE.AVI"
0,0,"BG.jpg",0,0
//Break Periods
//Storyboard Layer 0 (Background)
//Storyboard Layer 1 (Fail)
//Storyboard Layer 2 (Pass)
//Storyboard Layer 3 (Foreground)
//Storyboard Sound Samples

[TimingPoints]
-500,361.44578313253,4,2,3,50,1,0
6728,-100,4,2,1,50,0,0
6909,-100,4,2,3,50,0,0
12512,-100,4,2,2,50,0,0
24078,-100,4,2,1,50,0,0
35644,-100,4,2,1,50,0,0
58777,-100,4,2,1,60,0,1
81909,-100,4,2,1,50,0,0
87692,-100,4,2,1,70,0,1
92030,-100,4,2,1,50,0,1
93475,-100,4,2,3,60,0,0
99259,-100,4,2,1,60,0,0
101066,-100,4,2,1,30,0,0
103234,-100,4,2,1,5,0,0
104861,-100,4,2,1,40,0,0

[Colours]
Combo1 : 192,192,192
Combo2 : 255,128,64
Combo3 : 128,0,255
Combo4 : 0,255,64

[HitObjects]
96,288,945,5,10,0:0:0:0:
195,298,1307,2,0,B|259:313|312:257|312:257|379:286,2,200,0|0|0,1:0|1:0|1:0,0:0:0:0:
96,288,3114,2,0,L|77:178,1,100,4|0,0:0|1:0,0:0:0:0:
62,90,3837,5,2,0:0:0:0:
161,98,4198,2,0,B|225:113|278:57|278:57|345:86,2,200,0|0|0,1:0|1:0|1:0,0:0:0:0:
122,190,6006,2,0,P|142:240|198:271,1,100,2|0,0:0|1:0,0:0:0:0:
276,283,6728,5,14,0:0:0:0:
373,260,7090,2,0,B|421:220|421:220|404:159|404:159|421:113|472:107,2,200,0|0|0,1:0|1:0|1:0,0:0:0:0:
275,283,8897,2,0,P|204:276|172:258,1,100,2|0,0:0|1:0,0:0:0:0:
96,204,9620,6,0,B|51:119|94:78|94:78|186:83|186:83|263:38,2,300,10|2|0,0:0|1:2|1:0,0:0:0:0:
177,264,12150,1,2,1:2:0:0:
277,268,12512,6,0,B|331:268|331:268|399:305|445:253|445:253|445:163,1,250,2|0,0:0|0:0,0:0:0:0:
440,80,13777,2,0,P|386:95|354:131,1,100,4|4,0:0|0:0,0:0:0:0:
260,153,14499,2,0,P|205:154|129:87,1,150,4|8,0:0|0:0,0:0:0:0:
36,120,15403,6,0,B|6:204|32:255|32:255|94:246|137:311,1,250,2|0,0:0|0:0,0:0:0:0:
226,314,16668,2,0,P|272:315|351:242,1,150,4|2,0:0|0:0,0:0:0:0:
252,219,17572,2,0,P|233:165|243:117,1,100,2|10,0:0|0:0,0:0:0:0:
336,159,18295,6,0,B|373:145|432:92|432:92|494:114|476:219,1,250,2|2,0:0|0:0,0:0:0:0:
457,301,19560,2,0,P|389:337|310:331,1,150,4|6,0:0|0:0,0:0:0:0:
218,321,20463,1,6,0:0:0:0:
269,235,20825,6,0,P|291:166|274:131,1,100,10|2,0:0|0:0,0:0:0:0:
203,81,21548,2,0,B|166:152|166:152|101:194|67:130|67:130|-1:158,2,250,2|4|2,0:0|0:0|0:0,0:0:0:0:
300,60,23716,1,8,0:0:0:0:
397,83,24078,6,0,P|450:107|477:157,1,100,10|0,0:0|0:0,0:0:0:0:
458,239,24801,2,0,P|405:215|378:165,1,100,0|0,1:0|0:0,0:0:0:0:
293,229,25524,2,0,P|243:283|246:322,1,100,2|8,0:0|0:0,0:0:0:0:
341,311,26246,2,0,P|391:330|442:315,1,100,0|0,1:0|0:0,0:0:0:0:
395,227,26969,6,0,P|352:144|234:144,1,200,8|0,0:0|1:0,0:0:0:0:
153,134,28054,2,0,L|154:34,2,100,8|2|0,0:0|0:0|0:0,0:0:0:0:
56,162,29138,2,0,L|86:269,1,100,0|8,1:0|0:0,0:0:0:0:
177,293,29861,6,0,B|257:316|317:278|317:278|381:320,1,200,2|0,0:0|1:0,0:0:0:0:
450,260,30945,1,0,0:0:0:0:
408,168,31307,2,0,L|427:53,1,100,2|8,0:0|0:0,0:0:0:0:
325,85,32030,2,0,L|308:183,1,100,0|0,1:0|0:0,0:0:0:0:
270,282,32753,6,0,P|229:255|211:210,2,100,8|0|0,0:0|1:0|1:0,0:0:0:0:
307,183,33837,1,8,0:0:0:0:
409,183,34198,2,0,L|444:33,2,150,2|0|0,0:0|1:0|1:0,0:0:0:0:
433,280,35644,6,0,P|384:312|329:304,1,100,12|0,0:0|1:0,0:0:0:0:
249,193,36548,1,8,0:0:0:0:
337,147,36909,2,0,P|294:105|197:107,1,150,8|0,0:0|1:0,0:0:0:0:
117,149,37813,2,0,L|103:253,1,100,8|0,0:0|1:0,0:0:0:0:
167,325,38536,6,0,P|236:333|269:317,1,100,8|0,0:0|1:0,0:0:0:0:
345,196,39439,1,8,0:0:0:0:
244,192,39801,2,0,P|283:117|354:97,1,150,8|0,0:0|1:0,0:0:0:0:
440,105,40704,2,0,L|467:211,1,100,8|0,0:0|1:0,0:0:0:0:
429,295,41427,6,0,P|381:313|330:307,1,100,8|0,0:0|1:0,0:0:0:0:
233,299,42150,2,0,L|199:151,2,150,0|0|0,1:0|1:0|1:0,0:0:0:0:
332,287,43596,2,0,P|387:275|421:224,1,100,2|0,0:0|1:0,0:0:0:0:
256,192,44319,12,8,45765,0:0:0:0:
383,98,47210,6,0,L|378:217,1,100,8|0,0:0|1:0,0:0:0:0:
148,296,48475,2,0,P|230:297|286:243,1,150,0|0,1:0|1:0,0:0:0:0:
191,206,49379,2,0,P|143:193|108:142,1,100,2|0,0:0|1:0,0:0:0:0:
202,111,50102,6,0,L|306:83,1,100,2|0,0:0|1:0,0:0:0:0:
482,254,51367,2,0,P|416:254|354:175,1,150,0|0,1:0|1:0,0:0:0:0:
378,99,52271,2,0,P|328:100|287:128,1,100,8|0,0:0|1:0,0:0:0:0:
217,199,52993,6,0,P|167:212|59:122,2,200,4|0|0,1:2|1:0|1:0,0:0:0:0:
316,215,54801,2,0,P|296:269|244:292,2,100,0|0|0,1:0|1:0|1:0,0:0:0:0:
256,192,55885,12,8,57331,0:0:0:0:
149,293,58777,6,0,P|96:274|72:231,1,100,4|0,0:1|1:0,0:0:0:0:
163,195,59499,2,0,P|216:214|240:257,1,100,2|0,0:0|1:0,0:0:0:0:
329,289,60222,2,0,L|427:154,2,150,8|2|0,0:0|0:0|1:0,0:0:0:0:
229,283,61668,6,0,B|168:276|139:218|139:218|88:225|67:266,2,200,8|2|8,0:0|0:0|0:0,0:0:0:0:
329,280,63475,1,0,1:0:0:0:
423,245,63837,2,0,P|439:183|425:129,1,100,2|0,0:0|1:0,0:0:0:0:
358,83,64560,6,0,L|251:78,1,100,10|0,0:2|1:0,0:0:0:0:
196,156,65283,2,0,L|86:172,1,100,2|0,0:0|1:0,0:0:0:0:
128,265,66006,2,0,L|26:326,2,100,8|0|2,0:0|1:0|0:0,0:0:0:0:
221,301,67090,1,0,1:0:0:0:
320,295,67451,6,0,B|392:286|392:286|379:226|447:160,1,200,8|10,0:0|0:0,0:0:0:0:
381,86,68536,2,0,P|291:41|181:54,2,200,0|0|0,1:0|1:0|1:0,0:0:0:0:
399,184,70343,6,0,P|451:158|474:114,2,100,4|0|2,0:1|1:0|0:0,0:0:0:0:
299,190,71427,2,0,B|235:178|235:178|187:221|184:299,2,200,0|0|0,1:0|1:0|1:0,0:0:0:0:
392,224,73234,6,0,P|397:161|372:120,1,100,10|0,0:0|1:0,0:0:0:0:
319,50,73957,2,0,L|217:71,1,100,0|0,0:0|1:0,0:0:0:0:
147,138,74680,2,0,P|119:91|126:43,2,100,8|0|2,0:0|1:0|0:0,0:0:0:0:
242,169,75765,1,0,1:0:0:0:
341,166,76126,6,0,P|414:192|427:314,1,200,4|2,0:1|0:0,0:0:0:0:
344,349,77210,2,0,L|240:338,1,100,0|8,1:0|0:0,0:0:0:0:
157,288,77933,2,0,L|125:190,2,100,0|2|0,1:0|0:0|1:0,0:0:0:0:
256,192,79018,12,0,80283,1:0:0:0:
201,91,81909,6,0,P|148:91|56:200,2,200,10|0|2,0:0|1:0|0:0,0:0:0:0:
280,275,84078,2,0,P|342:248|362:216,1,100,0|0,1:0|3:0,0:0:0:0:
269,178,84801,6,0,P|216:178|124:287,2,200,8|0|2,0:0|1:0|0:0,0:0:0:0:
463,225,86969,2,0,P|433:292|398:316,1,100,0|0,1:0|0:0,0:0:0:0:
313,307,87692,6,0,P|269:247|266:205,1,100,4|0,0:0|1:0,0:0:0:0:
323,140,88415,2,0,P|396:132|434:150,1,100,4|0,0:0|1:0,0:0:0:0:
463,225,89138,2,0,P|433:292|398:316,2,100,12|0|0,0:0|1:0|0:0,0:0:0:0:
419,141,90222,1,4,1:2:0:0:
326,180,90584,6,0,B|292:224|278:300|278:300|218:279|144:290|144:290|168:214|123:158,1,400,0|4,1:0|1:0,0:0:0:0:
155,66,92391,2,0,P|86:71|55:101,2,100,0|0|0,1:0|1:0|1:0,0:0:0:0:
238,121,93475,6,0,L|335:92,2,100,2|0|0,0:0|1:0|0:0,0:0:0:0:
105,191,94740,2,0,B|121:254|190:262|190:262|199:315,1,150,0|0,1:0|1:0,0:0:0:0:
285,336,95644,2,0,P|352:324|382:288,1,100,10|0,0:0|1:0,0:0:0:0:
301,233,96367,6,0,P|290:176|305:127,2,100,2|0|0,0:0|1:0|0:0,0:0:0:0:
450,216,97632,2,0,B|435:189|435:189|487:135|463:77,1,150,0|2,1:0|1:2,0:0:0:0:
368,111,98536,2,0,L|260:78,1,100,0|0,0:0|1:0,0:0:0:0:
200,151,99259,6,0,P|127:200|59:188,2,150,4|10|4,0:0|0:0|0:0,0:0:0:0:
391,208,101066,1,4,0:0:0:0:
256,192,101246,12,0,103234,0:0:0:0:
256,192,104861,5,4,0:0:0:0:
