osu file format v13

[General]
AudioFilename: OP.mp3
AudioLeadIn: 1500
PreviewTime: 57963
Countdown: 0
SampleSet: Soft
StackLeniency: 0.7
Mode: 0
LetterboxInBreaks: 0
WidescreenStoryboard: 0

[Editor]
DistanceSpacing: 1.3
BeatDivisor: 4
GridSize: 8
TimelineZoom: 1

[Metadata]
Title:Dreamer Short ver.
TitleUnicode:Dreamer ショート ver.
Artist:Duca
ArtistUnicode:Duca
Creator:Tsukuyomi
Version:Deadline
Source:恋する彼女の不器用な舞台
Tags:koi suru kanojo no bukiyou na butai baldrace cube kantoku Moecho Kawaiwkyik [Teichan] Minakami Yuki opening galgame eroge
BeatmapID:551950
BeatmapSetID:238669

[Difficulty]
HPDrainRate:8
CircleSize:4.5
OverallDifficulty:8
ApproachRate:9
SliderMultiplier:1.6
SliderTickRate:1

[Events]
//Background and Video events
Video,-100,"MOVIE.AVI"
0,0,"BG.jpg",0,0
//Break Periods
//Storyboard Layer 0 (Background)
//Storyboard Layer 1 (Fail)
//Storyboard Layer 2 (Pass)
//Storyboard Layer 3 (Foreground)
//Storyboard Sound Samples

[TimingPoints]
-500,361.44578313253,4,2,3,50,1,0
4560,-100,4,2,3,40,0,0
4650,-100,4,2,3,50,0,0
6729,-100,4,2,1,50,0,0
7451,-100,4,2,3,40,0,0
7542,-100,4,2,3,50,0,0
8174,-100,4,2,3,40,0,0
8265,-100,4,2,3,50,0,0
12512,-133.333333333333,4,2,2,50,0,0
24078,-200,4,2,1,50,0,0
35644,-133.333333333333,4,2,1,50,0,0
58054,-100,4,2,1,50,0,0
58777,-100,4,2,1,60,0,1
80825,-100,4,2,1,40,0,1
81909,-133.333333333333,4,2,1,50,0,0
87692,-100,4,2,1,70,0,1
92030,-100,4,2,1,50,0,1
93475,-100,4,2,3,60,0,0
99259,-100,4,2,1,60,0,0
101066,-100,4,2,1,30,0,0
103777,-100,4,2,1,50,0,0

[Colours]
Combo1 : 192,192,192
Combo2 : 255,128,64
Combo3 : 128,0,255
Combo4 : 0,255,64

[HitObjects]
294,38,584,6,0,P|227:63|177:48,1,120,0|0,0:0|0:0,0:0:0:0:
110,62,946,2,0,P|61:116|70:223,1,160,10|0,0:0|1:0,0:0:0:0:
154,159,1488,1,0,0:0:0:0:
242,255,1669,2,0,L|320:241,1,80,4|8,0:0|0:0,0:0:0:0:
406,179,2031,1,0,1:0:0:0:
154,159,2211,6,0,L|322:130,1,160,8|0,0:0|0:0,0:0:0:0:
406,179,2754,1,0,1:0:0:0:
287,316,2934,1,4,0:0:0:0:
287,316,3025,1,0,0:0:0:0:
287,316,3115,2,0,P|256:291|242:255,1,80,0|8,0:0|0:0,0:0:0:0:
360,117,3476,2,0,P|391:142|406:179,1,80,0|8,1:0|0:0,0:0:0:0:
286,314,3838,6,0,L|208:297,1,80,2|0,0:0|0:0,0:0:0:0:
360,118,4199,2,0,L|438:135,1,80,0|4,1:0|0:0,0:0:0:0:
477,145,4470,1,0,0:0:0:0:
477,145,4561,1,2,0:0:0:0:
320,240,4741,1,8,0:0:0:0:
477,145,4922,1,0,1:0:0:0:
321,241,5103,6,0,L|160:204,1,160,8|8,0:0|0:0,0:0:0:0:
311,131,5645,2,0,L|404:156,1,80,0|0,1:0|0:0,0:0:0:0:
164,205,6007,2,0,L|143:128,1,80,2|8,0:0|0:0,0:0:0:0:
300,296,6368,2,0,L|243:352,1,80,0|4,1:0|0:0,0:0:0:0:
166,329,6639,1,0,0:0:0:0:
166,329,6729,6,0,B|285:208,1,160,12|0,0:0|1:0,0:0:0:0:
278,214,7452,1,2,0:0:0:0:
434,176,7633,1,8,0:0:0:0:
282,128,7814,1,0,1:0:0:0:
434,176,7994,1,8,0:0:0:0:
321,290,8175,5,2,0:0:0:0:
434,176,8356,1,8,0:0:0:0:
278,214,8537,1,0,1:0:0:0:
434,176,8717,1,0,0:0:0:0:
282,128,8898,1,2,0:0:0:0:
434,176,9079,1,8,0:0:0:0:
327,57,9260,1,0,1:0:0:0:
434,176,9440,1,4,0:0:0:0:
434,176,9531,1,0,0:0:0:0:
434,176,9621,6,0,P|383:222|277:213,1,160,12|0,0:0|1:0,0:0:0:0:
201,354,10163,2,0,P|162:323|146:286,1,80,2|0,0:0|0:0,0:0:0:0:
296,222,10525,1,8,0:0:0:0:
79,258,10705,2,0,P|60:211|65:171,1,80,2|0,1:2|0:0,0:0:0:0:
228,192,11067,1,8,0:0:0:0:
24,112,11247,2,0,P|31:62|55:30,1,80,2|8,1:2|0:0,0:0:0:0:
187,130,11609,2,0,P|223:117|256:128,1,40,4|0,0:0|0:0,0:0:0:0:
228,192,11790,6,0,P|177:203|135:186,1,80,2|0,0:0|0:0,0:0:0:0:
352,67,12151,2,0,P|403:56|445:73,1,80,2|0,1:2|0:0,0:0:0:0:
344,243,12512,6,0,L|392:133,1,120.000004577637,2|2,0:0|0:0,0:0:0:0:
352,67,13055,1,0,0:0:0:0:
425,42,13235,1,2,0:0:0:0:
278,92,13416,1,0,0:0:0:0:
352,67,13597,1,2,0:0:0:0:
204,112,13778,6,0,L|172:176,1,60.0000022888184,4|2,0:0|0:0,0:0:0:0:
196,284,14139,2,0,L|222:230,1,60.0000022888184,4|2,0:0|0:0,0:0:0:0:
328,176,14500,2,0,L|296:240,1,60.0000022888184,4|2,0:0|0:0,0:0:0:0:
222,230,14862,1,0,0:0:0:0:
301,229,15043,1,10,0:0:0:0:
177,165,15223,1,0,0:0:0:0:
342,295,15404,6,0,L|420:295,1,60.0000022888184,2|0,0:0|0:0,0:0:0:0:
301,229,15766,1,2,0:0:0:0:
254,167,15946,2,0,L|176:167,1,60.0000022888184,0|2,0:0|0:0,0:0:0:0:
295,101,16308,1,0,0:0:0:0:
254,167,16488,1,2,0:0:0:0:
177,282,16669,6,0,L|211:232,1,60.0000022888184,4|2,0:0|0:0,0:0:0:0:
71,223,17031,2,0,L|97:276,1,60.0000022888184,4|2,0:0|0:0,0:0:0:0:
176,162,17392,2,0,L|116:158,1,60.0000022888184,4|2,0:0|0:0,0:0:0:0:
177,282,17754,1,0,0:0:0:0:
71,223,17934,1,10,0:0:0:0:
177,282,18115,1,0,0:0:0:0:
176,162,18296,6,0,P|233:172|275:217,1,120.000004577637,2|2,0:0|0:0,0:0:0:0:
315,281,18838,1,0,0:0:0:0:
352,212,19019,1,2,0:0:0:0:
274,215,19199,1,0,0:0:0:0:
315,281,19380,1,2,0:0:0:0:
384,144,19561,1,4,0:0:0:0:
245,147,19741,6,0,P|210:173|202:197,1,60.0000022888184,2|0,0:0|0:0,0:0:0:0:
314,280,20103,2,0,P|308:236|292:217,1,60.0000022888184,6|0,0:0|0:0,0:0:0:0:
160,260,20464,2,0,P|200:277|224:272,1,60.0000022888184,6|0,0:0|0:0,0:0:0:0:
109,178,20826,2,0,P|160:170|179:177,1,60.0000022888184,10|0,0:0|0:0,0:0:0:0:
203,187,21097,1,4,0:0:0:0:
203,187,21187,5,2,0:0:0:0:
66,261,21368,1,4,0:0:0:0:
44,132,21549,2,0,P|30:158|30:188,1,60.0000022888184,2|0,0:0|0:0,0:0:0:0:
109,178,21910,1,2,0:0:0:0:
146,62,22091,2,0,P|160:89|160:119,1,60.0000022888184,4|2,0:0|0:0,0:0:0:0:
8,52,22452,6,0,L|68:57,1,60.0000022888184,0|2,0:0|0:0,0:0:0:0:
146,62,22814,1,4,0:0:0:0:
8,52,22994,5,2,0:0:0:0:
146,62,23175,1,0,0:0:0:0:
295,125,23356,5,2,0:0:0:0:
153,136,23537,1,4,0:0:0:0:
50,199,23717,5,8,0:0:0:0:
161,207,23898,1,0,0:0:0:0:
209,272,24079,6,0,L|170:278,2,40,10|0|0,0:0|0:0|0:0,0:0:0:0:
276,317,24621,1,8,0:0:0:0:
394,298,24802,2,0,L|355:304,1,40,0|0,1:0|0:0,0:0:0:0:
404,216,25163,2,0,L|443:210,1,40,0|2,0:0|0:0,0:0:0:0:
494,147,25525,5,0,0:0:0:0:
394,298,25705,1,0,1:0:0:0:
404,216,25885,1,10,0:0:0:0:
394,298,26067,1,8,0:0:0:0:
413,136,26247,2,0,L|420:78,1,40,0|0,1:0|0:0,0:0:0:0:
337,103,26609,2,0,L|346:22,1,80,2|8,0:0|0:0,0:0:0:0:
413,136,27151,5,2,0:0:0:0:
337,103,27332,1,0,0:0:0:0:
268,144,27513,1,8,0:0:0:0:
195,111,27693,1,0,1:0:0:0:
268,144,27874,1,2,0:0:0:0:
256,223,28055,1,8,0:0:0:0:
179,246,28235,1,0,0:0:0:0:
225,311,28416,5,2,0:0:0:0:
179,246,28597,1,8,0:0:0:0:
139,176,28778,1,8,0:0:0:0:
225,311,28958,1,0,0:0:0:0:
375,255,29139,1,0,1:0:0:0:
301,286,29320,1,2,0:0:0:0:
225,311,29499,2,0,L|176:331,1,40,8|0,0:0|0:0,0:0:0:0:
149,339,29772,1,0,0:0:0:0:
149,339,29862,5,0,0:0:0:0:
31,284,30042,1,2,0:0:0:0:
159,259,30223,1,0,0:0:0:0:
71,355,30404,1,10,0:0:0:0:
86,225,30585,2,0,L|92:169,1,40,0|0,1:0|0:0,0:0:0:0:
149,131,30946,1,0,0:0:0:0:
213,84,31127,1,2,0:0:0:0:
335,136,31308,5,0,0:0:0:0:
213,84,31488,1,0,1:0:0:0:
258,149,31669,1,8,0:0:0:0:
361,60,31850,1,8,0:0:0:0:
307,211,32031,2,0,L|307:266,1,40,0|0,1:0|0:0,0:0:0:0:
376,331,32392,2,0,L|376:291,1,40,2|0,0:0|0:0,0:0:0:0:
376,331,32754,5,8,0:0:0:0:
376,331,32934,1,8,0:0:0:0:
307,251,33115,1,0,1:0:0:0:
376,291,33296,1,0,0:0:0:0:
236,172,33476,2,0,L|236:212,1,40,0|0,1:0|0:0,0:0:0:0:
155,173,33838,2,0,L|155:133,1,40,8|2,0:0|0:0,0:0:0:0:
81,102,34199,5,0,0:0:0:0:
236,212,34380,2,0,L|236:172,1,40,0|8,1:0|0:0,0:0:0:0:
92,262,34741,1,0,1:0:0:0:
92,262,34832,1,0,0:0:0:0:
92,262,34922,1,8,0:0:0:0:
236,212,35103,1,8,0:0:0:0:
81,102,35284,2,0,P|64:130|61:149,1,40,0|0,1:0|0:0,0:0:0:0:
236,172,35645,6,0,P|258:142|263:110,1,60.0000022888184,12|0,0:0|0:0,0:0:0:0:
287,238,36007,1,0,1:0:0:0:
395,186,36187,2,0,P|373:216|368:248,1,60.0000022888184,2|0,0:0|0:0,0:0:0:0:
347,118,36549,2,0,P|386:102|407:105,1,60.0000022888184,8|0,0:0|0:0,0:0:0:0:
347,118,36910,2,0,P|283:129|230:91,1,120.000004577637,8|8,0:0|0:0,0:0:0:0:
395,186,37452,5,0,1:0:0:0:
347,118,37633,1,2,0:0:0:0:
347,118,37723,1,0,0:0:0:0:
347,118,37814,1,8,0:0:0:0:
395,186,37994,1,8,0:0:0:0:
238,101,38175,2,0,L|294:55,1,60.0000022888184,0|0,1:0|0:0,0:0:0:0:
345,306,38537,6,0,L|392:268,1,60.0000022888184,8|0,0:0|0:0,0:0:0:0:
272,281,38898,1,0,1:0:0:0:
194,270,39079,2,0,L|147:308,1,60.0000022888184,2|0,0:0|0:0,0:0:0:0:
272,281,39440,2,0,P|268:239|254:219,1,60.0000022888184,8|0,0:0|0:0,0:0:0:0:
272,281,39802,2,0,P|314:286|378:231,1,120.000004577637,8|0,0:0|0:0,0:0:0:0:
195,270,40344,6,0,L|165:322,1,60.0000022888184,0|0,1:0|0:0,0:0:0:0:
88,192,40705,2,0,L|148:192,1,60.0000022888184,8|0,0:0|0:0,0:0:0:0:
195,113,41067,2,0,L|165:62,1,60.0000022888184,0|2,1:0|0:0,0:0:0:0:
240,48,41338,1,0,0:0:0:0:
240,48,41428,6,0,L|280:124,1,60.0000022888184,8|0,0:0|0:0,0:0:0:0:
148,192,41790,1,0,1:0:0:0:
267,101,41970,1,2,0:0:0:0:
208,238,42151,1,0,1:0:0:0:
328,148,42331,1,8,0:0:0:0:
328,148,42513,1,0,0:0:0:0:
148,192,42693,1,0,1:0:0:0:
276,327,42874,5,0,0:0:0:0:
328,148,43055,1,8,0:0:0:0:
148,192,43235,2,0,L|156:269,1,60.0000022888184,0|0,1:0|0:0,0:0:0:0:
328,148,43597,2,0,L|257:116,1,60.0000022888184,2|8,0:0|0:0,0:0:0:0:
276,327,43958,2,0,L|338:281,1,60.0000022888184,0|0,1:0|0:0,0:0:0:0:
328,148,44320,6,0,L|281:186,1,60.0000022888184,0|0,0:0|0:0,0:0:0:0:
276,327,44681,2,0,L|356:327,1,60.0000022888184,0|0,1:0|0:0,0:0:0:0:
328,148,45043,2,0,L|268:148,1,60.0000022888184,0|10,1:0|0:0,0:0:0:0:
50,85,45403,1,0,0:0:0:0:
125,67,45585,1,0,0:0:0:0:
155,139,45766,5,8,0:0:0:0:
50,85,45946,1,0,3:0:0:0:
126,66,46127,1,0,3:2:0:0:
129,178,46308,1,0,0:0:0:0:
24,124,46488,1,0,3:0:0:0:
100,105,46669,1,0,0:0:0:0:
106,212,46850,1,0,3:0:0:0:
1,158,47031,1,0,3:0:0:0:
159,239,47211,6,0,L|106:212,1,60.0000022888184,8|0,0:0|0:0,0:0:0:0:
232,267,47573,1,0,1:0:0:0:
106,212,47754,1,2,0:0:0:0:
232,267,47934,2,0,L|301:267,1,60.0000022888184,2|8,0:0|0:0,0:0:0:0:
328,336,48296,1,0,0:0:0:0:
232,267,48476,6,0,P|283:261|345:206,1,120.000004577637,0|8,1:0|0:0,0:0:0:0:
232,267,49019,2,0,P|210:301|213:337,1,60.0000022888184,0|0,1:0|0:0,0:0:0:0:
385,319,49380,2,0,L|328:336,1,60.0000022888184,2|8,0:0|0:0,0:0:0:0:
336,220,49741,2,0,L|414:198,1,60.0000022888184,0|0,1:0|0:0,0:0:0:0:
232,267,50103,6,0,P|221:229|230:193,1,60.0000022888184,2|0,0:0|0:0,0:0:0:0:
183,141,50464,1,0,1:0:0:0:
232,267,50645,1,0,0:0:0:0:
183,141,50826,2,0,L|183:81,1,60.0000022888184,2|8,0:0|0:0,0:0:0:0:
249,38,51187,1,0,1:0:0:0:
183,141,51368,6,0,P|127:93|118:37,1,120.000004577637,0|8,0:0|0:0,0:0:0:0:
249,38,51910,2,0,P|283:57|297:88,1,60.0000022888184,0|0,1:0|0:0,0:0:0:0:
183,141,52272,2,0,L|112:138,1,60.0000022888184,8|2,0:0|0:0,0:0:0:0:
65,187,52543,1,0,0:0:0:0:
65,187,52633,2,0,P|47:150|53:115,1,60.0000022888184,0|2,1:0|0:0,0:0:0:0:
124,138,52904,1,0,0:0:0:0:
124,138,52994,6,0,P|140:179|134:212,1,60.0000022888184,4|0,1:0|0:0,0:0:0:0:
230,274,53355,2,0,P|214:233|220:200,1,60.0000022888184,0|0,1:0|0:0,0:0:0:0:
162,103,53717,2,0,P|154:155|132:181,1,60.0000022888184,0|0,1:0|0:0,0:0:0:0:
191,308,54079,2,0,P|199:256|221:231,1,60.0000022888184,0|0,1:2|0:0,0:0:0:0:
202,104,54440,6,0,P|167:149|147:154,1,60.0000022888184,0|0,1:0|0:0,0:0:0:0:
118,311,54802,2,0,P|154:267|169:262,1,60.0000022888184,0|0,1:0|0:0,0:0:0:0:
259,132,55163,2,0,P|200:155|177:149,1,60.0000022888184,0|0,1:0|0:0,0:0:0:0:
63,285,55525,2,0,P|122:262|139:265,1,60.0000022888184,0|0,1:0|0:0,0:0:0:0:
205,155,55886,5,4,1:0:0:0:
116,261,56067,1,2,0:0:0:0:
116,261,56247,1,2,1:2:0:0:
127,141,56428,1,0,0:0:0:0:
237,84,56609,1,0,1:2:0:0:
74,197,56790,1,10,0:0:0:0:
168,51,56970,1,0,1:2:0:0:
190,262,57151,1,10,0:0:0:0:
98,23,57332,5,8,1:2:0:0:
205,155,57513,1,0,0:0:0:0:
208,184,57603,1,0,3:0:0:0:
212,212,57693,1,0,0:0:0:0:
216,240,57784,1,0,3:0:0:0:
220,268,57874,1,0,0:0:0:0:
224,296,57964,1,0,3:0:0:0:
228,323,58055,5,0,0:0:0:0:
228,323,58145,1,2,0:0:0:0:
228,323,58235,2,0,L|192:363,1,40,0|0,1:2|0:0,0:0:0:0:
122,336,58415,2,0,L|110:299,1,40,0|0,1:2|0:0,0:0:0:0:
164,240,58596,2,0,L|203:248,1,40,0|0,0:2|0:0,0:0:0:0:
301,268,58778,6,0,L|465:222,1,160,4|0,0:1|1:0,0:0:0:0:
457,120,59320,1,2,0:0:0:0:
281,104,59500,2,0,L|359:85,1,80,2|8,0:0|0:0,0:0:0:0:
301,268,59862,2,0,P|255:271|211:250,1,80,0|2,1:0|0:0,0:0:0:0:
280,104,60223,6,0,P|320:100|358:112,1,80,8|0,0:0|0:0,0:0:0:0:
192,160,60585,1,0,1:0:0:0:
301,268,60766,2,0,L|223:248,1,80,2|0,0:0|0:0,0:0:0:0:
115,180,61127,2,0,L|192:160,1,80,8|0,0:0|1:0,0:0:0:0:
29,125,61488,1,2,0:0:0:0:
29,125,61579,1,0,0:0:0:0:
29,125,61669,6,0,P|17:203|60:269,1,160,8|0,0:0|1:0,0:0:0:0:
115,180,62211,1,2,0:0:0:0:
165,271,62392,5,2,0:0:0:0:
216,142,62573,1,8,0:0:0:0:
269,275,62753,5,0,1:0:0:0:
182,155,62934,1,2,0:0:0:0:
365,236,63115,5,8,0:0:0:0:
146,168,63296,1,8,0:0:0:0:
393,135,63476,5,0,1:0:0:0:
182,155,63657,1,2,0:0:0:0:
393,135,63838,2,0,L|487:114,1,80,2|8,0:0|0:0,0:0:0:0:
365,236,64199,2,0,P|317:210|301:175,1,80,0|2,1:0|0:0,0:0:0:0:
244,149,64470,1,0,0:0:0:0:
244,149,64561,6,0,P|209:229|122:258,1,160,10|0,0:2|1:0,0:0:0:0:
140,153,65103,1,2,0:0:0:0:
52,293,65284,2,0,P|45:254|58:217,1,80,0|8,0:0|0:0,0:0:0:0:
244,149,65645,2,0,P|251:188|238:225,1,80,0|2,1:0|0:0,0:0:0:0:
52,293,66007,6,0,L|28:216,1,80,8|8,0:0|0:0,0:0:0:0:
148,332,66368,1,0,1:0:0:0:
52,293,66549,1,2,0:0:0:0:
140,153,66729,2,0,L|163:229,1,80
204,70,67091,1,0,1:0:0:0:
138,153,67272,1,2,0:0:0:0:
314,202,67452,6,0,L|291:126,1,80,8|0,0:0|0:0,0:0:0:0:
405,253,67814,1,0,1:0:0:0:
314,202,67994,1,2,0:0:0:0:
418,180,68175,1,2,0:0:0:0:
299,273,68356,1,8,0:0:0:0:
477,225,68537,1,0,1:0:0:0:
244,224,68717,6,0,L|197:65,1,160,8|2,0:0|0:0,0:0:0:0:
188,31,69169,1,0,0:0:0:0:
188,31,69260,1,0,1:0:0:0:
76,144,69440,1,0,0:0:0:0:
232,184,69621,1,2,0:0:0:0:
188,31,69802,1,8,0:0:0:0:
76,144,69982,2,0,L|100:240,1,80,0|2,1:0|0:0,0:0:0:0:
119,299,70254,1,0,0:0:0:0:
119,299,70344,6,0,L|301:276,1,160,4|0,0:1|1:0,0:0:0:0:
232,184,70886,1,2,0:0:0:0:
368,268,71067,2,0,L|468:256,2,80,0|8|0,0:0|0:0|1:0,0:0:0:0:
232,184,71609,6,0,P|264:144|304:132,1,80,2|8,0:0|0:0,0:0:0:0:
448,260,71970,2,0,P|397:252|366:223,1,80,2|0,0:0|1:0,0:0:0:0:
404,36,72332,2,0,P|422:83|413:124,1,80,2|0,0:0|0:0,0:0:0:0:
289,133,72693,1,8,0:0:0:0:
404,36,72874,1,0,1:0:0:0:
232,184,73055,1,2,0:0:0:0:
232,184,73145,1,0,0:0:0:0:
232,184,73235,6,0,L|136:172,1,80,8|0,0:0|0:0,0:0:0:0:
375,235,73597,1,0,1:0:0:0:
289,133,73778,1,2,0:0:0:0:
196,264,73958,2,0,L|292:252,1,80,0|8,0:0|0:0,0:0:0:0:
121,212,74320,1,0,1:0:0:0:
289,133,74500,1,2,0:0:0:0:
119,213,74681,6,0,L|39:203,1,80,8|0,0:0|0:0,0:0:0:0:
207,110,75043,1,0,1:0:0:0:
39,203,75223,2,0,P|63:249|121:266,1,80,2|0,0:0|0:0,0:0:0:0:
207,110,75585,2,0,P|183:64|125:47,1,80,8|0,0:0|1:0,0:0:0:0:
269,168,75946,2,0,P|292:124|292:108,1,40,2|0,0:0|0:0,0:0:0:0:
190,190,76127,6,0,P|165:276|212:353,1,160,4|0,0:1|1:0,0:0:0:0:
268,263,76669,1,0,0:0:0:0:
269,168,76850,1,2,0:0:0:0:
357,310,77031,1,8,0:0:0:0:
357,123,77211,1,0,1:0:0:0:
445,265,77392,1,2,0:0:0:0:
269,168,77572,6,0,P|257:117|267:78,1,80,8|0,0:0|0:0,0:0:0:0:
445,265,77934,2,0,P|457:316|447:355,1,80,0|0,1:0|0:0,0:0:0:0:
357,123,78296,2,0,P|408:111|447:121,1,80,2|8,0:0|0:0,0:0:0:0:
357,311,78657,2,0,P|306:323|267:313,1,80,0|0,1:0|0:0,0:0:0:0:
445,265,79019,5,10,0:0:0:0:
445,265,79199,1,8,0:0:0:0:
357,123,79380,1,0,1:0:0:0:
357,310,79561,1,10,0:0:0:0:
269,168,79741,1,0,1:0:0:0:
445,265,79922,1,10,0:0:0:0:
269,168,80103,1,0,0:0:0:0:
206,359,80283,6,0,P|146:336|83:251,1,160,0|8,1:0|0:0,0:0:0:0:
356,310,80826,1,4,1:0:0:0:
178,219,81007,2,0,P|164:171|174:126,2,80,2|8|8,0:0|0:0|0:0,0:0:0:0:
269,168,81549,1,0,1:0:0:0:
296,174,81639,1,0,0:0:0:0:
323,170,81729,1,2,0:0:0:0:
348,157,81820,1,0,0:0:0:0:
361,140,81910,6,0,P|348:106|261:65,1,120.000004577637,2|0,0:0|0:0,0:0:0:0:
200,64,82452,1,8,0:0:0:0:
156,180,82633,2,0,L|147:121,2,60.0000022888184,0|2|8,1:0|0:0|0:0,0:0:0:0:
213,233,83175,6,0,P|171:259|104:239,1,120.000004577637,8|2,0:0|0:0,0:0:0:0:
156,180,83717,2,0,P|192:158|225:162,1,60.0000022888184,8|0,0:0|0:0,0:0:0:0:
271,284,84079,1,0,1:0:0:0:
213,233,84260,1,2,3:2:0:0:
139,257,84440,1,0,3:0:0:0:
65,282,84621,1,2,0:0:0:0:
65,282,84711,1,0,0:0:0:0:
65,282,84802,6,0,P|64:232|76:212,1,60.0000022888184,8|2,0:0|0:0,0:0:0:0:
139,257,85163,2,0,P|140:308|132:324,1,60.0000022888184,8|2,0:0|0:0,0:0:0:0:
275,304,85525,2,0,L|196:303,1,60.0000022888184,0|0,1:0|0:0,0:0:0:0:
311,376,85886,1,8,0:0:0:0:
392,249,86067,2,0,L|332:248,1,60.0000022888184,8|0,0:0|0:0,0:0:0:0:
238,177,86428,6,0,L|298:177,2,60.0000022888184,2|8|0,0:0|0:0|0:0,0:0:0:0:
328,105,86970,1,0,1:0:0:0:
406,106,87151,1,2,0:0:0:0:
258,244,87332,1,2,0:0:0:0:
180,245,87513,1,2,0:0:0:0:
180,245,87603,1,0,0:0:0:0:
180,245,87693,6,0,P|128:234|66:135,1,160,4|0,0:0|1:0,0:0:0:0:
67,151,88235,1,2,0:0:0:0:
258,244,88416,1,0,0:0:0:0:
67,151,88597,1,8,0:0:0:0:
243,33,88778,1,0,1:0:0:0:
338,222,88958,1,2,0:0:0:0:
338,222,89049,1,0,0:0:0:0:
338,222,89139,6,0,P|390:197|408:168,1,80,8|8,0:0|0:0,0:0:0:0:
243,33,89500,2,0,P|191:58|173:87,1,80,0|2,1:0|0:0,0:0:0:0:
338,222,89862,1,2,0:0:0:0:
178,74,90043,1,8,0:0:0:0:
402,180,90223,1,4,1:2:0:0:
402,180,90585,5,0,1:0:0:0:
207,97,90765,1,8,0:0:0:0:
315,278,90945,1,0,1:0:0:0:
335,68,91127,1,8,0:0:0:0:
196,227,91307,1,0,1:0:0:0:
196,227,91398,1,0,0:0:0:0:
196,227,91488,1,8,0:0:0:0:
315,278,91669,1,0,0:0:0:0:
212,354,91850,1,0,1:0:0:0:
196,227,92031,6,0,P|216:189|253:167,1,80,0|8,0:0|0:0,0:0:0:0:
212,354,92392,2,0,L|123:355,1,80,4|0,1:0|0:0,0:0:0:0:
315,278,92753,2,0,L|421:278,1,80,0|8,1:0|0:0,0:0:0:0:
196,227,93115,2,0,L|86:227,1,80,0|0,1:0|0:0,0:0:0:0:
78,155,93386,1,0,0:0:0:0:
78,155,93476,6,0,P|154:137|196:76,1,120,6|0,0:0|0:0,0:0:0:0:
170,29,93838,2,0,P|222:37|261:106,1,120,0|0,1:0|0:0,0:0:0:0:
239,165,94199,1,0,0:0:0:0:
170,29,94380,1,8,0:0:0:0:
78,155,94561,1,0,0:0:0:0:
239,165,94741,6,0,L|434:178,1,160,0|8,1:0|0:0,0:0:0:0:
176,270,95284,2,0,L|286:277,1,80,0|0,1:0|0:0,0:0:0:0:
85,231,95645,2,0,P|73:277|87:318,1,80,10|8,0:0|0:0,0:0:0:0:
239,165,96007,2,0,P|251:119|237:78,1,80,0|8,1:0|0:0,0:0:0:0:
85,231,96368,6,0,L|41:313,1,80,2|8,0:0|0:0,0:0:0:0:
239,165,96729,2,0,L|276:94,1,80,0|8,1:0|0:0,0:0:0:0:
295,58,97000,1,0,0:0:0:0:
295,58,97091,1,0,1:0:0:0:
414,187,97272,1,10,0:0:0:0:
295,58,97452,1,0,0:0:0:0:
414,187,97633,6,0,L|337:333,1,160,0|8,1:0|0:0,0:0:0:0:
236,342,98175,1,2,1:2:0:0:
236,342,98356,1,0,1:0:0:0:
436,325,98537,1,0,0:0:0:0:
436,325,98717,1,8,0:0:0:0:
322,161,98898,1,0,1:0:0:0:
200,202,99079,1,4,0:0:0:0:
200,202,99169,1,0,0:0:0:0:
200,202,99260,5,4,0:0:0:0:
322,161,99440,1,8,0:0:0:0:
225,76,99621,1,0,1:0:0:0:
200,202,99801,1,10,0:0:0:0:
225,76,99982,1,0,0:0:0:0:
102,115,100163,1,0,0:0:0:0:
200,202,100344,1,4,0:0:0:0:
200,202,100525,1,2,0:0:0:0:
405,70,101067,5,4,0:0:0:0:
405,70,101247,1,2,0:0:0:0:
256,192,101338,12,0,103597,0:0:0:0:
353,209,103778,5,8,0:0:0:0:
274,276,103958,1,8,0:0:0:0:
171,258,104139,1,0,0:0:0:0:
171,258,104229,1,0,0:0:0:0:
171,258,104320,1,0,1:0:0:0:
353,209,104500,5,2,0:0:0:0:
171,258,104681,1,0,1:0:0:0:
311,113,104862,1,4,0:0:0:0:
