osu file format v13

[General]
AudioFilename: sound_op_short.mp3
AudioLeadIn: 500
PreviewTime: 57893
Countdown: 0
SampleSet: Soft
StackLeniency: 0.7
Mode: 0
LetterboxInBreaks: 0
WidescreenStoryboard: 0

[Editor]
DistanceSpacing: 1.7
BeatDivisor: 4
GridSize: 4
TimelineZoom: 1

[Metadata]
Title:Dreamer Short ver.
TitleUnicode:Dreamer ショート ver.
Artist:Duca
ArtistUnicode:Duca
Creator:CloudSplash16
Version:Insane
Source:恋する彼女の不器用な舞台
Tags:cube koi suru kanojo no bukiyou na butai koikano eroge opening iMage-- litoluna
BeatmapID:479198
BeatmapSetID:202595

[Difficulty]
HPDrainRate:6.5
CircleSize:4
OverallDifficulty:7
ApproachRate:8
SliderMultiplier:1.6
SliderTickRate:1

[Events]
//Background and Video events
0,0,"bg.jpg",0,0
Video,50,"OP.avi"
//Break Periods
//Storyboard Layer 0 (Background)
//Storyboard Layer 1 (Fail)
//Storyboard Layer 2 (Pass)
//Storyboard Layer 3 (Foreground)
//Storyboard Sound Samples
//Background Colour Transformations
3,100,163,162,255

[TimingPoints]
966,361.44578313253,4,2,1,70,1,0
12532,-100,4,2,2,60,0,0
24098,-133.333333333333,4,2,1,40,0,0
32773,-100,4,2,1,40,0,0
35664,-100,4,2,1,50,0,0
53014,-100,4,2,1,60,0,0
58797,-100,4,2,1,70,0,1
70182,-100,4,2,1,70,0,0
70363,-100,4,2,1,70,0,1
81929,-100,4,2,1,60,0,0
93496,-100,4,2,1,70,0,0
100544,-100,4,2,1,50,0,0
103255,-100,4,2,1,5,0,0
103616,-100,4,2,1,50,0,0
104158,-100,4,2,1,70,0,0

[Colours]
Combo1 : 0,118,54
Combo2 : 255,33,128
Combo3 : 255,123,0
Combo4 : 2,78,165

[HitObjects]
112,112,966,6,0,L|192:116,1,80,6|0,0:0|0:0,0:0:0:0:
347,72,1327,2,0,P|294:127|308:203,1,160,8|0,0:0|0:0,0:0:0:0:
440,128,1869,1,2,0:0:0:0:
472,268,2050,1,8,0:0:0:0:
308,203,2231,2,0,P|231:183|154:202,1,160,2|2,0:0|0:0,0:0:0:0:
184,352,2773,6,0,P|202:317|201:277,1,80,8|0,0:0|0:0,0:0:0:0:
108,120,3134,1,0,0:0:0:0:
43,262,3315,1,2,0:0:0:0:
252,204,3496,1,8,0:0:0:0:
124,294,3677,1,0,0:0:0:0:
300,296,3857,6,0,B|352:280|404:308|404:308|452:288,1,160,2|8,0:0|0:0,0:0:0:0:
452,287,4399,1,0,0:0:0:0:
427,144,4580,2,0,P|406:177|402:217,1,80,0|2,0:0|0:0,0:0:0:0:
508,124,4941,1,8,0:0:0:0:
312,144,5122,2,0,B|248:172|188:136|188:136|176:164,1,160,2|2,0:0|0:0,0:0:0:0:
156,339,5664,6,0,P|186:314|199:277,1,80,8|0,0:0|0:0,0:0:0:0:
79,194,6026,2,0,P|86:233|112:264,1,80,0|2,0:0|0:0,0:0:0:0:
280,304,6387,2,0,P|328:300|364:308,1,80,8|0,0:0|0:0,0:0:0:0:
473,337,6749,6,0,B|449:297|449:297|485:249|466:189,1,160,6|8,0:0|0:0,0:0:0:0:
325,174,7291,2,0,P|342:210|376:228,1,80
404,120,7652,1,2,0:0:0:0:
280,304,7833,1,8,0:0:0:0:
184,168,8014,2,0,P|255:138|324:173,1,160,2|2,0:0|0:0,0:0:0:0:
108,216,8556,5,8,0:0:0:0:
280,304,8737,1,0,0:0:0:0:
129,376,8917,2,0,P|115:339|120:300,1,80,0|2,0:0|0:0,0:0:0:0:
184,168,9279,2,0,P|197:205|193:244,1,80,8|0,0:0|0:0,0:0:0:0:
92,156,9640,6,0,L|248:123,1,160,2|8,0:0|0:0,0:0:0:0:
336,192,10182,1,0,0:0:0:0:
424,148,10363,2,0,L|453:73,1,80,0|2,0:0|0:0,0:0:0:0:
336,192,10725,2,0,L|306:266,1,80,8|0,0:0|0:0,0:0:0:0:
272,104,11086,1,2,0:0:0:0:
176,228,11267,6,0,P|181:188|169:150,1,80,8|2,0:0|0:0,0:0:0:0:
36,200,11628,1,0,0:0:0:0:
96,328,11809,2,0,L|175:320,1,80,8|2,0:0|0:0,0:0:0:0:
336,192,12170,2,0,P|347:229|341:269,1,80,10|0,0:0|0:0,0:0:0:0:
240,200,12532,6,0,P|260:125|332:97,1,160,2|2,0:0|0:0,0:0:0:0:
488,152,13074,2,0,L|412:176,1,80,0|2,0:0|0:0,0:0:0:0:
88,136,13616,1,2,0:0:0:0:
88,136,13797,2,0,L|99:215,1,80,0|2,0:0|0:0,0:0:0:0:
302,189,14158,2,0,L|227:159,1,80,0|2,0:0|0:0,0:0:0:0:
148,347,14520,2,0,L|210:297,1,80,0|2,0:0|0:0,0:0:0:0:
302,189,14881,1,0,0:0:0:0:
478,284,15062,2,0,P|443:302|404:297,1,80,10|0,0:0|0:0,0:0:0:0:
245,260,15423,6,0,B|179:237|116:263|116:263|106:236,1,160,2|2,0:0|0:0,0:0:0:0:
188,112,15965,2,0,P|226:103|265:112,1,80,0|2,0:0|0:0,0:0:0:0:
388,208,16327,2,0,P|425:195|455:169,1,80,0|2,0:0|0:0,0:0:0:0:
302,189,16688,2,0,P|288:236|320:348,1,160
468,304,17231,2,0,P|430:292|390:295,1,80,2|0,0:0|0:0,0:0:0:0:
208,324,17592,1,2,0:0:0:0:
320,348,17773,1,0,0:0:0:0:
192,200,17953,1,10,0:0:0:0:
192,320,18134,1,0,0:0:0:0:
320,231,18315,6,0,P|345:156|333:78,1,160,2|2,0:0|0:0,0:0:0:0:
188,132,18857,2,0,P|148:144|100:136,1,80,0|2,0:0|0:0,0:0:0:0:
240,48,19219,1,0,0:0:0:0:
240,48,19580,1,0,0:0:0:0:
324,128,19761,2,0,L|312:208,1,80,2|0,0:0|0:0,0:0:0:0:
148,240,20122,2,0,L|223:210,1,80,2|0,0:0|0:0,0:0:0:0:
396,208,20484,2,0,P|361:276|284:285,1,160,2|10,0:0|0:0,0:0:0:0:
148,240,21026,1,0,0:0:0:0:
148,240,21206,6,0,L|155:319,1,80,2|0,0:0|0:0,0:0:0:0:
260,200,21568,2,0,L|252:120,1,80,2|0,0:0|0:0,0:0:0:0:
88,168,21929,1,2,0:0:0:0:
88,168,22110,1,0,0:0:0:0:
88,168,22472,2,0,P|163:150|228:192,1,160
208,348,23014,1,2,0:0:0:0:
148,240,23194,1,0,0:0:0:0:
280,296,23375,2,0,P|332:304|372:296,1,80,2|0,0:0|0:0,0:0:0:0:
471,179,23737,2,0,P|434:168|394:172,1,80,10|0,0:0|0:0,0:0:0:0:
203,228,24098,6,0,P|146:239|94:210,1,120.000004577637,2|0,0:0|0:0,0:0:0:0:
165,92,24640,2,0,L|160:152,1,60.0000022888184,2|8,0:0|0:0,0:0:0:0:
275,346,25182,2,0,L|270:287,1,60.0000022888184
256,144,25544,6,0,L|313:159,1,60.0000022888184,0|8,0:0|0:0,0:0:0:0:
416,140,25905,1,2,0:0:0:0:
404,36,26086,1,2,0:0:0:0:
211,64,26267,2,0,P|172:107|167:166,1,120.000004577637,8|0,0:0|0:0,0:0:0:0:
314,159,26809,2,0,L|257:144,1,60.0000022888184,0|2,0:0|0:0,0:0:0:0:
184,260,27170,5,0,0:0:0:0:
184,260,27351,2,0,L|241:244,1,60.0000022888184,0|2,0:0|0:0,0:0:0:0:
412,192,27712,1,8,0:0:0:0:
412,192,27893,2,0,L|408:251,1,60.0000022888184,0|2,0:0|0:0,0:0:0:0:
348,344,28255,1,0,0:0:0:0:
348,344,28435,6,0,B|316:328|316:328|268:348|233:332,1,120.000004577637,0|2,0:0|0:0,0:0:0:0:
184,260,28978,1,0,0:0:0:0:
240,136,29158,2,0,P|269:129|298:133,1,60.0000022888184,8|0,0:0|0:0,0:0:0:0:
336,244,29520,2,0,P|306:250|277:246,1,60.0000022888184,2|0,0:0|0:0,0:0:0:0:
115,188,29881,6,0,P|87:239|93:298,1,120.000004577637,2|0,0:0|0:0,0:0:0:0:
184,260,30423,1,2,0:0:0:0:
240,136,30604,2,0,P|210:129|181:136,1,60.0000022888184,8|0,0:0|0:0,0:0:0:0:
184,260,30965,1,0,0:0:0:0:
184,260,31146,2,0,P|238:282|295:268,1,120.000004577637,0|8,0:0|0:0,0:0:0:0:
380,204,31688,6,0,L|376:268,1,60.0000022888184,2|2,0:0|0:0,0:0:0:0:
244,196,32050,2,0,L|240:132,1,60.0000022888184,8|0,0:0|0:0,0:0:0:0:
295,268,32411,1,0,0:0:0:0:
356,116,32592,1,0,0:0:0:0:
356,116,32773,6,0,P|395:112|431:129,1,80,2|0,0:0|0:0,0:0:0:0:
407,280,33134,2,0,P|368:284|332:267,1,80,10|2,0:0|0:0,0:0:0:0:
176,240,33496,2,0,P|215:244|251:227,1,80,8|0,0:0|0:0,0:0:0:0:
268,76,33857,2,0,P|228:71|192:88,1,80,2|0,0:0|0:0,0:0:0:0:
88,212,34219,5,2,0:0:0:0:
88,212,34399,2,0,L|91:291,1,80,8|2,0:0|0:0,0:0:0:0:
252,336,34761,1,8,0:0:0:0:
280,340,34851,1,2,0:0:0:0:
312,344,34941,1,2,0:0:0:0:
428,300,35122,1,2,0:0:0:0:
480,192,35303,2,0,P|484:148|468:108,1,80,8|0,0:0|0:0,0:0:0:0:
272,232,35664,5,6,0:0:0:0:
68,88,36568,6,0,P|61:131|72:176,1,80,2|0,0:0|0:0,0:0:0:0:
172,87,36929,2,0,P|251:79|329:92,1,160,2|2,0:0|0:0,0:0:0:0:
408,164,37472,2,0,P|432:128|436:88,1,80,8|0,0:0|0:0,0:0:0:0:
320,204,37833,1,0,0:0:0:0:
320,204,38014,1,2,0:0:0:0:
436,292,38194,2,0,P|420:340|392:360,1,80,8|0,0:0|0:0,0:0:0:0:
188,256,38556,5,2,0:0:0:0:
371,79,39459,6,0,P|332:72|293:76,1,80,2|0,0:0|0:0,0:0:0:0:
116,164,39821,2,0,P|192:185|267:162,1,160,2|2,0:0|0:0,0:0:0:0:
400,192,40363,2,0,P|416:232|416:276,1,80,8|0,0:0|0:0,0:0:0:0:
236,264,40725,2,0,P|196:260|152:276,1,80,2|0,0:0|0:0,0:0:0:0:
308,320,41086,2,0,P|324:284|324:244,1,80,8|0,0:0|0:0,0:0:0:0:
371,80,41447,6,0,P|339:102|300:106,1,80,2|0,0:0|0:0,0:0:0:0:
188,88,41809,1,8,0:0:0:0:
112,176,41990,2,0,L|192:192,1,80,0|8,0:0|0:0,0:0:0:0:
308,320,42351,2,0,L|229:304,1,80,2|0,0:0|0:0,0:0:0:0:
336,240,42712,6,0,P|389:294|374:370,1,160,8|2,0:0|0:0,0:0:0:0:
260,223,43255,2,0,P|276:187|309:166,1,80,8|0,0:0|0:0,0:0:0:0:
488,144,43616,2,0,P|448:148|413:130,1,80,0|2,0:0|0:0,0:0:0:0:
256,48,43978,2,0,P|216:40|168:52,1,80,8|0,0:0|0:0,0:0:0:0:
72,128,44339,5,2,0:0:0:0:
96,264,44520,1,0,0:0:0:0:
236,188,44700,2,0,L|144:196,1,80,8|0,0:0|0:0,0:0:0:0:
236,328,45062,1,8,0:0:0:0:
364,192,45243,1,2,0:0:0:0:
336,312,45423,1,0,0:0:0:0:
236,188,45604,6,0,P|228:140|240:96,1,80,8|0,0:0|0:0,0:0:0:0:
400,48,45965,1,2,0:0:0:0:
364,192,46146,1,8,0:0:0:0:
320,72,46327,1,0,0:0:0:0:
432,235,46508,2,0,P|443:198|437:159,2,80,0|2|8,0:0|0:0|0:0,0:0:0:0:
352,344,47050,1,0,0:0:0:0:
352,344,47231,6,0,P|308:336|260:352,1,80,2|0,0:0|0:0,0:0:0:0:
112,308,47592,2,0,P|156:316|204:300,2,80,8|0|0,0:0|0:0|0:0,0:0:0:0:
112,308,48134,1,2,0:0:0:0:
372,184,48496,6,0,B|318:155|256:192|256:192|232:162,1,160,8|2,0:0|0:0,0:0:0:0:
324,268,49038,2,0,P|361:279|401:274,1,80,8|0,0:0|0:0,0:0:0:0:
480,192,49399,1,0,0:0:0:0:
420,96,49580,2,0,P|382:84|342:89,1,80,2|8,0:0|0:0,0:0:0:0:
232,162,49941,1,0,0:0:0:0:
232,162,50122,6,0,L|235:242,1,80,2|0,0:0|0:0,0:0:0:0:
320,347,50484,2,0,L|324:268,1,80,8|0,0:0|0:0,0:0:0:0:
328,144,50845,1,0,0:0:0:0:
404,212,51026,1,2,0:0:0:0:
444,48,51206,1,0,0:0:0:0:
328,144,51387,6,0,P|252:164|176:142,1,160,8|2,0:0|0:0,0:0:0:0:
92,56,51929,2,0,P|104:100|88:140,1,80,8|0,0:0|0:0,0:0:0:0:
64,308,52291,1,2,0:0:0:0:
44,192,52472,1,0,0:0:0:0:
152,284,52652,2,0,P|192:296|236:288,1,80,8|0,0:0|0:0,0:0:0:0:
356,216,53014,6,0,B|380:152|336:100|336:100|361:74,1,160,6|8,0:0|0:0,0:0:0:0:
361,74,53556,1,0,0:0:0:0:
268,172,53737,2,0,P|228:180|188:172,1,80,10|0,0:0|0:0,0:0:0:0:
188,20,54098,2,0,P|214:50|228:88,1,80,8|0,0:0|0:0,0:0:0:0:
192,256,54459,6,0,P|184:295|192:334,1,80,10|0,0:0|0:0,0:0:0:0:
356,294,54821,2,0,P|363:254|356:216,1,80,8|0,0:0|0:0,0:0:0:0:
361,74,55182,1,10,0:0:0:0:
361,74,55363,1,0,0:0:0:0:
236,132,55544,2,0,P|192:136|152:120,1,80,8|0,0:0|0:0,0:0:0:0:
56,64,55905,6,0,B|84:132|48:192|48:192|66:210,1,160,6|8,0:0|0:0,0:0:0:0:
160,280,56447,1,0,0:0:0:0:
320,272,56628,2,0,L|326:192,1,80,10|0,0:0|0:0,0:0:0:0:
168,308,56990,1,8,0:0:0:0:
392,348,57170,2,0,L|398:268,1,80,2|4,0:0|0:0,0:0:0:0:
88,192,58074,5,2,0:0:0:0:
192,88,58255,1,2,0:0:0:0:
192,88,58435,2,0,L|113:93,1,80,8|0,0:0|0:0,0:0:0:0:
196,212,58797,6,0,P|270:234|339:197,1,160,6|8,0:0|0:0,0:0:0:0:
339,197,59339,1,0,0:0:0:0:
272,276,59520,2,0,P|279:314|304:345,1,80,0|2,0:0|0:0,0:0:0:0:
428,196,59881,2,0,P|420:157|395:126,1,80,8|0,0:0|0:0,0:0:0:0:
288,92,60243,6,0,P|256:116|140:84,1,160,2|8,0:0|0:0,0:0:0:0:
40,212,60785,2,0,P|80:196|104:164,1,80
96,24,61146,2,0,P|69:57|64:97,1,80,2|8,0:0|0:0,0:0:0:0:
160,224,61508,1,0,0:0:0:0:
160,224,61688,6,0,L|328:216,1,160,2|8,0:0|0:0,0:0:0:0:
472,268,62231,2,0,P|444:300|400:304,1,80
320,304,62592,1,2,0:0:0:0:
368,136,62773,2,0,P|397:162|412:198,1,80,8|0,0:0|0:0,0:0:0:0:
196,128,63134,6,0,P|156:122|117:131,2,80,2|0|8,0:0|0:0|0:0,0:0:0:0:
242,252,63676,1,0,0:0:0:0:
31,174,63857,2,0,P|22:136|27:97,1,80,0|2,0:0|0:0,0:0:0:0:
160,224,64219,2,0,P|169:262|164:301,1,80,8|0,0:0|0:0,0:0:0:0:
0,268,64580,6,0,P|48:260|84:268,1,80,2|0,0:0|0:0,0:0:0:0:
220,356,64941,1,8,0:0:0:0:
356,352,65122,2,0,P|408:348|440:332,1,80
416,216,65484,1,2,0:0:0:0:
242,252,65664,2,0,P|286:272|326:272,1,80,8|0,0:0|0:0,0:0:0:0:
261,163,66026,6,0,P|222:162|185:177,1,80,2|0,0:0|0:0,0:0:0:0:
106,304,66387,2,0,P|122:264|122:228,1,80,8|0,0:0|0:0,0:0:0:0:
110,108,66749,1,0,0:0:0:0:
26,248,66929,1,2,0:0:0:0:
185,177,67110,2,0,P|222:162|261:163,1,80,8|0,0:0|0:0,0:0:0:0:
384,208,67472,6,0,P|458:191|474:117,1,160,2|8,0:0|0:0,0:0:0:0:
384,208,68014,2,0,L|394:287,1,80
276,248,68375,1,2,0:0:0:0:
352,352,68556,2,0,P|389:364|428:357,1,80,8|0,0:0|0:0,0:0:0:0:
276,248,68917,6,0,P|199:241|135:286,1,160,2|8,0:0|0:0,0:0:0:0:
134,286,69459,1,0,0:0:0:0:
200,164,69640,2,0,P|200:124|186:87,1,80,0|2,0:0|0:0,0:0:0:0:
40,116,70002,2,0,P|73:136|113:142,1,80,8|0,0:0|0:0,0:0:0:0:
276,96,70363,6,0,P|328:80|412:144,1,160,6|8,0:0|0:0,0:0:0:0:
327,241,70905,2,0,P|319:202|328:164,1,80
436,264,71267,1,2,0:0:0:0:
352,344,71447,2,0,L|272:352,1,80,8|0,0:0|0:0,0:0:0:0:
152,276,71809,6,0,B|132:208|180:160|180:160|154:137,1,160,2|8,0:0|0:0,0:0:0:0:
244,236,72351,2,0,P|300:260|392:220,1,160,0|2,0:0|0:0,0:0:0:0:
464,124,72893,1,8,0:0:0:0:
464,276,73074,1,0,0:0:0:0:
311,164,73255,6,0,P|255:140|163:180,1,160,2|8,0:0|0:0,0:0:0:0:
28,216,73797,2,0,P|10:180|9:140,1,80
116,240,74158,1,2,0:0:0:0:
32,332,74339,2,0,P|72:340|116:328,1,80,8|0,0:0|0:0,0:0:0:0:
232,280,74700,6,0,P|284:264|384:288,1,160,2|8,0:0|0:0,0:0:0:0:
384,288,75243,2,0,L|376:367,1,80
232,280,75604,2,0,L|239:200,1,80,2|8,0:0|0:0,0:0:0:0:
140,260,75965,1,0,0:0:0:0:
324,207,76146,6,0,P|297:135|222:114,1,160,2|8,0:0|0:0,0:0:0:0:
76,164,76688,2,0,P|113:175|152:168,1,80
232,280,77050,1,2,0:0:0:0:
133,336,77231,2,0,P|126:297|140:260,1,80,8|0,0:0|0:0,0:0:0:0:
292,360,77592,6,0,P|330:368|370:362,1,80,2|0,0:0|0:0,0:0:0:0:
480,232,77953,2,0,P|441:223|401:229,1,80,8|0,0:0|0:0,0:0:0:0:
232,280,78315,1,0,0:0:0:0:
292,124,78496,1,2,0:0:0:0:
122,174,78676,2,0,P|82:180|43:171,1,80,8|0,0:0|0:0,0:0:0:0:
176,40,79038,6,0,B|206:70|206:70|174:130|212:180,1,160,6|8,0:0|0:0,0:0:0:0:
376,168,79580,2,0,P|385:129|379:89,1,80,0|8,0:0|0:0,0:0:0:0:
292,124,79941,1,2,0:0:0:0:
424,340,80303,6,0,L|460:184,1,160,8|2,0:0|0:0,0:0:0:0:
351,280,80845,2,0,P|313:291|274:289,1,80,8|0,0:0|0:0,0:0:0:0:
176,252,81206,1,2,0:0:0:0:
232,68,81387,1,2,0:0:0:0:
132,168,81568,1,8,0:0:0:0:
292,124,81749,2,0,P|312:80|308:40,1,80,0|2,0:0|0:0,0:0:0:0:
352,280,82291,5,0,0:0:0:0:
352,280,82472,2,0,L|431:269,1,80,0|8,0:0|0:0,0:0:0:0:
371,113,82833,2,0,L|292:124,1,80,0|0,0:0|3:0,0:0:0:0:
176,280,83194,2,0,P|238:241|212:172,1,160,2|8,0:0|0:0,0:0:0:0:
80,192,83737,2,0,P|41:199|1:192,1,80
116,80,84098,1,8,0:0:0:0:
116,80,84279,1,0,3:0:0:0:
216,144,84459,2,0,P|254:151|294:144,1,80,0|0,0:0|3:0,0:0:0:0:
400,80,84821,6,0,L|392:239,1,160,2|0,0:0|0:0,0:0:0:0:
392,239,85363,1,0,0:0:0:0:
232,292,85544,2,0,P|272:304|312:296,1,80,8|0,0:0|0:0,0:0:0:0:
392,239,85905,1,0,3:0:0:0:
260,192,86086,2,0,B|188:176|144:228|144:228|122:204,1,160,2|8,0:0|0:0,0:0:0:0:
124,88,86628,2,0,P|162:78|200:87,1,80,2|0,0:0|0:0,0:0:0:0:
260,192,86990,6,0,L|238:268,1,80,8|0,0:0|0:0,0:0:0:0:
392,239,87351,2,0,L|370:315,1,80,8|0,0:0|0:0,0:0:0:0:
335,166,87712,6,0,P|411:151|472:200,1,160,6|8,0:0|0:0,0:0:0:0:
238,268,88435,2,0,P|162:253|101:302,1,160,0|8,0:0|0:0,0:0:0:0:
238,268,89158,2,0,L|260:192,1,80,2|0,0:0|0:0,0:0:0:0:
340,83,89520,2,0,P|378:75|417:84,1,80,8|0,0:0|0:0,0:0:0:0:
476,232,89881,2,0,P|437:240|398:231,1,80,0|2,0:0|0:0,0:0:0:0:
231,159,90243,2,0,B|159:147|111:195|111:195|95:171,1,160,12|8,0:0|0:0,0:0:0:0:
95,171,90785,5,2,0:0:0:0:
160,276,90965,2,0,L|198:345,1,80,8|0,0:0|0:0,0:0:0:0:
310,160,91327,2,0,L|231:159,1,80,8|2,0:0|0:0,0:0:0:0:
335,349,91688,1,2,0:0:0:0:
335,349,91869,2,0,L|376:280,1,80,8|0,0:0|0:0,0:0:0:0:
428,192,92231,1,2,0:0:0:0:
260,228,92411,2,0,P|223:159|257:90,1,160,8|2,0:0|0:0,0:0:0:0:
257,90,92953,1,0,0:0:0:0:
416,84,93134,2,0,P|444:109|457:147,1,80,8|0,0:0|0:0,0:0:0:0:
340,232,93496,6,0,L|260:228,1,80,6|0,0:0|0:0,0:0:0:0:
117,280,93857,2,0,P|147:255|163:219,1,80,8|0,0:0|0:0,0:0:0:0:
140,48,94219,1,0,0:0:0:0:
76,164,94399,1,2,0:0:0:0:
238,110,94580,1,8,0:0:0:0:
40,97,94761,6,0,P|0:161|36:228,1,160,2|2,0:0|0:0,0:0:0:0:
156,156,95303,2,0,L|76:164,1,80,8|0,0:0|0:0,0:0:0:0:
196,304,95664,1,2,0:0:0:0:
264,176,95845,1,0,0:0:0:0:
152,236,96026,1,8,0:0:0:0:
332,224,96206,1,0,0:0:0:0:
212,88,96387,6,0,B|160:104|108:76|108:76|60:96,1,160,2|8,0:0|0:0,0:0:0:0:
59,96,96929,1,2,0:0:0:0:
85,240,97110,2,0,P|106:207|110:167,1,80,8|2,0:0|0:0,0:0:0:0:
4,260,97472,1,0,0:0:0:0:
200,240,97652,6,0,B|264:212|324:248|324:248|336:220,1,160,2|2,0:0|0:0,0:0:0:0:
356,45,98194,2,0,P|326:70|313:107,1,80,8|2,0:0|0:0,0:0:0:0:
433,190,98556,2,0,P|426:151|400:120,1,80,0|2,0:0|0:0,0:0:0:0:
232,80,98917,2,0,P|184:84|148:76,1,80,8|0,0:0|0:0,0:0:0:0:
52,152,99279,6,0,B|40:196|40:196|108:188|134:244,1,160,6|8,0:0|0:0,0:0:0:0:
55,352,99821,2,0,P|48:313|59:276,1,80,6|0,0:0|0:0,0:0:0:0:
228,356,100182,1,8,0:0:0:0:
228,356,100363,1,6,0:0:0:0:
256,192,100544,12,0,103255,0:0:0:0:
314,152,103616,6,0,L|236:168,1,80,2|0,0:0|0:0,0:0:0:0:
124,252,103978,1,2,0:0:0:0:
256,308,104158,1,2,0:0:0:0:
256,308,104249,1,2,0:0:0:0:
256,308,104339,2,0,L|334:292,1,80,8|2,0:0|0:0,0:0:0:0:
436,272,104700,1,8,0:0:0:0:
236,168,104881,1,12,0:0:0:0:
