osu file format v13

[General]
AudioFilename: sound_op_short.mp3
AudioLeadIn: 500
PreviewTime: 57893
Countdown: 0
SampleSet: Soft
StackLeniency: 0.7
Mode: 0
LetterboxInBreaks: 0
WidescreenStoryboard: 0

[Editor]
DistanceSpacing: 1.7
BeatDivisor: 4
GridSize: 4
TimelineZoom: 1

[Metadata]
Title:Dreamer Short ver.
TitleUnicode:Dreamer ショート ver.
Artist:Duca
ArtistUnicode:Duca
Creator:CloudSplash16
Version:Dream
Source:恋する彼女の不器用な舞台
Tags:cube koi suru kanojo no bukiyou na butai koikano eroge opening iMage-- litoluna
BeatmapID:479235
BeatmapSetID:202595

[Difficulty]
HPDrainRate:7
CircleSize:4
OverallDifficulty:7.5
ApproachRate:9
SliderMultiplier:1.8
SliderTickRate:1

[Events]
//Background and Video events
0,0,"bg.jpg",0,0
Video,50,"OP.avi"
//Break Periods
//Storyboard Layer 0 (Background)
//Storyboard Layer 1 (Fail)
//Storyboard Layer 2 (Pass)
//Storyboard Layer 3 (Foreground)
//Storyboard Sound Samples
//Background Colour Transformations
3,100,163,162,255

[TimingPoints]
966,361.44578313253,4,2,1,70,1,0
12532,-100,4,2,2,60,0,0
24098,-133.333333333333,4,2,1,40,0,0
32773,-100,4,2,1,40,0,0
35664,-100,4,2,1,50,0,0
53014,-100,4,2,1,60,0,0
58797,-100,4,2,1,70,0,1
70182,-100,4,2,1,70,0,0
70363,-100,4,2,1,70,0,1
81929,-133.333333333333,4,2,1,60,0,0
87712,-100,4,2,1,60,0,0
93496,-100,4,2,1,70,0,0
100544,-100,4,2,1,50,0,0
103255,-100,4,2,1,5,0,0
103616,-100,4,2,1,50,0,0
104158,-100,4,2,1,70,0,0

[Colours]
Combo1 : 0,118,54
Combo2 : 255,33,128
Combo3 : 255,123,0
Combo4 : 2,78,165

[HitObjects]
184,108,966,6,0,L|190:197,1,90,6|0,0:0|0:0,0:0:0:0:
320,320,1327,2,0,L|326:230,1,90,8|0,0:0|0:0,0:0:0:0:
344,72,1688,1,0,0:0:0:0:
326,230,1869,1,2,0:0:0:0:
460,148,2050,1,8,0:0:0:0:
272,128,2231,2,0,P|227:127|182:134,1,90,2|0,0:0|0:0,0:0:0:0:
84,292,2592,1,2,0:0:0:0:
220,344,2773,2,0,P|223:299|219:254,1,90,8|0,0:0|0:0,0:0:0:0:
132,52,3134,5,0,0:0:0:0:
106,174,3315,1,2,0:0:0:0:
232,24,3496,1,8,0:0:0:0:
128,156,3677,1,0,0:0:0:0:
272,128,3857,6,0,P|316:121|361:122,1,90,2|0,0:0|0:0,0:0:0:0:
472,272,4219,2,0,P|427:278|382:277,1,90,8|0,0:0|0:0,0:0:0:0:
200,276,4580,1,0,0:0:0:0:
344,364,4761,1,2,0:0:0:0:
280,208,4941,1,8,0:0:0:0:
152,344,5122,2,0,P|107:344|62:337,1,90,2|0,0:0|0:0,0:0:0:0:
156,192,5484,1,2,0:0:0:0:
328,280,5664,6,0,P|372:280|417:273,1,90,8|0,0:0|0:0,0:0:0:0:
464,116,6026,1,0,0:0:0:0:
336,76,6206,1,2,0:0:0:0:
328,280,6387,1,8,0:0:0:0:
384,152,6568,1,0,0:0:0:0:
244,236,6749,6,0,P|242:322|313:371,2,180,6|8|0,0:0|0:0|0:0,0:0:0:0:
384,152,7652,1,2,0:0:0:0:
328,280,7833,1,8,0:0:0:0:
248,136,8014,2,0,P|244:91|247:46,1,90,2|0,0:0|0:0,0:0:0:0:
384,152,8375,1,2,0:0:0:0:
244,235,8556,6,0,P|199:239|154:236,1,90,8|0,0:0|0:0,0:0:0:0:
144,44,8917,1,0,0:0:0:0:
248,136,9098,1,2,0:0:0:0:
404,40,9279,2,0,P|352:36|308:40,1,90,8|0,0:0|0:0,0:0:0:0:
152,140,9640,5,2,0:0:0:0:
328,204,9821,1,0,0:0:0:0:
176,328,10002,1,8,0:0:0:0:
328,204,10182,1,0,0:0:0:0:
144,240,10363,1,0,0:0:0:0:
312,320,10544,1,2,0:0:0:0:
248,135,10725,6,0,P|244:180|246:225,1,90,8|0,0:0|0:0,0:0:0:0:
344,104,11086,1,2,0:0:0:0:
144,240,11267,2,0,P|100:244|55:240,1,90,8|2,0:0|0:0,0:0:0:0:
136,60,11628,1,0,0:0:0:0:
328,204,11809,5,8,0:0:0:0:
32,132,12170,1,10,0:0:0:0:
220,352,12532,6,0,P|264:355|309:353,1,90,2|0,0:0|0:0,0:0:0:0:
424,216,12893,1,2,0:0:0:0:
256,256,13074,1,0,0:0:0:0:
320,108,13255,1,2,0:0:0:0:
344,288,13435,1,0,0:0:0:0:
212,168,13616,1,2,0:0:0:0:
424,216,13797,1,0,0:0:0:0:
424,216,14158,6,0,L|424:306,1,90,0|2,0:0|0:0,0:0:0:0:
284,152,14520,2,0,L|284:242,1,90,0|2,0:0|0:0,0:0:0:0:
356,368,14881,1,0,0:0:0:0:
172,276,15062,1,10,0:0:0:0:
332,220,15243,1,0,0:0:0:0:
187,368,15423,6,0,P|143:364|98:356,1,90,2|0,0:0|0:0,0:0:0:0:
48,220,15785,1,2,0:0:0:0:
200,176,15965,1,0,0:0:0:0:
260,316,16146,1,2,0:0:0:0:
124,256,16327,1,0,0:0:0:0:
332,220,16508,1,2,0:0:0:0:
332,220,16688,6,0,L|336:124,1,90,0|2,0:0|0:0,0:0:0:0:
200,176,17050,1,0,0:0:0:0:
392,112,17231,1,2,0:0:0:0:
240,56,17411,1,0,0:0:0:0:
332,220,17592,2,0,P|376:224|421:220,1,90,2|0,0:0|0:0,0:0:0:0:
240,56,17953,2,0,P|195:51|150:57,1,90,10|0,0:0|0:0,0:0:0:0:
116,312,18315,6,0,P|168:316|208:312,1,90,2|0,0:0|0:0,0:0:0:0:
200,176,18676,1,2,0:0:0:0:
53,248,18857,2,0,P|81:283|116:312,1,90,0|2,0:0|0:0,0:0:0:0:
395,283,19219,2,0,P|366:249|332:220,1,90,0|2,0:0|0:0,0:0:0:0:
196,336,19580,1,0,0:0:0:0:
292,124,19761,5,2,0:0:0:0:
292,124,20122,2,0,P|288:169|296:213,1,90,2|0,0:0|0:0,0:0:0:0:
456,120,20484,2,0,P|459:75|451:31,1,90,2|0,0:0|0:0,0:0:0:0:
292,124,20845,2,0,P|205:144|118:125,1,180,10|2,0:0|0:0,0:0:0:0:
12,76,21387,1,0,0:0:0:0:
64,248,21568,1,2,0:0:0:0:
64,248,21929,5,2,0:0:0:0:
152,208,22110,1,0,0:0:0:0:
216,280,22291,1,2,0:0:0:0:
85,159,22472,6,0,P|165:128|229:185,1,180,0|0,0:0|0:0,0:0:0:0:
64,248,23014,1,2,0:0:0:0:
229,185,23194,1,0,0:0:0:0:
136,288,23375,1,2,0:0:0:0:
311,269,23555,1,0,0:0:0:0:
195,345,23737,1,10,0:0:0:0:
369,372,23917,1,0,0:0:0:0:
321,180,24098,6,0,P|257:196|222:252,1,135.000005149842,2|0,0:0|0:0,0:0:0:0:
222,252,24640,1,2,0:0:0:0:
396,232,24821,2,0,L|403:97,1,135.000005149842,8|2,0:0|0:0,0:0:0:0:
403,97,25363,1,0,0:0:0:0:
186,134,25544,6,0,P|219:139|252:131,1,67.5000025749208,2|8,0:0|0:0,0:0:0:0:
116,48,25905,1,2,0:0:0:0:
116,48,26086,1,2,0:0:0:0:
36,208,26267,2,0,L|43:275,1,67.5000025749208,8|0,0:0|0:0,0:0:0:0:
224,252,26628,2,0,L|216:319,1,67.5000025749208,0|0,0:0|0:0,0:0:0:0:
186,134,26990,6,0,P|234:90|299:99,1,135.000005149842,2|0,0:0|0:0,0:0:0:0:
299,99,27532,1,2,0:0:0:0:
224,252,27712,1,8,0:0:0:0:
224,252,27893,2,0,L|196:313,1,67.5000025749208,0|2,0:0|0:0,0:0:0:0:
140,216,28255,1,0,0:0:0:0:
288,312,28435,6,0,L|355:308,1,67.5000025749208,2|0,0:0|0:0,0:0:0:0:
460,192,28797,2,0,L|392:188,1,67.5000025749208,2|0,0:0|0:0,0:0:0:0:
140,216,29158,2,0,P|172:223|205:219,1,67.5000025749208,8|0,0:0|0:0,0:0:0:0:
300,100,29520,2,0,P|267:92|234:96,1,67.5000025749208,2|0,0:0|0:0,0:0:0:0:
32,116,29881,6,0,P|93:140|154:116,1,135.000005149842,2|0,0:0|0:0,0:0:0:0:
154,116,30423,1,2,0:0:0:0:
300,100,30604,2,0,P|360:75|421:100,1,135.000005149842,8|2,0:0|0:0,0:0:0:0:
356,230,31146,6,0,P|353:196|361:164,1,67.5000025749208,0|2,0:0|0:0,0:0:0:0:
404,372,31508,1,8,0:0:0:0:
456,260,31688,1,2,0:0:0:0:
296,320,31869,1,2,0:0:0:0:
296,320,32050,2,0,P|260:324|224:320,1,67.5000025749208,8|0,0:0|0:0,0:0:0:0:
96,288,32411,1,0,0:0:0:0:
232,240,32592,1,0,0:0:0:0:
60,116,32773,6,0,L|52:205,1,90,2|0,0:0|0:0,0:0:0:0:
208,208,33134,1,10,0:0:0:0:
208,208,33315,1,2,0:0:0:0:
36,84,33496,2,0,L|28:173,1,90,8|0,0:0|0:0,0:0:0:0:
184,176,33857,1,2,0:0:0:0:
12,52,34038,2,0,L|4:141,1,90,8|2,0:0|0:0,0:0:0:0:
160,144,34399,5,8,0:0:0:0:
40,308,34580,1,2,0:0:0:0:
232,240,34761,1,8,0:0:0:0:
232,240,34851,1,2,0:0:0:0:
232,240,34941,1,2,0:0:0:0:
64,200,35122,1,2,0:0:0:0:
168,368,35303,2,0,L|257:364,1,90,8|0,0:0|0:0,0:0:0:0:
488,352,35664,5,6,0:0:0:0:
232,240,36026,2,0,L|232:150,2,90,8|0|0,0:0|0:0|0:0,0:0:0:0:
408,192,36568,2,0,L|321:168,1,90,2|0,0:0|0:0,0:0:0:0:
152,199,36929,2,0,P|154:286|229:329,1,180,2|2,0:0|0:0,0:0:0:0:
408,192,37472,1,8,0:0:0:0:
408,192,37652,1,0,0:0:0:0:
232,240,37833,1,0,0:0:0:0:
384,344,38014,1,2,0:0:0:0:
232,240,38194,2,0,L|232:150,1,90,8|0,0:0|0:0,0:0:0:0:
384,344,38556,5,2,0:0:0:0:
142,240,38917,2,0,L|232:240,2,90,8|0|0,0:0|0:0|0:0,0:0:0:0:
190,64,39459,2,0,L|214:151,1,90,2|0,0:0|0:0,0:0:0:0:
182,320,39820,2,0,P|96:318|53:244,1,180,2|2,0:0|0:0,0:0:0:0:
150,155,40363,2,0,P|193:163|236:151,1,90,8|0,0:0|0:0,0:0:0:0:
384,76,40725,1,2,0:0:0:0:
320,216,40905,1,2,0:0:0:0:
416,352,41086,2,0,P|427:309|419:265,1,90,8|0,0:0|0:0,0:0:0:0:
272,331,41447,6,0,P|187:346|136:277,1,180,2|8,0:0|0:0,0:0:0:0:
320,216,41990,1,2,0:0:0:0:
201,179,42170,2,0,L|220:268,1,90,8|2,0:0|0:0,0:0:0:0:
320,216,42532,1,0,0:0:0:0:
136,277,42712,2,0,P|187:346|272:331,1,180,8|2,0:0|0:0,0:0:0:0:
407,219,43255,2,0,P|363:207|320:216,1,90,8|0,0:0|0:0,0:0:0:0:
136,277,43616,1,2,0:0:0:0:
272,331,43797,1,2,0:0:0:0:
205,92,43978,2,0,P|193:136|202:180,1,90,8|0,0:0|0:0,0:0:0:0:
364,304,44339,6,0,L|453:311,1,90,2|0,0:0|0:0,0:0:0:0:
464,128,44700,1,8,0:0:0:0:
320,216,44881,1,0,0:0:0:0:
205,92,45062,2,0,P|193:136|202:180,1,90,8|2,0:0|0:0,0:0:0:0:
344,52,45423,1,0,0:0:0:0:
240,264,45604,1,8,0:0:0:0:
371,150,45785,6,0,P|331:131|288:138,1,90,2|2,0:0|0:0,0:0:0:0:
136,277,46146,1,8,0:0:0:0:
320,216,46327,1,2,0:0:0:0:
132,176,46508,1,0,0:0:0:0:
292,332,46688,1,2,0:0:0:0:
492,244,46869,2,0,L|488:154,1,90,8|0,0:0|0:0,0:0:0:0:
480,28,47231,5,2,0:0:0:0:
480,28,47592,2,0,P|442:50|398:48,1,90,8|0,0:0|0:0,0:0:0:0:
280,24,47953,1,2,0:0:0:0:
408,180,48134,1,2,0:0:0:0:
408,180,48496,6,0,P|324:165|266:229,1,180,8|2,0:0|0:0,0:0:0:0:
415,265,49038,2,0,P|456:250|485:216,1,90,8|0,0:0|0:0,0:0:0:0:
266,230,49399,1,2,0:0:0:0:
266,230,49580,1,2,0:0:0:0:
140,360,49761,2,0,P|120:319|124:275,1,90,8|0,0:0|0:0,0:0:0:0:
299,348,50122,5,2,0:0:0:0:
299,348,50484,2,0,L|388:338,1,90,8|0,0:0|0:0,0:0:0:0:
508,324,50845,1,2,0:0:0:0:
266,230,51026,1,2,0:0:0:0:
266,230,51387,6,0,P|324:166|409:181,1,180,8|2,0:0|0:0,0:0:0:0:
210,298,51929,1,8,0:0:0:0:
352,248,52110,1,2,0:0:0:0:
204,64,52291,2,0,P|188:105|190:150,1,90,2|0,0:0|0:0,0:0:0:0:
84,172,52652,2,0,P|102:212|135:242,1,90,8|0,0:0|0:0,0:0:0:0:
352,248,53014,6,0,P|268:233|210:297,2,180,6|8|10,0:0|0:0|0:0,0:0:0:0:
356,368,53917,1,0,0:0:0:0:
209,297,54098,2,0,P|192:255|195:210,1,90,8|0,0:0|0:0,0:0:0:0:
316,60,54459,2,0,P|332:101|329:146,1,90,10|0,0:0|0:0,0:0:0:0:
209,297,54821,2,0,L|132:344,1,90,8|0,0:0|0:0,0:0:0:0:
40,188,55182,2,0,L|117:235,1,90,10|0,0:0|0:0,0:0:0:0:
300,324,55544,2,0,P|302:279|285:238,1,90,8|0,0:0|0:0,0:0:0:0:
132,343,55905,5,6,0:0:0:0:
132,343,56086,1,0,0:0:0:0:
210,189,56267,1,8,0:0:0:0:
210,189,56447,1,0,0:0:0:0:
40,188,56628,1,10,0:0:0:0:
40,188,56809,1,0,0:0:0:0:
132,343,56989,1,8,0:0:0:0:
210,189,57170,1,2,0:0:0:0:
0,320,57351,1,4,0:0:0:0:
344,216,58074,5,2,0:0:0:0:
209,297,58255,2,0,P|192:255|195:210,1,90,2|8,0:0|0:0,0:0:0:0:
194,211,58616,1,2,0:0:0:0:
359,312,58797,6,0,P|429:260|430:173,1,180,6|8,0:0|0:0,0:0:0:0:
430,173,59339,1,0,0:0:0:0:
272,244,59520,2,0,P|229:256|185:248,1,90,0|2,0:0|0:0,0:0:0:0:
44,116,59881,2,0,P|86:103|130:111,1,90,8|0,0:0|0:0,0:0:0:0:
272,244,60243,5,2,0:0:0:0:
272,244,60423,1,0,0:0:0:0:
92,200,60604,2,0,P|86:244|90:289,1,90,8|0,0:0|0:0,0:0:0:0:
272,244,60965,1,0,0:0:0:0:
148,364,61146,1,2,0:0:0:0:
92,200,61327,1,8,0:0:0:0:
244,328,61508,1,0,0:0:0:0:
376,216,61688,6,0,P|420:209|464:215,1,90,2|0,0:0|0:0,0:0:0:0:
400,352,62050,1,8,0:0:0:0:
272,244,62231,2,0,P|268:200|274:155,1,90,0|0,0:0|0:0,0:0:0:0:
448,88,62592,1,2,0:0:0:0:
376,216,62773,1,8,0:0:0:0:
192,140,62953,1,0,0:0:0:0:
210,307,63134,6,0,P|247:281|272:244,1,90,2|0,0:0|0:0,0:0:0:0:
72,172,63496,2,0,P|64:216|73:260,1,90,8|0,0:0|0:0,0:0:0:0:
192,140,63857,1,0,0:0:0:0:
358,240,64038,2,0,P|315:253|272:244,1,90,2|8,0:0|0:0,0:0:0:0:
384,136,64399,1,0,0:0:0:0:
184,231,64580,6,0,P|214:312|298:329,1,180,2|8,0:0|0:0,0:0:0:0:
358,240,65122,1,0,0:0:0:0:
188,340,65303,1,0,0:0:0:0:
36,216,65484,1,2,0:0:0:0:
76,372,65664,2,0,P|102:335|111:292,1,90,8|0,0:0|0:0,0:0:0:0:
96,48,66026,6,0,L|108:137,1,90,2|0,0:0|0:0,0:0:0:0:
188,340,66387,1,8,0:0:0:0:
356,116,66568,2,0,P|312:107|269:121,1,90,0|0,0:0|0:0,0:0:0:0:
356,360,66929,2,0,P|385:326|394:282,1,90,2|8,0:0|0:0,0:0:0:0:
280,252,67291,1,0,0:0:0:0:
280,252,67472,6,0,L|458:232,1,180,2|8,0:0|0:0,0:0:0:0:
468,364,68014,2,0,P|424:372|382:356,1,90,0|0,0:0|0:0,0:0:0:0:
280,252,68375,1,2,0:0:0:0:
136,348,68556,2,0,P|158:309|160:265,1,90,8|0,0:0|0:0,0:0:0:0:
76,76,68917,5,2,0:0:0:0:
64,232,69098,1,0,0:0:0:0:
292,184,69279,1,8,0:0:0:0:
140,136,69459,1,0,0:0:0:0:
136,348,69640,1,0,0:0:0:0:
256,208,69821,1,2,0:0:0:0:
64,232,70002,1,8,0:0:0:0:
264,336,70182,1,0,0:0:0:0:
264,336,70363,6,0,P|346:309|414:362,1,180,6|8,0:0|0:0,0:0:0:0:
414,362,70905,1,0,0:0:0:0:
347,223,71086,2,0,P|339:179|346:135,1,90,0|2,0:0|0:0,0:0:0:0:
164,160,71447,2,0,P|172:204|165:248,1,90,8|0,0:0|0:0,0:0:0:0:
56,368,71809,5,2,0:0:0:0:
56,368,71990,2,0,L|145:356,1,90,0|8,0:0|0:0,0:0:0:0:
347,223,72351,2,0,P|287:284|204:261,1,180,0|2,0:0|0:0,0:0:0:0:
432,216,72893,1,8,0:0:0:0:
265,204,73074,1,0,0:0:0:0:
332,364,73255,6,0,P|376:371|419:359,1,90,2|0,0:0|0:0,0:0:0:0:
347,223,73616,1,8,0:0:0:0:
219,324,73797,2,0,P|175:328|130:324,1,90,0|0,0:0|0:0,0:0:0:0:
204,136,74158,1,2,0:0:0:0:
84,256,74339,1,8,0:0:0:0:
48,120,74520,1,0,0:0:0:0:
236,244,74700,6,0,P|280:252|324:244,1,90,2|0,0:0|0:0,0:0:0:0:
456,128,75062,1,8,0:0:0:0:
456,128,75243,2,0,L|432:308,1,180,0|2,0:0|0:0,0:0:0:0:
236,244,75785,1,8,0:0:0:0:
348,376,75965,1,0,0:0:0:0:
444,232,76146,6,0,P|399:224|355:230,1,90,2|0,0:0|0:0,0:0:0:0:
160,344,76508,2,0,P|204:351|248:345,1,90,8|0,0:0|0:0,0:0:0:0:
444,232,76869,1,0,0:0:0:0:
348,376,77050,1,2,0:0:0:0:
236,244,77231,1,8,0:0:0:0:
236,244,77411,1,0,0:0:0:0:
372,64,77592,6,0,L|365:153,1,90,2|0,0:0|0:0,0:0:0:0:
243,333,77953,2,0,L|236:244,1,90,8|0,0:0|0:0,0:0:0:0:
402,306,78315,2,0,P|445:317|487:305,1,90,0|2,0:0|0:0,0:0:0:0:
276,167,78676,2,0,P|233:156|191:168,1,90,8|0,0:0|0:0,0:0:0:0:
64,292,79038,6,0,B|52:336|52:336|63:378,1,90,6|0,0:0|0:0,0:0:0:0:
236,244,79399,2,0,B|248:200|248:200|236:157,1,90,8|0,0:0|0:0,0:0:0:0:
112,176,79761,1,8,0:0:0:0:
320,300,79941,1,2,0:0:0:0:
320,300,80303,6,0,L|312:120,1,180,8|2,0:0|0:0,0:0:0:0:
452,56,80845,1,8,0:0:0:0:
448,220,81026,2,0,P|405:232|362:220,1,90,0|2,0:0|0:0,0:0:0:0:
212,112,81387,1,2,0:0:0:0:
212,112,81568,2,0,L|215:201,1,90,8|0,0:0|0:0,0:0:0:0:
366,358,81929,6,0,P|394:299|364:240,1,135.000005149842,2|0,0:0|0:0,0:0:0:0:
186,315,82472,1,2,0:0:0:0:
186,315,82652,2,0,L|321:300,1,135.000005149842,8|0,0:0|3:0,0:0:0:0:
379,164,83194,2,0,P|345:164|315:179,1,67.5000025749208,2|0,0:0|0:0,0:0:0:0:
423,292,83556,5,8,0:0:0:0:
423,292,83737,2,0,P|439:262|441:229,1,67.5000025749208,0|0,0:0|0:0,0:0:0:0:
264,296,84098,1,8,0:0:0:0:
264,296,84279,1,0,3:0:0:0:
423,292,84459,2,0,L|356:294,1,67.5000025749208,0|0,0:0|3:0,0:0:0:0:
180,275,84821,6,0,P|190:341|243:379,1,135.000005149842,2|0,0:0|0:0,0:0:0:0:
270,228,85363,1,0,0:0:0:0:
270,228,85544,2,0,L|264:296,1,67.5000025749208,8|0,0:0|0:0,0:0:0:0:
184,120,85905,1,0,3:0:0:0:
184,120,86086,2,0,L|190:187,1,67.5000025749208,2|0,0:0|0:0,0:0:0:0:
416,104,86447,5,8,0:0:0:0:
384,220,86628,1,2,0:0:0:0:
272,136,86809,1,2,0:0:0:0:
464,180,86990,2,0,P|471:212|468:246,1,67.5000025749208,8|0,0:0|0:0,0:0:0:0:
344,376,87351,1,8,0:0:0:0:
480,352,87532,1,0,0:0:0:0:
316,276,87712,6,0,P|271:267|227:273,1,90,6|0,0:0|0:0,0:0:0:0:
96,164,88074,2,0,P|87:119|93:75,1,90,8|0,0:0|0:0,0:0:0:0:
296,52,88435,1,0,0:0:0:0:
196,184,88616,1,2,0:0:0:0:
316,276,88797,2,0,P|329:233|319:189,1,90,8|0,0:0|0:0,0:0:0:0:
192,336,89158,5,2,0:0:0:0:
192,336,89339,1,0,0:0:0:0:
316,276,89520,2,0,P|360:268|404:276,1,90,8|0,0:0|0:0,0:0:0:0:
488,136,89881,2,0,P|443:144|399:136,1,90,0|2,0:0|0:0,0:0:0:0:
176,152,90243,2,0,P|244:203|321:165,1,180,12|8,0:0|0:0,0:0:0:0:
321,165,90785,5,2,0:0:0:0:
172,62,90965,2,0,L|176:152,1,90,8|0,0:0|0:0,0:0:0:0:
292,324,91327,2,0,P|299:280|283:238,1,90,8|2,0:0|0:0,0:0:0:0:
76,310,91688,1,2,0:0:0:0:
76,310,91869,6,0,P|138:252|214:290,1,180,8|2,0:0|0:0,0:0:0:0:
96,224,92411,2,0,L|17:180,1,90,8|0,0:0|0:0,0:0:0:0:
240,68,92773,1,2,0:0:0:0:
176,212,92953,1,2,0:0:0:0:
292,324,93134,2,0,P|304:281|296:237,1,90,8|0,0:0|0:0,0:0:0:0:
120,319,93496,6,0,P|75:324|30:319,1,90,6|0,0:0|0:0,0:0:0:0:
88,128,93857,2,0,P|132:123|177:128,1,90,8|0,0:0|0:0,0:0:0:0:
376,152,94219,1,0,0:0:0:0:
292,324,94399,1,2,0:0:0:0:
444,244,94580,1,8,0:0:0:0:
232,224,94761,2,0,P|187:232|143:225,1,90,2|0,0:0|0:0,0:0:0:0:
244,108,95122,1,2,0:0:0:0:
344,252,95303,2,0,P|352:296|345:340,1,90,8|0,0:0|0:0,0:0:0:0:
144,300,95664,5,2,0:0:0:0:
260,360,95845,1,0,0:0:0:0:
184,176,96026,1,8,0:0:0:0:
144,300,96206,1,0,0:0:0:0:
304,180,96387,6,0,P|312:135|306:91,1,90,2|0,0:0|0:0,0:0:0:0:
88,68,96749,2,0,P|79:112|85:156,1,90,8|2,0:0|0:0,0:0:0:0:
144,300,97110,1,8,0:0:0:0:
184,176,97290,1,2,0:0:0:0:
24,268,97472,1,0,0:0:0:0:
24,268,97652,2,0,L|204:256,1,180,2|2,0:0|0:0,0:0:0:0:
376,188,98194,1,8,0:0:0:0:
308,332,98375,1,2,0:0:0:0:
240,168,98556,5,0,0:0:0:0:
240,168,98737,1,2,0:0:0:0:
459,268,98917,2,0,P|415:275|370:273,1,90,8|0,0:0|0:0,0:0:0:0:
144,148,99279,5,6,0:0:0:0:
240,272,99459,1,0,0:0:0:0:
376,188,99640,1,8,0:0:0:0:
160,236,99821,1,6,0:0:0:0:
336,324,100002,1,0,0:0:0:0:
296,136,100182,1,8,0:0:0:0:
168,324,100363,1,6,0:0:0:0:
256,192,100544,12,0,103255,0:0:0:0:
215,86,103616,6,0,L|208:176,1,90,2|0,0:0|0:0,0:0:0:0:
424,120,103978,1,2,0:0:0:0:
300,252,104158,1,2,0:0:0:0:
300,252,104249,1,2,0:0:0:0:
300,252,104339,2,0,L|396:260,1,90,8|2,0:0|0:0,0:0:0:0:
208,176,104700,1,8,0:0:0:0:
320,352,104881,1,12,0:0:0:0:
