osu file format v12

[General]
AudioFilename: Duca _ diary.mp3
AudioLeadIn: 0
PreviewTime: 198224
Countdown: 0
SampleSet: Soft
StackLeniency: 0.7
Mode: 0
LetterboxInBreaks: 0
WidescreenStoryboard: 0

[Editor]
Bookmarks: 54995
DistanceSpacing: 1
BeatDivisor: 6
GridSize: 4

[Metadata]
Title:Colorful Diary
TitleUnicode:
Artist:Duca
ArtistUnicode:
Creator:Yusura Sakurae
Version:Insane
Source:your diary
Tags:yua cube remi eroge kantoku ed hentai vn
BeatmapID:187216
BeatmapSetID:58836

[Difficulty]
HPDrainRate:7
CircleSize:4
OverallDifficulty:7
ApproachRate:8
SliderMultiplier:3.59999990463257
SliderTickRate:1

[Events]
//Background and Video events
0,0,"BG.jpg",0,0
//Break Periods
2,116724,124245
2,229665,237186
2,243782,248480
2,308724,313774
//Storyboard Layer 0 (Background)
//Storyboard Layer 1 (Fail)
//Storyboard Layer 2 (Pass)
//Storyboard Layer 3 (Foreground)
//Storyboard Sound Samples
//Background Colour Transformations
3,100,163,162,255

[TimingPoints]
12054,705.882352941176,4,2,1,40,1,0
12171,-100,4,2,1,50,0,0
17583,-100,4,2,1,30,0,0
17818,-100,4,2,1,50,0,0
34524,-100,4,2,1,30,0,0
34750,-100,4,2,1,50,0,0
40171,-100,4,2,1,30,0,0
40406,-100,4,2,1,60,0,0
57171,-133.333333333333,4,2,1,50,0,0
57348,-133.333333333333,4,2,1,60,0,0
68408,-100,4,2,1,50,0,0
68759,-100,4,2,1,65,0,0
69053,-100,4,2,1,35,0,0
69171,-100,4,2,1,60,0,0
69524,-100,4,2,1,35,0,0
69642,-100,4,2,1,60,0,0
71289,-100,4,2,1,50,0,0
71406,-100,4,2,1,60,0,0
71877,-100,4,2,1,35,0,0
71995,-100,4,2,1,60,0,0
72348,-100,4,2,1,40,0,0
72465,-100,4,2,1,60,0,0
73702,-100,4,2,1,70,0,0
73877,-100,4,2,1,60,0,0
74230,-100,4,2,1,70,0,0
74701,-100,4,2,1,50,0,0
74818,-100,4,2,1,70,0,0
75154,-100,4,2,1,50,0,0
75289,-100,4,2,1,70,0,0
83995,-100,4,2,1,40,0,0
84818,-100,4,2,1,75,0,0
85465,-100,4,2,1,85,0,1
110877,-100,4,2,1,70,0,0
124894,-100,4,2,1,40,0,0
125112,-100,4,2,1,60,0,0
147465,-100,4,2,1,40,0,0
147701,-100,4,2,1,60,0,0
167230,-100,4,2,1,40,0,0
168760,-133.333333333333,4,2,1,50,0,0
170112,-133.333333333333,4,2,1,40,0,0
170230,-133.333333333333,4,2,1,60,0,0
180055,-100,4,2,1,70,0,0
181406,-100,4,2,1,50,0,0
181531,-100,4,2,1,70,0,0
181995,-100,4,2,1,50,0,0
182112,-100,4,2,1,70,0,0
182465,-100,4,2,1,50,0,0
182583,-100,4,2,1,70,0,0
184230,-100,4,2,1,50,0,0
184348,-100,4,2,1,70,0,0
184818,-100,4,2,1,50,0,0
184936,-100,4,2,1,70,0,0
185289,-100,4,2,1,50,0,0
185406,-100,4,2,1,70,0,0
187053,-100,4,2,1,60,0,0
187171,-100,4,2,1,80,0,0
187642,-100,4,2,1,60,0,0
187759,-100,4,2,1,80,0,0
188112,-100,4,2,1,60,0,0
188230,-100,4,2,1,80,0,0
190760,-100,4,2,1,85,0,0
192701,-100,4,2,1,60,0,0
194289,-100,4,2,1,70,0,0
194995,-100,4,2,1,80,0,0
195524,-100,4,2,1,90,0,0
197289,-100,4,2,1,70,0,0
198406,-100,4,2,1,100,0,1
220172,-133.333333333333,4,2,1,100,0,1
223818,-100,4,2,1,100,0,0
249113,-133.333333333333,4,2,1,60,0,0
259466,-100,4,2,1,70,0,0
260465,-100,4,2,1,50,0,0
260583,-100,4,2,1,70,0,0
261053,-100,4,2,1,50,0,0
261171,-100,4,2,1,70,0,0
261546,-100,4,2,1,50,0,0
261642,-100,4,2,1,70,0,0
263289,-100,4,2,1,50,0,0
263406,-100,4,2,1,70,0,0
263877,-100,4,2,1,50,0,0
263995,-100,4,2,1,70,0,0
264348,-100,4,2,1,60,0,0
264465,-100,4,2,1,80,0,0
266112,-100,4,2,1,60,0,0
266232,-100,4,2,1,80,0,0
266693,-100,4,2,1,60,0,0
266818,-100,4,2,1,80,0,0
267171,-100,4,2,1,60,0,0
267289,-100,4,2,1,80,0,0
268878,-100,4,2,1,90,0,0
272465,-100,4,2,1,60,0,0
272818,-100,4,2,1,70,0,0
273171,-100,4,2,1,80,0,0
273524,-100,4,2,1,90,0,0
274230,-100,4,2,1,100,0,0
275877,-100,4,2,1,70,0,0
277349,-90.9090909090909,4,2,1,90,0,1
298978,-100,4,2,1,90,0,1
301348,-133.333333333333,4,2,1,60,0,0
315524,-133.333333333333,4,2,1,40,0,0
320889,-133.333333333333,4,2,1,30,0,0

[Colours]
Combo1 : 255,232,66
Combo2 : 142,138,98
Combo3 : 255,167,70
Combo4 : 255,119,238

[HitObjects]
488,184,12054,5,4,0:0:0:0:
488,184,12759,6,0,B|408:192|384:96,1,120,0|2,0:0|0:0,0:0:0:0:
376,80,13112,2,0,B|344:176|224:144,1,180,0|0,0:0|0:0,0:0:0:0:
112,40,13818,1,2,0:0:0:0:
112,40,14054,1,0,0:0:0:0:
112,40,14171,2,0,B|69:48|32:99|50:159|86:181,1,179.999995231629,0|2,0:0|0:0,0:0:0:0:
352,208,14877,6,0,B|408:160|368:88,1,120,0|2,0:0|0:0,0:0:0:0:
288,136,15230,2,0,B|251:111|189:121|160:176|169:217,1,179.999995231629,0|2,0:0|0:0,0:0:0:0:
96,240,15936,2,0,B|112:320|200:304,1,119.999996821086,0|2,0:0|0:0,0:0:0:0:
180,306,16289,1,0,0:0:0:0:
248,144,16524,5,2,0:0:0:0:
248,144,16642,2,0,B|232:64|144:80,1,119.999996821086,0|0,0:0|0:0,0:0:0:0:
163,77,16995,1,2,0:0:0:0:
384,88,17348,2,0,B|368:200|488:208,1,179.999995231629,0|4,0:0|0:0,0:0:0:0:
376,312,18054,1,2,0:0:0:0:
232,336,18406,6,0,B|240:272|296:240,1,120,0|0,0:0|0:0,0:0:0:0:
272,200,18759,2,0,B|224:152|144:192,1,120,2|0,0:0|0:0,0:0:0:0:
112,176,19112,2,0,B|128:104|191:25|296:40|350:84,1,299.999992052714
345,81,19818,1,8,0:0:0:0:
440,184,20171,2,0,B|488:240|440:312,1,119.999996821086,2|0,0:0|0:0,0:0:0:0:
385,239,20524,2,0,B|345:183|385:119,1,120,0|0,0:0|0:0,0:0:0:0:
380,127,20877,1,2,0:0:0:0:
240,104,21230,6,0,B|235:50|141:15|92:67,1,180,0|2,0:0|0:0,0:0:0:0:
24,192,21936,2,0,B|24:240|80:288|136:272|184:224,1,180,0|2,0:0|0:0,0:0:0:0:
288,104,22524,1,0,0:0:0:0:
288,104,22642,2,0,P|360:104|400:144,1,119.999996821086,10|0,0:0|0:0,0:0:0:0:
296,288,23348,5,0,0:0:0:0:
432,240,23701,2,0,B|368:264|320:208,1,120
296,176,24053,2,2,B|368:168|360:88,1,120
320,64,24406,2,0,B|256:88|200:48,1,120,0|0,0:0|0:0,0:0:0:0:
168,32,24759,2,0,B|127:25|72:72|79:147|120:176,1,180,0|2,0:0|0:0,0:0:0:0:
160,248,25348,1,0,0:0:0:0:
160,248,25465,1,8,0:0:0:0:
256,272,25701,2,0,B|314:282|373:261|378:176|332:132,1,180,0|2,0:0|0:0,0:0:0:0:
354,167,26171,1,0,0:0:0:0:
72,192,26524,6,0,B|40:256|104:304,1,120,0|2,0:0|0:0,0:0:0:0:
144,304,26877,2,2,B|208:264|264:328,1,120
304,328,27230,2,0,B|296:224|408:176,1,180,0|2,0:0|0:0,0:0:0:0:
369,77,27936,1,2,0:0:0:0:
272,136,28171,1,0,0:0:0:0:
272,136,28289,2,0,B|208:120|144:176|160:256,1,179.999995231629,8|2,0:0|0:0,0:0:0:0:
72,144,28995,6,0,B|8:200|112:232|64:280|48:336,2,179.999995231629,2|0|2,0:0|0:0|0:0,0:0:0:0:
200,72,30053,1,0,0:0:0:0:
332,128,30406,2,0,B|353:114|399:122|414:166|405:189,1,119.999996821086,2|2,0:0|0:0,0:0:0:0:
396,236,30759,2,0,B|388:308|308:340|236:292,1,180,0|8,0:0|0:0,0:0:0:0:
72,264,31465,1,2,0:0:0:0:
192,184,31818,5,0,0:0:0:0:
72,96,32171,1,2,0:0:0:0:
160,56,32406,1,0,0:0:0:0:
160,56,32524,1,0,0:0:0:0:
240,104,32759,1,0,0:0:0:0:
240,104,32877,1,2,0:0:0:0:
376,144,33230,6,0,B|408:176|384:240|336:248,1,119.999996821086,2|0,0:0|0:0,0:0:0:0:
349,243,33583,1,0,0:0:0:0:
176,240,33818,1,2,0:0:0:0:
176,240,33936,2,0,P|120:208|64:232,1,119.999996821086,8|0,0:0|0:0,0:0:0:0:
116,296,34289,1,2,0:0:0:0:
272,240,34642,6,0,B|288:200|352:168|416:200|440:240,1,179.999995231629,4|2,0:0|0:0,0:0:0:0:
216,56,35348,2,0,B|224:128|112:144,1,120,0|0,0:0|0:0,0:0:0:0:
144,138,35701,1,2,0:0:0:0:
360,88,36053,2,0,B|391:58|453:56|492:105|490:148,1,179.999995231629
400,168,36642,1,0,0:0:0:0:
400,168,36759,2,0,B|392:224|344:240|288:240|256:160,1,180,8|2,0:0|0:0,0:0:0:0:
32,56,37465,2,0,B|12:128|88:176|88:176|112:136|176:112|232:152,1,299.999992052714,0|2,0:0|0:0,0:0:0:0:
225,147,38171,5,0,0:0:0:0:
384,184,38524,1,2,0:0:0:0:
352,320,38877,2,0,B|340:276|289:239|224:256|200:312,1,180,0|2,0:0|0:0,0:0:0:0:
120,328,39465,1,0,0:0:0:0:
120,328,39583,2,0,B|22:301|48:179,1,180,8|0,0:0|0:0,0:0:0:0:
288,40,40289,5,4,0:0:0:0:
224,168,40642,1,2,0:0:0:0:
144,120,40877,1,0,0:0:0:0:
144,120,40995,2,0,B|192:56|272:96,1,120,0|2,0:0|0:0,0:0:0:0:
328,128,41348,2,0,B|296:192|376:240,1,120
408,152,41701,2,0,B|312:232|216:224,1,180,2|0,0:0|0:0,0:0:0:0:
88,312,42289,1,0,0:0:0:0:
88,312,42406,2,0,B|121:244|194:270,1,120,10|0,0:0|0:0,0:0:0:0:
240,339,42759,2,0,B|296:360|349:324|352:256|304:208,1,180,0|2,0:0|0:0,0:0:0:0:
192,48,43465,5,0,0:0:0:0:
104,152,43818,1,2,0:0:0:0:
208,248,44171,2,0,B|296:296|392:248,1,180,0|2,0:0|0:0,0:0:0:0:
296,136,44877,1,0,0:0:0:0:
424,72,45230,2,0,B|432:128|512:136|512:136|424:216,1,180,10|0,0:0|0:0,0:0:0:0:
360,272,45936,1,2,0:0:0:0:
88,168,46642,5,0,0:0:0:0:
175,53,46995,2,0,B|231:13|295:53,1,120,2|0,0:0|0:0,0:0:0:0:
304,96,47348,2,0,B|267:119|250:179|289:229|331:237,1,179.999995231629
331,237,48054,2,0,B|284:297|205:250,1,119.999996821086,10|0,0:0|0:0,0:0:0:0:
272,184,48406,2,0,B|280:104|367:99,1,120,0|0,0:0|0:0,0:0:0:0:
374,16,48759,2,0,B|422:8|470:48|478:120|422:168,1,180,2|2,0:0|0:0,0:0:0:0:
272,328,49465,1,0,0:0:0:0:
272,328,49818,1,2,0:0:0:0:
152,88,50524,5,0,0:0:0:0:
272,56,50877,1,10,0:0:0:0:
376,128,51230,1,0,0:0:0:0:
376,256,51583,1,2,0:0:0:0:
240,312,51818,1,0,0:0:0:0:
240,312,51936,2,0,B|160:296|176:216,1,120
174,228,52289,1,2,0:0:0:0:
72,160,52642,5,0,0:0:0:0:
178,102,52995,2,0,B|258:78|306:150,1,120,2|0,0:0|0:0,0:0:0:0:
408,136,53348,2,0,B|348:198|277:137,1,120,0|0,0:0|0:0,0:0:0:0:
312,24,53701,2,0,B|360:80|312:136,1,120,10|0,0:0|0:0,0:0:0:0:
264,264,54054,2,0,B|232:208|272:152,1,120,0|0,0:0|0:0,0:0:0:0:
448,240,54406,6,0,B|461:293|439:332|405:360|350:356,1,180
160,168,55112,2,0,B|105:164|71:192|49:231|62:284,1,180,2|0,0:0|0:0,0:0:0:0:
224,328,55818,1,0,0:0:0:0:
304,272,56054,1,0,0:0:0:0:
304,272,56171,2,0,B|368:312|416:248,1,120,2|0,0:0|0:0,0:0:0:0:
344,192,56524,2,0,B|320:128|248:144,1,120,8|0,0:0|0:0,0:0:0:0:
168,176,56877,2,0,B|112:120|160:56,1,120,2|0,0:0|0:0,0:0:0:0:
232,40,57230,6,0,B|292:39|312:96,1,90.0000034332277,4|2,0:0|0:0,0:0:0:0:
236,120,57583,2,0,B|188:176|228:248,1,135.000005149842,2|0,0:0|0:0,0:0:0:0:
416,312,58289,2,0,B|368:352|304:304,1,90.0000010490418,0|2,0:0|0:0,0:0:0:0:
368,256,58642,2,0,B|360:176|280:171,1,135.000005149842,2|0,0:0|0:0,0:0:0:0:
144,224,59348,1,8,0:0:0:0:
240,272,59701,1,2,0:0:0:0:
352,104,60054,6,0,B|312:152|256:120,1,90.0000010490418
208,144,60406,2,0,B|224:200|288:192,1,90.0000010490418,2|0,0:0|0:0,0:0:0:0:
336,216,60759,2,0,B|312:264|240:256,1,90.0000010490418,2|0,0:0|0:0,0:0:0:0:
208,296,61112,2,0,B|256:360|363:346|424:288|400:192,1,270.000010299683,2|0,0:0|0:0,0:0:0:0:
232,128,62171,1,10,0:0:0:0:
120,296,62524,1,0,0:0:0:0:
296,192,62877,6,0,B|240:200|256:288,1,90.0000010490418,0|2,0:0|0:0,0:0:0:0:
216,320,63230,2,0,B|272:352|320:288,1,90.0000010490418
344,256,63583,1,2,0:0:0:0:
152,192,63936,2,0,B|200:168|192:96,1,90.0000010490418,0|2,0:0|0:0,0:0:0:0:
236,64,64289,2,0,B|192:28|128:76,1,90.0000010490418
104,120,64642,1,2,0:0:0:0:
72,312,64995,1,8,0:0:0:0:
272,272,65348,2,0,B|336:296|400:280|448:216|432:152,1,225.000002622605,2|0,0:0|0:0,0:0:0:0:
434,172,66053,1,2,0:0:0:0:
384,80,66406,1,0,0:0:0:0:
280,88,66759,2,0,B|227:38|112:72|112:160,1,225.000002622605
112,158,67465,5,2,0:0:0:0:
152,248,67818,1,8,0:0:0:0:
224,168,68171,1,2,0:0:0:0:
320,64,68524,2,0,B|376:32|464:80|456:168,1,179.999995231629,4|0,0:0|0:0,0:0:0:0:
360,152,69112,1,4,0:0:0:0:
256,248,69465,1,0,0:0:0:0:
256,248,69583,2,0,B|264:290|232:344|170:351|135:326,1,179.999995231629,4|0,0:0|0:0,0:0:0:0:
32,304,70289,2,0,B|23:261|55:207|117:200|152:225,1,179.999995231629,0|2,0:0|0:0,0:0:0:0:
272,256,70995,6,0,B|352:288|384:200,1,120,2|0,0:0|0:0,0:0:0:0:
352,136,71348,2,0,B|424:120|488:192|448:272,1,180,4|0,0:0|0:0,0:0:0:0:
296,320,71936,1,4,0:0:0:0:
152,304,72289,1,0,0:0:0:0:
152,304,72406,2,0,B|216:248|216:248|128:176|224:64|296:112,1,300,6|0,0:0|0:0,0:0:0:0:
355,123,73112,2,0,B|385:153|389:216|342:257|299:255,1,179.999995231629,2|0,0:0|0:0,0:0:0:0:
280,336,73818,6,0,B|320:344|384:312|376:232|344:200,1,180,0|6,0:0|0:0,0:0:0:0:
232,160,74524,1,0,0:0:0:0:
232,160,74759,2,0,B|184:104|96:112|64:200,1,180,4|0,0:0|0:0,0:0:0:0:
80,168,75230,2,0,B|80:204|48:220|48:220|16:280|32:336,1,179.999995231629,4|0,0:0|0:0,0:0:0:0:
208,288,75936,2,0,B|320:328|368:232,2,180,0|8|0,0:0|0:0|0:0,0:0:0:0:
64,152,76995,6,0,B|59:123|105:78|161:86|198:130|198:130|236:173|271:167|322:165|336:86,1,360,0|2,0:0|0:0,0:0:0:0:
336,89,78053,1,0,0:0:0:0:
440,188,78406,2,0,B|440:248|348:284|300:220,1,179.999995231629,2|0,0:0|0:0,0:0:0:0:
292,80,79112,2,0,B|280:24|184:4|144:64,1,179.999995231629,8|0,0:0|0:0,0:0:0:0:
164,240,79818,6,0,P|212:332|256:184,1,359.999990463257,2|8,0:0|0:0,0:0:0:0:
424,72,80877,2,0,B|356:68|324:136,1,119.999996821086
304,172,81230,2,0,B|260:212|180:212|136:164,1,179.999995231629,2|0,0:0|0:0,0:0:0:0:
112,312,81936,2,0,B|135:347|196:363|245:324|252:282,1,179.999995231629,8|0,0:0|0:0,0:0:0:0:
374,207,82642,1,4,0:0:0:0:
384,56,82995,5,2,0:0:0:0:
208,96,83230,1,0,0:0:0:0:
208,96,83348,1,2,0:0:0:0:
304,248,83583,1,0,0:0:0:0:
304,248,83701,1,0,0:0:0:0:
96,128,83936,1,0,0:0:0:0:
96,128,84053,1,6,0:0:0:0:
360,176,84406,1,4,0:0:0:0:
360,176,84759,6,0,B|396:232|352:288,1,119.999996821086,10|0,0:0|0:0,0:0:0:0:
280,336,85112,2,0,B|252:268|300:224,1,119.999996821086,0|2,0:0|0:0,0:0:0:0:
320,144,85465,6,0,B|272:88|184:120,1,120,4|0,0:0|0:0,0:0:0:0:
211,112,85818,1,2,0:0:0:0:
120,208,86053,1,2,0:0:0:0:
120,208,86171,2,0,B|176:280|248:224,1,120,8|0,0:0|0:0,0:0:0:0:
296,184,86524,2,0,B|376:160|416:232,1,120
472,272,86877,2,0,B|424:336|344:288,1,120,2|0,0:0|0:0,0:0:0:0:
312,224,87230,6,0,B|304:152|400:104,1,120,0|0,0:0|0:0,0:0:0:0:
448,96,87583,2,0,B|400:24|320:56,1,120,8|2,0:0|0:0,0:0:0:0:
360,136,87936,2,0,B|328:200|240:176,1,120,0|0,0:0|0:0,0:0:0:0:
259,181,88289,1,0,0:0:0:0:
136,105,88642,5,2,0:0:0:0:
114,198,88877,1,2,0:0:0:0:
114,198,88995,2,0,B|182:174|230:242,1,119.999996821086,8|2,0:0|0:0,0:0:0:0:
199,273,89348,2,0,B|193:303|217:343|281:343,1,120,0|0,0:0|0:0,0:0:0:0:
325,340,89701,2,0,B|394:325|385:240,1,119.999996821086,0|2,0:0|0:0,0:0:0:0:
372,204,90053,2,0,B|300:212|276:140,1,120,0|0,0:0|0:0,0:0:0:0:
278,146,90406,1,10,0:0:0:0:
152,56,90759,5,0,0:0:0:0:
96,168,90995,1,0,0:0:0:0:
96,168,91112,2,0,B|144:120|248:144|274:203,1,180,2|0,0:0|0:0,0:0:0:0:
376,320,91818,2,0,B|256:344|208:248,1,180,10|0,0:0|0:0,0:0:0:0:
184,88,92524,2,0,B|280:48|352:128,1,179.999995231629,2|0,0:0|0:0,0:0:0:0:
408,232,93112,1,0,0:0:0:0:
408,232,93230,6,0,B|488:208|480:128,1,120,10|0,0:0|0:0,0:0:0:0:
384,128,93583,2,0,B|312:128|288:192,1,120,0|0,0:0|0:0,0:0:0:0:
290,188,93936,1,0,0:0:0:0:
192,344,94289,1,2,0:0:0:0:
48,232,94642,1,8,0:0:0:0:
200,136,94995,1,2,0:0:0:0:
368,200,95348,6,0,B|432:144|528:216,1,120,0|0,0:0|0:0,0:0:0:0:
432,272,95701,2,0,B|360:328|288:272,1,120,2|0,0:0|0:0,0:0:0:0:
312,172,96053,1,10,0:0:0:0:
189,98,96289,2,0,B|149:146|149:146|221:146|221:226,1,179.999995231629,2|0,0:0|0:0,0:0:0:0:
221,220,96759,6,0,B|160:264|93:220,1,120,6|0,0:0|0:0,0:0:0:0:
16,232,97112,2,0,B|16:160|88:144,1,119.999996821086,0|0,0:0|0:0,0:0:0:0:
180,72,97465,2,2,B|236:120|184:196,1,119.999996821086,10|2,0:0|0:0,0:0:0:0:
216,300,97818,2,0,B|148:328|116:264,1,119.999996821086,0|0,0:0|0:0,0:0:0:0:
128,200,98171,1,2,0:0:0:0:
392,152,98524,6,0,B|392:112|352:72|288:72,1,120,2|0,0:0|0:0,0:0:0:0:
328,164,98877,2,0,B|344:232|272:260,1,119.999996821086,8|0,0:0|0:0,0:0:0:0:
268,168,99230,2,0,B|164:232,1,120,2|0,0:0|0:0,0:0:0:0:
80,244,99583,6,0,B|176:203|240:283,2,180,0|0|10,0:0|0:0|0:0,0:0:0:0:
440,248,100524,5,0,0:0:0:0:
440,248,100642,2,0,B|360:224|376:128,1,120,0|0,0:0|0:0,0:0:0:0:
368,80,100995,2,0,B|416:16|488:72,1,120,2|0,0:0|0:0,0:0:0:0:
424,136,101348,2,0,B|388:191|316:159,1,120,0|0,0:0|0:0,0:0:0:0:
318,161,101701,1,10,0:0:0:0:
318,161,102053,6,0,B|304:232|388:272,1,120,2|0,0:0|0:0,0:0:0:0:
448,216,102406,2,0,B|480:288|392:344,1,120,2|0,0:0|0:0,0:0:0:0:
328,336,102759,2,0,B|304:280|232:272,1,120,0|0,0:0|0:0,0:0:0:0:
308,220,103112,2,0,B|296:144|380:120,1,119.999996821086,10|0,0:0|0:0,0:0:0:0:
416,232,103465,1,0,0:0:0:0:
312,120,103701,1,0,0:0:0:0:
312,120,103818,6,0,B|264:64|184:104,1,120,0|0,0:0|0:0,0:0:0:0:
120,136,104171,2,0,B|168:184|112:264,1,120,2|0,0:0|0:0,0:0:0:0:
48,296,104524,2,0,B|8:232|56:168,1,120,8|0,0:0|0:0,0:0:0:0:
64,112,104877,1,2,0:0:0:0:
232,56,105112,1,0,0:0:0:0:
232,56,105230,6,0,B|312:88|272:184,1,120,2|0,0:0|0:0,0:0:0:0:
352,208,105583,2,0,B|328:128|400:104,1,120,0|0,0:0|0:0,0:0:0:0:
390,107,105936,1,8,0:0:0:0:
96,312,106289,1,0,0:0:0:0:
368,280,106642,2,0,B|384:232|336:184|272:200|272:232|208:280|144:264|128:152|160:136,1,300,2|0,0:0|0:0,0:0:0:0:
104,176,107348,6,0,B|112:88|200:32|304:64|344:168,1,300,2|0,0:0|0:0,0:0:0:0:
326,133,108053,1,2,0:0:0:0:
416,176,108289,1,0,0:0:0:0:
416,176,108406,2,0,B|392:248|304:216,1,120,2|0,0:0|0:0,0:0:0:0:
296,136,108759,1,8,0:0:0:0:
296,136,109112,5,0,0:0:0:0:
296,136,109465,2,0,B|264:88|216:72|152:120|120:200|40:136|8:104,1,300,2|0,0:0|0:0,0:0:0:0:
24,118,110171,1,8,0:0:0:0:
271,265,110877,5,0,0:0:0:0:
183,226,111230,2,0,B|119:226|87:162|151:82|231:82|279:162|247:306|407:178|391:146,1,360,2|0,0:0|0:0,0:0:0:0:
378,42,112289,1,0,0:0:0:0:
288,72,112524,1,2,0:0:0:0:
288,72,112642,2,0,B|208:104|256:208,1,120
242,169,112995,1,8,0:0:0:0:
360,192,113230,1,2,3:0:0:0:
360,192,113348,2,0,B|401:180|457:209|467:270|444:307,1,179.999995231629,0|0,0:0|0:0,3:0:0:0:
256,192,114053,12,2,116524,0:0:0:0:
208,128,124995,5,6,0:0:0:0:
144,256,125348,2,0,B|208:296|272:256,1,120,0|0,0:0|0:0,0:0:0:0:
258,263,125701,1,2,0:0:0:0:
408,168,125936,1,0,0:0:0:0:
408,168,126053,1,2,0:0:0:0:
144,112,126406,2,0,B|192:187|192:187|320:139|368:251,1,300
336,288,127112,1,10,0:0:0:0:
256,56,127465,1,0,0:0:0:0:
208,192,127818,6,0,B|216:96|304:72,1,120,2|0,0:0|0:0,0:0:0:0:
352,96,128171,2,0,B|352:160|272:232,1,120,2|0,0:0|0:0,0:0:0:0:
302,202,128524,1,0,0:0:0:0:
240,128,128759,1,2,0:0:0:0:
240,128,128877,1,0,0:0:0:0:
144,232,129230,2,0,B|136:320|200:392|320:360|352:264,1,299.999992052714,0|2,0:0|0:0,0:0:0:0:
240,192,130171,1,0,0:0:0:0:
240,192,130289,2,0,B|288:248|352:200,1,119.999996821086
408,136,130642,1,2,0:0:0:0:
376,317,131348,6,0,B|308:348|256:284,1,119.999996821086,2|0,0:0|0:0,0:0:0:0:
267,297,131701,1,0,0:0:0:0:
124,288,132054,2,0,B|104:249|121:189|179:166|219:181,1,179.999995231629
292,116,132642,2,0,B|328:93|390:103|419:158|408:200,1,179.999995231629,0|2,0:0|0:0,0:0:0:0:
407,200,133112,1,0,0:0:0:0:
288,304,133465,2,0,B|356:312|392:252,1,119.999996821086,2|0,0:0|0:0,0:0:0:0:
420,172,133818,2,0,B|364:216|304:184,1,119.999996821086,2|0,0:0|0:0,0:0:0:0:
256,112,134171,6,0,B|201:154|232:240,1,120,0|2,0:0|0:0,0:0:0:0:
226,220,134524,1,0,0:0:0:0:
344,304,134877,1,2,0:0:0:0:
424,184,135230,2,0,B|384:120|432:56,1,120,2|0,0:0|0:0,0:0:0:0:
392,40,135583,2,0,B|326:28|280:96,1,119.999996821086,8|0,0:0|0:0,0:0:0:0:
88,172,136289,6,0,B|100:100|164:92,1,119.999996821086,2|0,0:0|0:0,0:0:0:0:
176,180,136642,2,0,B|196:252|112:284,1,119.999996821086,2|0,0:0|0:0,0:0:0:0:
72,212,136995,2,0,B|112:148|192:188,1,120,2|0,0:0|0:0,0:0:0:0:
244,264,137348,2,0,B|180:304|124:272,1,120,2|0,0:0|0:0,0:0:0:0:
72,212,137701,2,0,B|40:148|40:148|104:172|176:188|224:156|264:116,1,300
332,172,138406,2,2,B|316:244|404:268,1,120,10|2,0:0|0:0,0:0:0:0:
416,176,138759,2,0,B|436:108|376:64,1,119.999996821086,2|0,0:0|0:0,0:0:0:0:
382,68,139112,1,2,0:0:0:0:
168,224,139465,5,0,0:0:0:0:
88,344,139818,2,0,B|16:312|56:224,1,120
48,245,140171,1,2,0:0:0:0:
205,156,140406,1,0,0:0:0:0:
205,156,140524,2,0,B|285:236|389:148,1,180,2|0,0:0|0:0,0:0:0:0:
488,243,141230,2,2,B|508:288|485:351|404:346|384:299,1,180
117,327,141936,6,0,B|197:295|197:295|101:239|89:136|189:63,1,359.999990463257
316,54,142995,1,0,0:0:0:0:
401,96,143230,1,0,0:0:0:0:
401,96,143348,1,2,0:0:0:0:
468,223,143701,2,0,B|460:303|364:279,1,120,2|0,0:0|0:0,0:0:0:0:
289,210,144053,2,0,B|321:162|401:178|417:242,1,120,8|0,0:0|0:0,0:0:0:0:
313,292,144406,2,0,B|233:324|201:228,1,120,2|0,0:0|0:0,0:0:0:0:
213,256,144759,5,0,0:0:0:0:
72,241,145112,2,0,B|57:152|158:128,1,120
120,141,145465,1,2,0:0:0:0:
264,104,145818,1,0,0:0:0:0:
376,192,146171,2,0,B|320:240|240:200,1,120
224,184,146524,2,0,B|144:160|120:240,1,120,2|0,0:0|0:0,0:0:0:0:
120,272,146877,2,0,B|40:248|64:168,1,120,10|0,0:0|0:0,0:0:0:0:
88,144,147230,2,0,B|192:168|248:80,1,180,2|4,0:0|0:0,0:0:0:0:
464,248,148289,6,0,B|406:285|352:240,1,119.999996821086,2|0,0:0|0:0,0:0:0:0:
353,241,148642,1,0,0:0:0:0:
400,128,148995,2,0,B|288:64|224:192|80:128,1,300
32,184,149701,2,0,B|80:256|184:176,1,120,10|0,0:0|0:0,0:0:0:0:
138,206,150053,1,0,0:0:0:0:
192,304,150406,6,0,B|272:336|304:256|320:224|320:224|448:176,1,300
440,128,151112,2,0,B|360:80|296:144|288:150|288:150|152:96,1,300,2|0,0:0|0:0,0:0:0:0:
163,100,151818,1,2,0:0:0:0:
152,280,152053,1,0,0:0:0:0:
152,280,152171,2,0,B|80:288|64:200,1,120,2|0,0:0|0:0,0:0:0:0:
24,184,152524,2,0,B|88:136|32:56,1,120,8|0,0:0|0:0,0:0:0:0:
96,80,152877,2,2,B|136:16|248:64,1,120,0|2,0:0|0:0,0:0:0:0:
202,49,153230,1,0,0:0:0:0:
72,248,153818,1,2,0:0:0:0:
72,248,153936,6,0,B|128:184|208:240,1,120
232,296,154289,2,0,B|272:360|376:304,1,120
416,272,154642,2,0,B|457:223|425:163|410:119|365:111|301:87|259:135,1,300
200,208,155348,2,0,B|160:248|176:320|240:336|304:320,1,180,8|0,0:0|0:0,0:0:0:0:
248,208,156406,6,0,B|272:144|352:144,1,120,2|0,0:0|0:0,0:0:0:0:
432,168,156759,2,0,B|384:256|296:208,1,120,2|0,0:0|0:0,0:0:0:0:
344,312,157112,2,0,B|280:264|216:264|168:328|120:392|56:328|-8:296,1,360
120,208,158171,1,10,0:0:0:0:
248,144,158524,1,0,0:0:0:0:
392,176,158877,5,2,0:0:0:0:
312,232,159112,1,2,0:0:0:0:
312,232,159230,1,0,0:0:0:0:
264,320,159465,1,0,0:0:0:0:
264,320,159583,2,0,B|287:355|347:371|397:332|403:289,1,179.999995231629
392,168,160289,6,0,B|344:136|272:176|296:256|296:256|184:184,1,300
189,187,160995,1,0,0:0:0:0:
152,328,161348,1,0,0:0:0:0:
120,200,161701,2,0,B|40:136|120:72|184:56|216:104|216:184|296:200|328:136,1,360,0|2,0:0|0:0,0:0:0:0:
328,136,162759,1,2,0:0:0:0:
328,280,163112,1,0,0:0:0:0:
184,256,163465,2,0,B|144:240|127:164|182:107|246:131,1,180,0|10,0:0|0:0,0:0:0:0:
368,192,164171,1,0,0:0:0:0:
280,304,164524,6,0,B|248:352|184:348|144:304|156:260,1,179.999995231629,2|0,0:0|0:0,0:0:0:0:
128,84,165112,1,0,0:0:0:0:
128,84,165230,2,0,B|56:116|88:228,1,120,2|0,0:0|0:0,0:0:0:0:
79,179,165583,1,2,0:0:0:0:
176,160,165818,1,0,0:0:0:0:
176,160,165936,2,0,B|136:240|240:272,1,120,2|0,0:0|0:0,0:0:0:0:
208,259,166289,1,2,0:0:0:0:
336,336,166642,1,8,0:0:0:0:
352,192,166995,1,2,0:0:0:0:
472,272,167348,5,4,0:0:0:0:
304,56,167701,1,6,0:0:0:0:
288,328,168406,1,4,0:0:0:0:
112,280,168759,1,0,0:0:0:0:
80,192,168995,1,0,0:0:0:0:
80,192,169112,1,2,0:0:0:0:
176,96,169348,1,0,0:0:0:0:
176,96,169465,1,8,0:0:0:0:
288,176,169701,1,0,0:0:0:0:
288,176,169818,1,2,0:0:0:0:
416,208,170053,1,0,0:0:0:0:
416,208,170171,6,0,B|370:267|291:222,1,135.000005149842,4|0,0:0|0:0,0:0:0:0:
192,184,170759,1,0,0:0:0:0:
192,184,170877,2,0,B|240:120|320:152,1,135.000005149842,2|0,0:0|0:0,0:0:0:0:
304,256,171583,2,0,B|248:312|208:272,1,90.0000034332277,2|0,0:0|0:0,0:0:0:0:
201,256,171936,2,0,B|201:202|137:184,1,90.0000034332277,0|0,0:0|0:0,0:0:0:0:
120,168,172289,2,0,B|32:125|96:40,1,135.000005149842,8|0,0:0|0:0,0:0:0:0:
84,59,172995,6,0,B|152:104|236:51,1,135.000001573563,2|0,0:0|0:0,0:0:0:0:
331,128,173583,1,0,0:0:0:0:
331,128,173701,2,0,B|235:176|171:112,1,135.000005149842,2|0,0:0|0:0,0:0:0:0:
72,288,174406,2,0,B|48:224|96:184,1,90.0000034332277,2|0,0:0|0:0,0:0:0:0:
136,160,174759,2,0,B|184:184|232:144,1,90.0000034332277
288,128,175112,2,0,B|336:104|400:168|360:224,1,135.000001573563,8|0,0:0|0:0,0:0:0:0:
176,288,175818,6,0,B|240:320|320:288,1,135.000005149842
400,192,176406,1,0,0:0:0:0:
400,192,176524,2,0,B|344:240|272:184,1,135.000005149842,2|0,0:0|0:0,0:0:0:0:
72,160,177230,1,2,0:0:0:0:
200,120,177583,2,0,B|232:176|312:152,1,90.0000034332277
344,160,177936,2,0,B|408:160|416:240,1,90.0000034332277,8|0,0:0|0:0,0:0:0:0:
400,280,178289,6,0,B|376:352|307:389|192:344|200:264,1,270.000010299683,0|2,0:0|0:0,0:0:0:0:
64,128,179348,2,0,B|120:64|208:128,1,135.000005149842
368,208,180053,1,0,0:0:0:0:
104,248,180406,2,0,B|152:296|232:264,1,120,2|0,0:0|0:0,0:0:0:0:
328,128,180759,2,0,B|264:96|200:160,1,120,10|0,0:0|0:0,0:0:0:0:
160,216,181112,2,0,B|312:216,1,120,2|0,0:0|0:0,0:0:0:0:
368,200,181465,6,0,B|304:224|256:152,1,120,6|0,0:0|0:0,0:0:0:0:
176,136,181818,2,0,B|224:72|296:104,1,120,2|4,0:0|0:0,0:0:0:0:
424,128,182406,1,0,0:0:0:0:
424,128,182524,2,0,B|432:40|320:32|288:112|304:192|392:240|432:248,1,300,4|0,0:0|0:0,0:0:0:0:
392,272,183230,1,0,0:0:0:0:
296,160,183583,1,8,0:0:0:0:
168,96,183936,2,0,B|64:104|104:216,1,120,2|0,0:0|0:0,0:0:0:0:
136,248,184289,6,0,B|192:304|272:232,1,120,6|0,0:0|0:0,0:0:0:0:
304,184,184642,2,0,B|248:144|184:184,1,120,0|4,0:0|0:0,0:0:0:0:
192,180,185230,1,0,0:0:0:0:
192,180,185348,2,0,B|160:268|160:268|184:332|256:340|320:308|336:276,1,299.999992052714,6|0,0:0|0:0,0:0:0:0:
331,282,186054,1,0,0:0:0:0:
272,152,186406,2,0,B|272:112|232:72|168:72|136:120,1,179.999995231629,8|0,0:0|0:0,0:0:0:0:
272,152,186995,5,0,0:0:0:0:
342,108,187112,2,0,B|384:69|443:77|485:127|470:193,1,179.999995231629,6|0,0:0|0:0,0:0:0:0:
312,272,187701,2,0,B|224:336|120:272,1,180,4|0,0:0|0:0,0:0:0:0:
142,285,188171,1,4,0:0:0:0:
72,160,188877,5,2,0:0:0:0:
176,64,189230,1,8,0:0:0:0:
312,104,189583,1,2,0:0:0:0:
368,240,189936,2,0,B|352:312|248:288,1,120,2|0,0:0|0:0,0:0:0:0:
274,292,190289,1,0,0:0:0:0:
192,176,190642,1,8,0:0:0:0:
272,56,190995,1,0,0:0:0:0:
392,136,191348,6,0,B|440:199|375:281,1,120,2|0,0:0|0:0,0:0:0:0:
368,336,191701,2,0,B|296:312|288:224,1,120,0|0,0:0|0:0,0:0:0:0:
264,168,192053,2,0,B|192:160|160:232,1,120,8|0,0:0|0:0,0:0:0:0:
128,304,192406,2,0,B|216:328|256:232,1,120,2|0,0:0|0:0,0:0:0:0:
288,200,192759,5,2,0:0:0:0:
224,72,193112,1,0,0:0:0:0:
88,120,193465,1,10,0:0:0:0:
80,256,193818,1,0,0:0:0:0:
208,320,194171,1,2,0:0:0:0:
232,232,194406,5,0,0:0:0:0:
232,232,194524,1,2,0:0:0:0:
344,264,194759,1,0,0:0:0:0:
344,264,194877,1,8,0:0:0:0:
440,192,195112,1,0,0:0:0:0:
440,192,195230,1,2,0:0:0:0:
320,56,195583,1,6,0:0:0:0:
216,312,195936,5,0,0:0:0:0:
128,280,196171,1,2,0:0:0:0:
128,280,196289,1,0,0:0:0:0:
96,168,196524,1,0,0:0:0:0:
96,168,196642,1,2,0:0:0:0:
176,80,196877,1,0,0:0:0:0:
176,80,196995,1,0,0:0:0:0:
272,96,197230,1,0,0:0:0:0:
272,96,197348,2,0,B|360:120|336:208,1,120,4|0,0:0|0:0,0:0:0:0:
296,259,197701,5,10,0:0:0:0:
151,152,197936,1,4,0:0:0:0:
151,152,198289,1,0,0:0:0:0:
152,152,198406,6,0,B|200:96|264:120,1,120,4|0,0:0|0:0,0:0:0:0:
259,118,198759,1,2,0:0:0:0:
224,296,198995,1,2,0:0:0:0:
224,296,199112,2,0,B|280:368|352:312,1,120,8|0,0:0|0:0,0:0:0:0:
408,280,199465,2,0,B|359:211|283:243,1,120
305,236,199818,1,0,0:0:0:0:
72,96,200171,6,0,B|88:32|168:24,1,120,0|0,0:0|0:0,0:0:0:0:
192,112,200524,2,0,B|173:177|101:173,1,120,8|2,0:0|0:0,0:0:0:0:
16,184,200877,2,0,B|4:254|98:273,1,120,0|0,0:0|0:0,0:0:0:0:
82,269,201230,1,0,0:0:0:0:
208,216,201583,5,2,0:0:0:0:
320,72,201818,1,2,0:0:0:0:
320,72,201936,2,0,B|400:56|432:136,1,120,8|2,0:0|0:0,0:0:0:0:
344,152,202289,2,0,B|322:174|276:177|239:124,1,120,0|0,0:0|0:0,0:0:0:0:
208,40,202642,2,0,B|136:64|152:151,1,120,0|2,0:0|0:0,0:0:0:0:
176,216,202995,2,0,B|104:232|72:160,1,120,0|0,0:0|0:0,0:0:0:0:
76,169,203348,1,10,0:0:0:0:
200,88,203701,5,0,0:0:0:0:
360,168,203936,1,0,0:0:0:0:
360,168,204053,2,0,B|320:120|216:128|192:200,1,180,2|0,0:0|0:0,0:0:0:0:
144,312,204759,2,0,B|255:362|323:279,1,180,10|0,0:0|0:0,0:0:0:0:
216,184,205465,2,0,B|163:94|57:114,1,180,2|0,0:0|0:0,0:0:0:0:
88,208,206053,1,0,0:0:0:0:
88,208,206171,6,0,B|171:198|194:275,1,120,10|0,0:0|0:0,0:0:0:0:
200,344,206524,2,0,B|272:344|296:280,1,120,0|0,0:0|0:0,0:0:0:0:
294,284,206877,1,0,0:0:0:0:
256,144,207230,1,2,0:0:0:0:
120,200,207583,1,8,0:0:0:0:
256,248,207936,1,2,0:0:0:0:
368,152,208289,6,0,B|432:96|528:168,1,120,0|0,0:0|0:0,0:0:0:0:
440,216,208642,2,0,B|368:272|296:216,1,120,2|0,0:0|0:0,0:0:0:0:
328,235,208995,1,10,0:0:0:0:
280,152,209230,2,0,B|224:144|160:224|192:304,1,180,2|0,0:0|0:0,0:0:0:0:
112,328,209701,6,0,B|48:288|72:208,1,120,4|0,0:0|0:0,0:0:0:0:
68,226,210053,1,2,0:0:0:0:
168,80,210289,1,2,0:0:0:0:
168,80,210406,2,0,B|226:114|213:187,1,120,8|0,0:0|0:0,0:0:0:0:
192,272,210759,2,0,B|267:308|318:243,1,120
303,259,211112,1,0,0:0:0:0:
352,104,211465,2,0,B|424:96|452:169,1,120,0|2,0:0|0:0,0:0:0:0:
360,176,211818,2,0,B|288:192|264:128,1,120,8|0,0:0|0:0,0:0:0:0:
200,64,212171,2,0,B|128:40|92:122,1,120,0|0,0:0|0:0,0:0:0:0:
100,106,212524,1,2,0:0:0:0:
208,208,212877,5,0,0:0:0:0:
384,168,213112,1,2,0:0:0:0:
384,168,213230,2,0,B|452:205|431:265,1,120,8|2,0:0|0:0,0:0:0:0:
352,312,213583,2,0,B|330:334|272:336|247:284,1,120,0|0,0:0|0:0,0:0:0:0:
264,200,213936,2,0,B|264:128|200:104,1,120,0|2,0:0|0:0,0:0:0:0:
120,136,214289,2,0,B|104:216|208:232,1,120,0|0,0:0|0:0,0:0:0:0:
179,226,214642,1,8,0:0:0:0:
392,88,214995,6,0,B|368:160|448:208,1,120,2|0,0:0|0:0,0:0:0:0:
448,232,215348,1,0,0:0:0:0:
336,320,215701,2,0,B|296:264|208:296,1,120
176,304,216053,2,0,B|96:312|80:248,1,120,8|0,0:0|0:0,0:0:0:0:
80,208,216406,2,0,B|48:160|96:56|160:64,1,180,2|0,0:0|0:0,0:0:0:0:
264,168,217112,2,0,B|328:208|400:160,1,120,2|0,0:0|0:0,0:0:0:0:
328,104,217465,2,0,B|272:64|192:112,1,120,8|0,0:0|0:0,0:0:0:0:
136,88,217818,2,0,B|128:160|208:176,1,120,2|0,0:0|0:0,0:0:0:0:
272,232,218171,6,0,B|192:272|128:248|96:192,1,180,0|2,0:0|0:0,0:0:0:0:
240,160,218877,2,0,B|269:122|334:108|388:149|397:198,1,180,8|0,0:0|0:0,0:0:0:0:
296,288,219583,1,0,0:0:0:0:
296,288,220289,6,0,B|232:328|144:296|112:192|200:120,1,270.000010299683,2|0,0:0|0:0,0:0:0:0:
240,104,221230,5,0,0:0:0:0:
240,104,221348,2,0,B|312:72|368:112,1,135.000005149842,2|0,0:0|0:0,0:0:0:0:
320,168,221936,1,0,0:0:0:0:
320,168,222053,2,0,B|248:216|176:168,1,135.000005149842,2|0,0:0|0:0,0:0:0:0:
88,176,222759,2,0,B|72:128|128:80,1,90.0000034332277,2|0,0:0|0:0,0:0:0:0:
192,72,223112,2,0,B|200:128|144:168,1,90.0000034332277,8|0,0:0|0:0,0:0:0:0:
162,153,223465,1,2,0:0:0:0:
224,280,223818,6,0,B|240:336|344:352|384:296,1,180,0|2,0:0|0:0,0:0:0:0:
432,224,224524,2,0,B|456:176|432:128|376:104|320:144,1,180,0|2,0:0|0:0,0:0:0:0:
216,320,225230,2,0,B|152:344|80:280|120:192,2,180,0|2|8,0:0|0:0|0:0,0:0:0:0:
320,288,226171,1,0,0:0:0:0:
320,288,226289,1,2,0:0:0:0:
256,192,226642,12,2,229465,0:0:0:0:
416,144,237936,6,0,P|332:132|384:304,1,359.999990463257,2|2,0:0|0:0,0:0:0:0:
364,216,238995,1,0,0:0:0:0:
96,240,239348,6,0,P|180:252|128:80,1,359.999990463257,2|2,0:0|0:0,0:0:0:0:
148,168,240407,1,0,0:0:0:0:
148,168,240759,2,0,B|218:130|281:140|280:204|344:268|432:240|498:207,1,359.999990463257
404,148,241818,2,0,P|460:64|332:96,1,299.999992052714
304,120,242524,2,0,P|252:140|188:132,1,119.999996821086
148,112,242877,1,0,0:0:0:0:
68,256,243230,2,0,P|116:316|216:300,1,179.999995231629
432,288,249230,6,0,B|304:240|304:344|160:280,1,270.000010299683,2|0,0:0|0:0,0:0:0:0:
88,216,250289,2,0,B|216:264|216:160|360:224,1,270.000010299683,2|0,0:0|0:0,0:0:0:0:
456,240,251348,2,0,B|431:281|313:322|252:213|301:129,1,270.000010299683,8|2,0:0|0:0,0:0:0:0:
192,112,252406,1,0,0:0:0:0:
192,112,252759,1,2,0:0:0:0:
192,112,253112,2,0,P|164:92|64:244,1,270.000003147125,2|0,0:0|0:0,0:0:0:0:
124,176,254171,5,8,0:0:0:0:
208,344,254524,1,0,0:0:0:0:
203,236,254877,2,0,B|243:233|306:286|339:236|379:195|422:178|475:202,1,270.000003147125,2|0,0:0|0:0,0:0:0:0:
347,148,255936,2,0,B|299:196|243:204|219:156|171:92|91:124,1,270.000010299683,2|0,0:0|0:0,0:0:0:0:
104,224,256995,1,0,0:0:0:0:
184,296,257348,2,2,B|264:320|312:256,1,135.000005149842,2|0,0:0|0:0,0:0:0:0:
344,200,257936,1,0,0:0:0:0:
344,200,258053,1,2,0:0:0:0:
272,120,258406,5,0,0:0:0:0:
176,168,258759,2,0,B|136:176|120:256|152:288,1,135.000005149842,2|0,0:0|0:0,0:0:0:0:
260,204,259465,2,0,B|316:196|356:236,1,90.0000010490418,2|0,0:0|0:0,0:0:0:0:
392,188,259818,2,0,B|392:116|320:84,1,120,2|0,0:0|0:0,0:0:0:0:
283,88,260171,2,0,B|227:128|147:72,1,120
283,88,260524,6,0,B|222:82|160:158|227:240,1,179.999995231629,6|0,0:0|0:0,0:0:0:0:
284,172,261112,2,2,B|309:208|285:264|237:296|189:280,1,179.999995231629,6|2,0:0|0:0,0:0:0:0:
112,344,261583,2,0,B|144:296|193:280|193:280|304:324|372:240,1,299.999992052714,4|0,0:0|0:0,0:0:0:0:
369,243,262289,1,2,0:0:0:0:
448,144,262642,1,0,0:0:0:0:
328,96,262995,5,0,0:0:0:0:
328,96,263348,2,0,B|248:160|144:104,1,180,4|0,0:0|0:0,0:0:0:0:
64,144,263936,2,0,B|112:104|160:128|208:168|176:240,1,180,4|0,0:0|0:0,0:0:0:0:
96,224,264406,2,0,B|144:128|288:104|368:184,1,300,6|0,0:0|0:0,0:0:0:0:
355,172,265112,1,2,0:0:0:0:
392,304,265465,1,2,0:0:0:0:
248,320,265818,5,2,0:0:0:0:
120,256,266171,2,0,B|96:200|96:200|168:168|224:224,1,180,4|0,0:0|0:0,0:0:0:0:
232,120,266759,1,6,0:0:0:0:
232,120,266877,2,0,B|272:192|352:160,1,120,0|0,0:0|0:0,0:0:0:0:
332,167,267230,1,4,0:0:0:0:
416,280,267583,1,0,0:0:0:0:
272,272,267936,6,0,B|288:200|216:144,1,120,2|0,0:0|0:0,0:0:0:0:
176,96,268289,2,0,B|224:160|320:112,1,120,2|0,0:0|0:0,0:0:0:0:
344,56,268642,2,0,B|288:104|344:184,1,120,2|0,0:0|0:0,0:0:0:0:
331,164,268995,2,0,B|334:148|326:100|286:78|198:38|94:126|110:262|230:318|270:294|414:206,1,540,2|2,0:0|0:0,0:0:0:0:
440,72,270406,5,0,0:0:0:0:
304,32,270759,1,2,0:0:0:0:
160,56,271112,2,0,B|96:96|144:184,1,120,2|0,0:0|0:0,0:0:0:0:
176,240,271465,2,0,B|160:192|104:168|48:208,1,119.999996821086,2|0,0:0|0:0,0:0:0:0:
104,264,271818,2,0,B|112:312|168:336|232:320|248:264,1,179.999995231629
424,144,272524,5,2,0:0:0:0:
400,120,272642,1,0,0:0:0:0:
368,104,272759,1,0,0:0:0:0:
328,104,272877,5,2,0:0:0:0:
296,120,272995,1,0,0:0:0:0:
272,144,273112,1,0,0:0:0:0:
248,176,273230,5,2,0:0:0:0:
224,200,273348,1,0,0:0:0:0:
200,224,273465,1,0,0:0:0:0:
168,232,273583,5,2,0:0:0:0:
136,224,273701,1,0,0:0:0:0:
104,208,273818,1,0,0:0:0:0:
80,176,273936,5,2,0:0:0:0:
88,144,274053,1,0,0:0:0:0:
112,112,274171,1,0,0:0:0:0:
144,104,274289,5,2,0:0:0:0:
176,112,274406,1,0,0:0:0:0:
200,136,274524,1,0,0:0:0:0:
200,176,274642,5,6,0:0:0:0:
440,88,276053,5,2,0:0:0:0:
304,144,276406,1,0,0:0:0:0:
304,320,276759,1,10,0:0:0:0:
160,312,276995,1,0,0:0:0:0:
160,312,277112,1,0,0:0:0:0:
160,312,277465,6,0,B|112:248|176:184,1,132.00000402832,4|0,0:0|0:0,0:0:0:0:
192,144,277818,2,0,B|112:168|64:96,1,132.00000402832,0|0,0:0|0:0,0:0:0:0:
24,128,278171,2,0,B|80:184|24:256,1,132.00000402832,10|0,0:0|0:0,0:0:0:0:
80,256,278524,2,0,B|152:216|216:272,1,132.000000531515,0|0,0:0|0:0,0:0:0:0:
288,312,278877,1,2,0:0:0:0:
448,296,279230,1,0,0:0:0:0:
288,48,279583,1,8,0:0:0:0:
448,296,279936,1,0,0:0:0:0:
360,168,280289,6,2,B|280:208|232:120,1,132.000000531515,2|0,0:0|0:0,0:0:0:0:
216,104,280642,2,0,B|216:184|128:192,1,132.000000531515
96,224,280995,2,0,B|128:304|232:272,1,132.000000531515,8|0,0:0|0:0,0:0:0:0:
248,248,281348,2,0,B|280:168|368:184,1,132.000000531515
350,181,281701,1,0,0:0:0:0:
424,208,281936,1,2,0:0:0:0:
424,208,282053,2,0,B|456:288|384:328,1,132.000000531515
391,323,282406,1,8,0:0:0:0:
391,323,282759,5,0,0:0:0:0:
127,308,282995,1,0,0:0:0:0:
64,232,283112,2,0,B|112:200|112:200|156:218|192:216|216:192|232:144,1,198.000006042481,0|2,0:0|0:0,0:0:0:0:
312,40,283818,2,0,B|264:80|264:80|224:64|184:72|152:104|152:144,1,198.000006042481,0|2,0:0|0:0,0:0:0:0:
144,304,284524,2,4,B|224:336|264:256,1,132.000000531515,0|0,0:0|0:0,0:0:0:0:
272,192,284877,2,0,B|308:168|372:208|372:265,1,132.000000531515,0|0,0:0|0:0,0:0:0:0:
392,344,285230,1,8,0:0:0:0:
392,344,285583,6,0,B|442:342|482:294|472:243,1,132.00000402832,2|0,0:0|0:0,0:0:0:0:
376,232,285936,2,0,B|336:200|264:240|256:304,1,132.00000402832,0|0,0:0|0:0,0:0:0:0:
200,344,286289,2,0,B|160:384|88:360|80:288,1,132.00000402832,2|0,0:0|0:0,0:0:0:0:
168,264,286642,2,0,B|213:255|241:206|218:154,1,132.00000402832,8|0,0:0|0:0,0:0:0:0:
192,88,286995,1,2,0:0:0:0:
192,88,287348,2,0,B|232:64|296:96|304:152|304:152|360:128,1,198.000006042481,0|0,0:0|0:0,0:0:0:0:
496,64,288053,1,8,0:0:0:0:
392,40,288289,1,2,0:0:0:0:
392,40,288406,2,0,B|348:43|316:107|345:151,1,132.00000402832
376,232,288759,6,0,B|400:304|320:344,1,132.00000402832,4|0,0:0|0:0,0:0:0:0:
256,272,289112,2,0,B|224:208|144:216,1,132.00000402832,0|0,0:0|0:0,0:0:0:0:
64,264,289465,2,0,B|120:224|128:144,1,132.00000402832,10|0,0:0|0:0,0:0:0:0:
56,88,289818,2,0,B|120:32|192:80,1,132.00000402832,0|0,0:0|0:0,0:0:0:0:
256,128,290171,1,2,0:0:0:0:
464,344,290524,1,0,0:0:0:0:
360,64,290877,1,10,0:0:0:0:
464,344,291230,1,0,0:0:0:0:
344,240,291583,6,0,B|272:184|240:296|160:216,2,198.000006042481,0|0|8,0:0|0:0|0:0,0:0:0:0:
432,296,292524,1,0,0:0:0:0:
432,296,292642,2,0,B|464:224|416:168,1,132.00000402832,2|0,0:0|0:0,0:0:0:0:
352,96,292995,1,0,0:0:0:0:
312,192,293230,1,0,0:0:0:0:
312,192,293348,2,0,B|280:112|192:128,1,132.00000402832,2|0,0:0|0:0,0:0:0:0:
120,80,293701,2,0,B|80:160|160:208,1,132.00000402832,8|0,0:0|0:0,0:0:0:0:
160,296,294053,6,0,B|240:280|240:192,1,132.00000402832,2|0,0:0|0:0,0:0:0:0:
304,128,294406,2,0,B|232:80|136:120|136:224,1,198.000006042481
232,312,295112,1,8,0:0:0:0:
232,312,295465,2,0,B|288:344|376:288|360:208,1,198.000006042481,0|0,0:0|0:0,0:0:0:0:
304,72,296171,2,0,B|344:104|320:176|264:192,1,132.000000531515,2|0,0:0|0:0,0:0:0:0:
184,208,296524,2,0,B|120:232|64:200|64:144,1,132.00000402832,8|0,0:0|0:0,0:0:0:0:
128,88,296877,6,0,B|176:24|256:48,1,132.00000402832,0|0,0:0|0:0,0:0:0:0:
416,144,297230,2,0,B|440:216|408:296|312:288,1,198.000006042481,2|0,0:0|0:0,0:0:0:0:
64,184,297818,1,0,0:0:0:0:
64,184,297936,2,0,B|40:120|104:32|176:56,1,198.000006042481,10|0,0:0|0:0,0:0:0:0:
328,80,298642,1,2,0:0:0:0:
112,192,299348,6,0,B|168:272|264:312|376:272|416:192,1,360,2|0,0:0|0:0,0:0:0:0:
352,120,300289,1,2,0:0:0:0:
312,96,300406,1,0,0:0:0:0:
216,96,300642,1,0,0:0:0:0:
176,128,300759,1,2,0:0:0:0:
256,248,301112,1,0,0:0:0:0:
368,280,301465,2,0,B|320:352|176:352|120:264,1,270.000010299683,0|10,0:0|0:0,0:0:0:0:
136,280,302877,5,2,0:0:0:0:
112,176,303230,1,2,0:0:0:0:
192,80,303465,1,0,0:0:0:0:
192,80,303583,2,0,B|224:48|272:48|320:80|320:128,1,135.000005149842
352,192,304289,1,2,0:0:0:0:
448,144,304642,2,0,B|392:152|368:80,1,90.0000034332277
376,101,304995,1,2,0:0:0:0:
256,136,305348,1,2,0:0:0:0:
256,192,305701,12,2,308524,0:0:0:0:
96,128,314524,5,0,0:0:0:0:
144,224,314759,1,0,0:0:0:0:
144,224,314877,1,2,0:0:0:0:
224,152,315112,1,0,0:0:0:0:
224,152,315230,1,2,0:0:0:0:
312,216,315465,1,0,0:0:0:0:
312,216,315583,1,2,0:0:0:0:
416,192,315818,1,0,0:0:0:0:
416,192,315936,2,0,B|352:144|248:176,1,157.500001835823
256,192,317348,12,4,321320,0:0:0:0:
