osu file format v10

[General]
AudioFilename: Duca _ diary.mp3
AudioLeadIn: 0
PreviewTime: 198224
Countdown: 0
SampleSet: Soft
StackLeniency: 0.7
Mode: 0
LetterboxInBreaks: 0

[Editor]
Bookmarks: 54995
DistanceSpacing: 0.7
BeatDivisor: 6
GridSize: 8

[Metadata]
Title:Colorful Diary
TitleUnicode:Colorful Diary
Artist:Duca
ArtistUnicode:Duca
Creator:Yusura Sakurae
Version:Hard
Source:your diary
Tags:yua cube remi eroge kantoku ed hentai vn
BeatmapID:187114
BeatmapSetID:58836

[Difficulty]
HPDrainRate:5
CircleSize:4
OverallDifficulty:5
ApproachRate:7
SliderMultiplier:3.19999990463257
SliderTickRate:1

[Events]
//Background and Video events
0,0,"BG.jpg"
//Break Periods
2,170371,179505
2,249430,258565
2,260724,261389
2,263548,264212
2,266371,267036
2,275103,275153
2,308724,313624
//Storyboard Layer 0 (Background)
//Storyboard Layer 1 (Fail)
//Storyboard Layer 2 (Pass)
//Storyboard Layer 3 (Foreground)
//Storyboard Sound Samples
//Background Colour Transformations
3,100,163,162,255

[TimingPoints]
12054,705.882352941176,4,2,1,40,1,0
80202,-200,4,2,1,40,0,0
82759,-100,4,2,1,40,0,0
85465,-100,4,2,1,60,0,1
110759,-200,4,2,1,40,0,1
110877,-200,4,2,1,40,0,0
113701,-100,4,2,1,40,0,0
193348,-200,4,2,1,40,0,0
195701,-100,4,3,1,40,0,0
198406,-100,4,2,1,60,0,1
223690,-200,4,2,1,40,0,1
223818,-200,4,2,1,40,0,0
226171,-100,4,2,1,40,0,0
244171,-200,4,2,1,40,0,0
246053,-100,4,2,1,40,0,0
277465,-100,4,2,1,60,0,1
302759,-200,4,2,1,40,0,1
302884,-200,4,2,1,40,0,0
305701,-100,4,2,1,40,0,0

[Colours]
Combo1 : 255,232,66
Combo2 : 142,138,98
Combo3 : 255,167,70
Combo4 : 255,119,238

[HitObjects]
144,176,12053,5,0,0:0:0
144,176,12406,1,2,0:0:0
256,240,12759,2,0,B|247:290|177:329|130:309,1,159.999995231628,8|2,0:0|0:0,0:0:0
160,184,13465,2,0,B|168:133|238:94|285:114,1,159.999995231628,0|2,0:0|0:0,0:0:0
328,232,14171,2,0,B|376:272|424:232,1,106.666663487752,8|0,0:0|0:0,0:0:0
424,231,14524,1,2,0:0:0
368,120,14877,6,0,B|373:69|440:25|488:41,2,159.999995231628,0|2|8,0:0|0:0|0:0,0:0:0
392,200,15818,1,0,0:0:0
392,200,15936,1,2,0:0:0
288,272,16289,2,0,B|264:329|203:317,1,106.666663487752
202,316,16642,1,2,0:0:0
88,256,16995,2,0,B|112:199|173:211,1,106.666663487752,8|0,0:0|0:0,0:0:0
173,211,17348,1,2,0:0:0
264,120,17701,1,0,0:0:0
264,120,18406,6,0,B|302:109|350:126|378:168|377:208,1,159.999995231628,8|2,0:0|0:0,0:0:0
296,304,19112,1,0,0:0:0
472,224,19642,1,2,0:0:0
296,304,20171,1,2,0:0:0
232,152,20877,1,0,0:0:0
232,152,21230,6,0,B|262:125|312:120|356:145|372:181,1,159.999995231628,8|2,0:0|0:0,0:0:0
336,304,21936,1,0,0:0:0
448,248,22289,1,2,0:0:0
488,128,22642,2,0,B|464:70|403:82,1,106.666663487752,8|0,0:0|0:0,0:0:0
402,82,22995,1,0,0:0:0
296,216,23348,5,0,0:0:0
192,296,23701,1,2,0:0:0
184,168,24053,1,8,0:0:0
288,88,24406,1,2,0:0:0
408,128,24759,6,0,B|406:167|376:208|328:223|290:210,1,159.999995231628,0|2,0:0|0:0,0:0:0
176,168,25465,2,0,B|177:128|207:87|255:72|293:85,1,159.999995231628,8|2,0:0|0:0,0:0:0
312,208,26171,1,0,0:0:0
232,112,26524,1,2,0:0:0
176,224,26877,1,8,0:0:0
264,320,27230,1,2,0:0:0
176,224,27583,6,0,B|177:184|207:143|255:128|293:141,1,159.999995231628,0|2,0:0|0:0,0:0:0
288,264,28289,2,0,B|286:303|256:344|208:359|170:346,1,159.999995231628,8|2,0:0|0:0,0:0:0
72,272,28995,1,0,0:0:0
72,272,29701,1,8,0:0:0
104,152,30053,1,2,0:0:0
224,200,30406,1,0,0:0:0
320,112,30759,1,2,0:0:0
384,224,31112,2,0,B|417:235|465:220|495:179|497:140,1,159.999995231628,8|2,0:0|0:0,0:0:0
256,192,31818,12,0,34642,0:0:0
320,192,35348,6,0,B|256:192|232:128,1,106.666663487752,8|0,0:0|0:0,0:0:0
235,137,35701,1,2,0:0:0
160,32,36053,2,0,B|125:29|81:56|63:103|72:142,1,159.999995231628,0|2,0:0|0:0,0:0:0
80,224,36642,2,0,B|114:226|158:199|176:152|167:113,1,159.999995231628
167,114,37112,1,2,0:0:0
280,48,37465,5,0,0:0:0
392,112,37818,1,2,0:0:0
376,240,38171,1,8,0:0:0
272,168,38524,1,2,0:0:0
144,200,38877,2,0,B|148:139|207:89|284:92|325:137,2,239.999992847443,0|2|2,0:0|0:0|0:0,0:0:0
152,328,40289,1,2,0:0:0
176,136,40877,5,0,0:0:0
176,136,40995,2,0,B|152:78|91:90,1,106.666663487752,8|0,0:0|0:0,0:0:0
104,176,41348,2,0,B|127:233|188:221,1,106.666663487752,2|0,0:0|0:0,0:0:0
232,232,41701,2,0,B|272:277|350:280|409:230|413:169,2,239.999992847443,0|2|2,0:0|0:0|0:0,0:0:0
232,232,43465,5,2,0:0:0
152,128,43818,1,8,0:0:0
264,72,44171,2,0,B|295:57|345:66|379:104|385:143,2,159.999995231628,2|0|2,0:0|0:0|0:0,0:0:0
256,200,45230,2,0,B|224:185|174:194|140:232|134:271,1,159.999995231628,8|2,0:0|0:0,0:0:0
256,304,45936,1,2,0:0:0
256,48,46642,1,8,0:0:0
328,160,46995,6,0,B|307:188|259:204|211:188|187:156,1,159.999995231628,2|0,0:0|0:0,0:0:0
104,72,47701,1,2,0:0:0
232,88,48053,2,0,B|238:122|217:168|172:192|133:188,2,159.999995231628,8|2|0,0:0|0:0|0:0,0:0:0
104,40,49112,1,2,0:0:0
40,152,49465,2,0,B|51:190|91:221|141:223|171:203,1,159.999995231628,8|2,0:0|0:0,0:0:0
272,120,50171,1,0,0:0:0
400,96,50524,1,2,0:0:0
472,272,50877,1,8,0:0:0
296,200,51230,1,2,0:0:0
168,216,51583,6,0,B|160:250|179:296|223:322|263:319,2,159.999995231628,0|2|8,0:0|0:0|0:0,0:0:0
224,104,52642,1,0,0:0:0
352,128,52995,6,0,B|356:167|333:212|287:234|253:228,1,159.999995231628,0|2,0:0|0:0,0:0:0
128,224,53701,2,0,B|123:184|146:139|192:117|226:123,1,159.999995231628,8|2,0:0|0:0,0:0:0
226,123,54406,1,0,0:0:0
321,134,55465,1,0,0:0:0
384,192,56171,5,0,0:0:0
496,352,56524,1,10,0:0:0
328,256,56877,1,0,0:0:0
328,256,57230,6,0,B|289:267|241:252|212:211|211:176,1,159.999995231628,0|2,0:0|0:0,0:0:0
216,88,57818,1,0,0:0:0
216,88,57936,1,8,0:0:0
320,160,58289,6,0,B|359:149|406:164|436:204|436:239,1,159.999995231628,0|2,0:0|0:0,0:0:0
432,328,58877,1,0,0:0:0
432,328,58995,1,0,0:0:0
312,280,59348,1,10,0:0:0
432,328,59701,1,0,0:0:0
448,200,60053,5,0,0:0:0
328,48,60406,1,2,0:0:0
160,136,60759,1,8,0:0:0
248,312,61112,2,0,B|287:303|322:267|329:217|313:186,1,159.999995231628,2|0,0:0|0:0,0:0:0
168,64,61818,5,2,0:0:0
80,232,62171,1,8,0:0:0
168,64,62524,1,2,0:0:0
80,232,62877,6,0,B|119:221|166:236|196:276|196:311,1,159.999995231628,0|2,0:0|0:0,0:0:0
112,312,63465,1,0,0:0:0
112,312,63583,1,8,0:0:0
296,248,63936,6,0,B|257:259|209:243|179:203|179:168,1,159.999995231628
264,168,64524,1,0,0:0:0
264,168,64642,1,2,0:0:0
432,80,64995,1,8,0:0:0
432,80,65348,2,0,B|436:173|373:139|377:250|314:216|308:313,1,266.666658719381
308,308,66053,1,2,0:0:0
184,304,66406,1,8,0:0:0
184,304,66759,2,0,B|179:210|242:244|238:133|301:167|307:70,1,266.666658719381
308,76,67464,1,2,0:0:0
416,232,67818,1,8,0:0:0
224,200,68171,1,0,0:0:0
224,72,68524,6,0,B|263:61|310:76|340:116|340:151,1,159.999995231628
256,152,69112,1,2,0:0:0
256,152,69230,6,0,B|259:192|235:236|189:257|155:251,1,159.999995231628,8|0,0:0|0:0,0:0:0
136,128,69936,1,0,0:0:0
80,248,70289,1,2,0:0:0
136,128,70642,1,8,0:0:0
80,248,70995,6,0,B|133:269|176:221,1,106.666663487752
176,222,71348,1,2,0:0:0
296,176,71701,6,0,B|254:135|196:163,1,106.666663487752,0|8,0:0|0:0,0:0:0
184,304,72289,1,2,0:0:0
184,304,72406,6,0,B|158:272|153:222|178:178|210:164,1,159.999995231628
312,88,73112,1,0,0:0:0
344,208,73465,1,10,0:0:0
464,176,73818,6,0,B|467:216|443:260|397:281|363:275,1,159.999995231628
363,275,74524,1,0,0:0:0
248,232,74759,1,0,0:0:0
248,232,75112,1,0,0:0:0
160,232,75230,6,0,B|163:192|193:152|242:138|275:150,1,159.999995231628
376,224,75936,1,0,0:0:0
208,320,76289,1,8,0:0:0
136,144,76642,1,0,0:0:0
320,80,76995,2,0,B|345:161|245:169|267:196|196:200|219:227|104:229|129:310,1,319.999990463257,0|8,0:0|0:0,0:0:0
127,303,78053,1,0,0:0:0
256,336,78406,6,0,B|288:347|337:333|367:293|371:254,1,159.999995231628
400,128,79112,2,0,B|367:116|318:130|288:170|284:209,1,159.999995231628,8|0,0:0|0:0,0:0:0
424,344,79818,1,0,0:0:0
80,168,80524,6,0,B|112:179|161:165|191:125|195:86,1,159.999995231628,8|0,0:0|0:0,0:0:0
432,216,81936,2,0,B|399:204|350:218|320:258|316:297,1,159.999995231628,8|0,0:0|0:0,0:0:0
432,344,82995,1,0,0:0:0
432,216,83348,1,0,0:0:0
320,152,83701,1,0,0:0:0
216,232,84053,2,0,B|183:244|134:230|104:190|100:151,1,159.999995231628
216,104,84759,1,0,0:0:0
216,104,84995,1,0,0:0:0
320,264,85348,1,0,0:0:0
320,264,85465,5,4,0:0:0
224,184,85818,2,0,B|182:143|124:171,1,106.666663487752,0|0,0:0|0:0,0:0:0
125,170,86171,1,8,0:0:0
160,296,86524,2,0,B|202:337|260:309,1,106.666663487752,0|0,0:0|0:0,0:0:0
258,310,86877,1,0,0:0:0
312,192,87230,1,0,0:0:0
424,256,87583,1,8,0:0:0
312,192,87936,1,0,0:0:0
192,240,88289,6,0,B|157:233|122:196|117:146|134:110,1,159.999995231628
216,8,88995,2,0,B|250:14|285:51|290:101|273:137,1,159.999995231628,8|0,0:0|0:0,0:0:0
256,264,89701,2,0,B|270:320|335:326,1,106.666663487752,0|0,0:0|0:0,0:0:0
333,325,90053,1,0,0:0:0
440,328,90406,1,8,0:0:0
368,152,90759,2,0,B|310:146|282:205,1,106.666663487752,0|0,0:0|0:0,0:0:0
283,203,91112,5,0,0:0:0
256,328,91465,1,0,0:0:0
160,248,91818,1,8,0:0:0
192,120,92171,1,0,0:0:0
320,120,92524,2,0,B|314:154|278:189|228:195|192:179,1,159.999995231628
112,144,93112,1,0,0:0:0
24,288,93583,5,0,0:0:0
96,336,93818,1,0,0:0:0
96,336,93936,2,0,B|132:352|182:346|218:311|224:277,1,159.999995231628
208,152,94642,1,8,0:0:0
368,40,94995,1,0,0:0:0
392,232,95348,1,0,0:0:0
232,336,95701,1,0,0:0:0
328,168,96053,2,0,B|386:162|414:221,1,106.666663487752,8|0,0:0|0:0,0:0:0
184,328,96759,6,0,B|152:342|103:331|70:293|63:254,1,159.999995231628
32,176,97348,1,0,0:0:0
32,176,97465,2,0,B|63:161|112:172|145:210|152:249,1,159.999995231628,8|0,0:0|0:0,0:0:0
192,368,98171,1,0,0:0:0
336,240,98524,1,0,0:0:0
272,56,98877,1,8,0:0:0
136,192,99230,1,0,0:0:0
128,320,99583,6,0,B|165:332|214:320|246:282|249:247,1,159.999995231628
232,160,100171,1,0,0:0:0
232,160,100289,2,0,B|263:145|312:156|345:194|352:233,1,159.999995231628,8|0,0:0|0:0,0:0:0
304,352,100995,1,0,0:0:0
200,280,101348,1,0,0:0:0
232,160,101701,1,8,0:0:0
352,120,102053,2,0,B|381:170|340:220,1,106.666663487752,0|0,0:0|0:0,0:0:0
341,218,102406,5,0,0:0:0
216,200,102759,1,0,0:0:0
96,248,103112,1,8,0:0:0
216,200,103465,2,0,B|253:212|302:200|334:162|337:127,1,159.999995231628
264,24,104171,2,0,B|293:74|252:124,1,106.666663487752,0|0,0:0|0:0,0:0:0
252,122,104524,1,0,0:0:0
312,288,104877,2,0,B|255:302|219:247,1,106.666663487752,0|0,0:0|0:0,0:0:0
220,249,105230,5,0,0:0:0
96,240,105583,2,0,B|133:252|182:240|214:202|217:167,1,159.999995231628,0|8,0:0|0:0,0:0:0
368,48,106289,1,0,0:0:0
456,216,106642,1,0,0:0:0
456,216,107348,2,0,B|403:282|340:205|330:239|286:183|277:217|210:124|158:191,1,319.999990463257,8|0,0:0|0:0,0:0:0
360,344,108759,1,8,0:0:0
256,272,109112,5,0,0:0:0
256,272,109465,1,0,0:0:0
136,48,110171,1,8,0:0:0
104,192,110877,2,0,B|141:204|190:192|222:154|225:119,1,159.999995231628,0|8,0:0|0:0,0:0:0
256,192,111936,1,0,0:0:0
408,192,112289,2,0,B|371:180|322:192|290:230|287:265,1,159.999995231628,0|8,0:0|0:0,0:0:0
256,144,113348,1,0,0:0:0
256,272,113701,5,0,0:0:0
144,216,114053,1,0,0:0:0
144,216,114289,1,0,0:0:0
144,216,114406,2,0,B|147:181|179:143|228:131|265:143,1,159.999995231628,8|0,0:0|0:0,0:0:0
384,192,115112,1,0,0:0:0
272,256,115465,1,0,0:0:0
272,256,115701,1,0,0:0:0
272,256,115818,2,0,B|275:291|307:329|356:341|393:329,1,159.999995231628,8|0,0:0|0:0,0:0:0
352,208,116524,6,0,B|378:185|428:181|471:207|489:241,1,159.999995231628
368,296,117230,2,0,B|341:318|291:322|248:296|230:262,1,159.999995231628,8|0,0:0|0:0,0:0:0
168,152,117936,1,0,0:0:0
120,272,118289,1,0,0:0:0
168,152,118642,1,8,0:0:0
120,272,118995,1,0,0:0:0
224,200,119348,5,0,0:0:0
104,144,119700,1,0,0:0:0
104,144,119936,1,0,0:0:0
104,144,120053,2,0,B|107:109|139:71|188:59|225:71,1,159.999995231628,8|0,0:0|0:0,0:0:0
272,192,120759,1,0,0:0:0
392,240,121112,1,0,0:0:0
392,240,121348,1,0,0:0:0
392,240,121465,2,0,B|389:275|357:312|308:324|271:313,1,159.999995231628,8|0,0:0|0:0,0:0:0
192,208,122171,6,0,B|187:173|211:129|256:107|295:111,1,159.999995231628
312,240,122877,2,0,B|316:274|292:318|247:340|208:336,1,159.999995231628,8|0,0:0|0:0,0:0:0
128,240,123583,1,0,0:0:0
176,120,123936,1,0,0:0:0
304,96,124289,1,8,0:0:0
392,192,124642,1,0,0:0:0
320,296,124995,5,0,0:0:0
232,200,125348,1,0,0:0:0
104,184,125701,2,0,B|102:133|162:80|212:90,1,159.999995231628,8|0,0:0|0:0,0:0:0
280,176,126406,2,0,B|324:200|340:278|306:317,1,159.999995231628
208,272,127112,2,0,B|157:285|92:238|91:188,1,159.999995231628,8|0,0:0|0:0,0:0:0
208,160,127819,6,0,B|217:210|287:248|334:228,2,159.999995231628,0|0|8,0:0|0:0|0:0,0:0:0
208,160,128760,1,0,0:0:0
208,160,128878,1,0,0:0:0
96,96,129231,2,0,B|135:48|191:77,1,106.666663487752
190,76,129583,1,0,0:0:0
312,120,129936,2,0,B|273:168|217:139,1,106.666663487752,8|0,0:0|0:0,0:0:0
264,64,130290,2,0,B|283:16|361:-5|402:26,1,159.999995231628
432,120,130995,1,0,0:0:0
432,120,131348,6,0,B|420:158|380:189|330:191|296:169,1,159.999995231628,8|0,0:0|0:0,0:0:0
200,88,132054,1,0,0:0:0
56,216,132584,1,0,0:0:0
200,88,133113,1,0,0:0:0
448,152,133819,1,0,0:0:0
448,152,134172,6,0,B|438:191|399:223|349:227|315:206,1,159.999995231628,8|0,0:0|0:0,0:0:0
256,96,134877,1,0,0:0:0
128,72,135230,1,0,0:0:0
56,112,135465,1,0,0:0:0
56,112,135584,2,0,B|84:167|144:150,1,106.666663487752,8|0,0:0|0:0,0:0:0
312,160,136290,5,0,0:0:0
232,256,136643,1,0,0:0:0
112,208,136995,1,8,0:0:0
200,120,137348,1,0,0:0:0
200,120,137701,6,0,B|202:159|232:200|280:215|318:202,1,159.999995231628
440,192,138407,2,0,B|439:152|409:111|361:96|323:109,1,159.999995231628,8|0,0:0|0:0,0:0:0
240,200,139113,1,0,0:0:0
152,296,139466,1,0,0:0:0
120,176,139819,1,8,0:0:0
192,72,140172,1,0,0:0:0
192,72,140525,6,0,B|193:112|223:153|271:168|309:155,1,159.999995231628
392,168,141112,2,0,B|390:207|360:248|312:263|274:250,1,159.999995231628,8|0,0:0|0:0,0:0:0
128,160,141937,1,0,0:0:0
344,288,142643,1,8,0:0:0
328,160,142995,1,0,0:0:0
216,216,143348,1,0,0:0:0
192,88,143701,1,0,0:0:0
64,120,144054,2,0,B|37:143|26:192|47:238|80:259,1,159.999995231628,8|0,0:0|0:0,0:0:0
256,192,144760,12,8,147584,0:0:0
192,192,148289,6,0,B|256:192|280:128,1,106.666663487752,8|0,0:0|0:0,0:0:0
277,137,148643,1,0,0:0:0
344,32,148995,2,0,B|379:29|423:56|441:103|432:142,1,159.999995231628
416,224,149584,2,0,B|382:226|338:199|320:152|329:113,1,159.999995231628,8|0,0:0|0:0,0:0:0
328,113,150053,1,0,0:0:0
208,72,150407,5,0,0:0:0
128,168,150760,1,0,0:0:0
208,264,151113,1,8,0:0:0
328,232,151466,1,0,0:0:0
328,104,151819,2,0,B|324:43|265:-7|188:-4|147:41,2,239.999992847443
336,232,153231,1,0,0:0:0
144,136,153819,5,0,0:0:0
144,136,153937,2,0,B|168:78|229:90,1,106.666663487752
224,176,154290,2,0,B|201:233|140:221,1,106.666663487752,8|0,0:0|0:0,0:0:0
64,184,154643,2,0,B|19:143|18:65|69:7|130:4,2,239.999992847443
64,184,156407,5,0,0:0:0
176,248,156760,1,8,0:0:0
192,120,157112,2,0,B|223:105|280:112|307:152|313:191,1,159.999995231628
184,208,157818,2,0,B|153:193|96:200|69:240|63:279,2,159.999995231628,0|8|0,0:0|0:0|0:0,0:0:0
184,208,158878,1,0,0:0:0
424,296,159584,1,8,0:0:0
296,272,159937,6,0,B|287:238|305:190|347:163|387:164,2,159.999995231628
176,128,160995,2,0,B|182:162|161:208|116:232|77:228,2,159.999995231628,8|0|0,0:0|0:0|0:0,0:0:0
136,8,162054,1,0,0:0:0
136,8,162406,2,0,B|172:-7|221:2|255:39|259:75,1,159.999995231628,8|0,0:0|0:0,0:0:0
264,200,163113,1,0,0:0:0
136,216,163466,1,0,0:0:0
288,328,163819,1,8,0:0:0
200,160,164172,1,0,0:0:0
88,224,164524,6,0,B|80:258|99:304|143:330|183:327,2,159.999995231628,0|0|8,0:0|0:0|0:0,0:0:0
176,128,165584,1,0,0:0:0
304,104,165937,2,0,B|308:143|285:188|239:210|205:204,1,159.999995231628
80,184,166642,2,0,B|76:223|99:268|145:290|179:284,1,159.999995231628,8|0,0:0|0:0,0:0:0
304,288,167348,1,8,0:0:0
400,120,167701,1,8,0:0:0
144,104,168406,1,8,0:0:0
144,104,169113,1,0,0:0:0
272,88,169466,1,8,0:0:0
344,192,169819,1,0,0:0:0
304,312,170171,5,0,0:0:0
200,72,180405,5,0,0:0:0
328,104,180759,1,8,0:0:0
416,200,181112,1,0,0:0:0
408,328,181465,2,0,B|367:332|324:309|301:264|307:230,1,159.999995231628
336,144,182053,1,0,0:0:0
336,144,182406,1,0,0:0:0
336,144,182524,6,0,B|307:115|258:106|212:127|195:157,1,159.999995231628
264,264,183230,1,0,0:0:0
195,157,183583,1,8,0:0:0
264,264,183936,6,0,B|317:285|360:237,1,106.666663487752
359,237,184289,1,0,0:0:0
359,237,184642,6,0,B|383:183|337:138,1,106.666663487752
216,96,185230,1,0,0:0:0
216,96,185348,6,0,B|190:128|185:178|210:222|242:236,1,159.999995231628
328,144,186053,1,0,0:0:0
240,235,186406,1,8,0:0:0
328,144,186759,6,0,B|368:141|411:166|431:212|425:246,1,159.999995231628
400,376,187465,2,0,B|359:328|304:348,1,106.666663487752
176,368,188053,1,0,0:0:0
176,368,188171,6,0,B|142:378|94:363|65:322|63:282,1,159.999995231628
104,160,188877,1,0,0:0:0
272,64,189230,1,8,0:0:0
176,232,189583,1,0,0:0:0
160,104,189936,2,0,B|220:55|263:162|280:131|309:196|327:166|370:256|437:204,1,319.999990463257
435,205,190995,1,0,0:0:0
480,88,191347,6,0,B|444:71|394:77|357:113|351:146,1,159.999995231628
288,256,192053,2,0,B|321:268|370:254|400:214|404:175,1,159.999995231628,8|0,0:0|0:0,0:0:0
376,48,192759,1,0,0:0:0
280,128,193465,6,0,B|287:160|325:195|375:199|410:182,1,159.999995231628
296,240,194524,1,8,0:0:0
304,336,194877,2,0,B|296:303|258:268|208:264|173:281,1,159.999995231628,8|0,0:0|0:0,0:0:0
48,312,195936,1,8,0:0:0
88,192,196289,1,10,0:0:0
208,144,196642,1,8,0:0:0
216,272,196994,2,0,B|183:284|134:270|104:230|100:191,1,159.999995231628
120,64,197700,1,2,0:0:0
120,64,197936,1,0,0:0:0
232,128,198406,5,4,0:0:0
304,232,198759,2,0,B|262:191|204:219,1,106.666663487752,0|0,0:0|0:0,0:0:0
205,218,199112,1,8,0:0:0
104,296,199465,2,0,B|146:337|204:309,1,106.666663487752,0|0,0:0|0:0,0:0:0
202,310,199818,1,0,0:0:0
296,224,200171,1,0,0:0:0
472,136,200524,1,8,0:0:0
368,296,200877,1,0,0:0:0
240,312,201230,6,0,B|205:305|170:268|165:218|182:182,1,159.999995231628
232,64,201936,2,0,B|266:70|301:107|306:157|289:193,1,159.999995231628,8|0,0:0|0:0,0:0:0
176,256,202642,2,0,B|190:312|255:318,1,106.666663487752,0|0,0:0|0:0,0:0:0
253,317,202995,1,0,0:0:0
253,317,203348,1,8,0:0:0
352,240,203700,2,0,B|321:190|257:203,1,106.666663487752,0|0,0:0|0:0,0:0:0
260,202,204053,5,0,0:0:0
360,128,204406,1,0,0:0:0
260,202,204759,1,8,0:0:0
248,72,205112,1,0,0:0:0
360,128,205465,2,0,B|354:162|318:197|268:203|232:187,1,159.999995231628
160,136,206053,1,0,0:0:0
160,136,206171,1,8,0:0:0
272,200,206524,5,0,0:0:0
328,264,206759,1,0,0:0:0
328,264,206877,2,0,B|356:237|370:188|352:141|323:123,1,159.999995231628
200,88,207583,1,8,0:0:0
48,208,207936,1,0,0:0:0
232,160,208289,1,0,0:0:0
144,328,208642,1,0,0:0:0
304,216,208994,2,0,B|362:210|390:269,1,106.666663487752,8|0,0:0|0:0,0:0:0
224,232,209700,6,0,B|256:246|305:235|338:197|345:158,1,159.999995231628
384,80,210289,1,0,0:0:0
384,80,210406,2,0,B|353:65|304:76|271:114|264:153,1,159.999995231628,8|0,0:0|0:0,0:0:0
384,208,211112,1,0,0:0:0
256,192,211465,1,0,0:0:0
112,64,211818,1,8,0:0:0
192,240,212171,1,0,0:0:0
320,232,212524,6,0,B|323:270|300:315|256:338|221:333,1,159.999995231628
232,248,213112,1,0,0:0:0
232,248,213230,2,0,B|227:213|252:170|299:151|338:156,1,159.999995231628,8|0,0:0|0:0,0:0:0
448,224,213936,1,0,0:0:0
344,304,214289,1,0,0:0:0
232,248,214642,1,8,0:0:0
184,128,214994,2,0,B|230:93|284:127,1,106.666663487752,0|0,0:0|0:0,0:0:0
283,126,215348,5,0,0:0:0
192,216,215700,1,0,0:0:0
80,152,216053,1,8,0:0:0
192,216,216406,2,0,B|223:238|273:242|315:216|329:183,1,159.999995231628
392,72,217112,2,0,B|449:73|470:135,1,106.666663487752,0|0,0:0|0:0,0:0:0
469,133,217465,1,8,0:0:0
296,136,217818,2,0,B|239:150|203:95,1,106.666663487752,0|0,0:0|0:0,0:0:0
204,97,218171,5,0,0:0:0
88,160,218524,2,0,B|91:195|123:233|172:245|209:233,1,159.999995231628,0|8,0:0|0:0,0:0:0
392,168,219230,1,0,0:0:0
209,232,219583,1,0,0:0:0
457,295,220289,2,0,B|382:335|354:239|332:266|313:198|291:225|266:114|192:155,1,319.999990463257,8|0,0:0|0:0,0:0:0
198,152,221701,1,8,0:0:0
160,272,222053,5,0,0:0:0
280,320,222406,1,0,0:0:0
240,64,223112,1,8,0:0:0
256,192,223818,2,0,B|293:204|342:192|374:154|377:119,1,159.999995231628
256,192,224877,1,0,0:0:0
256,192,225230,2,0,B|219:180|170:192|138:230|135:265,1,159.999995231628
384,328,226642,5,0,0:0:0
312,128,227230,1,0,0:0:0
312,128,227348,2,0,B|275:116|226:128|194:166|191:201,1,159.999995231628,8|0,0:0|0:0,0:0:0
248,320,228053,1,0,0:0:0
248,320,228406,2,0,B|191:334|155:279,1,106.666663487752,0|0,0:0|0:0,0:0:0
88,176,228995,1,0,0:0:0
88,176,229112,2,0,B|114:198|164:202|207:176|225:142,1,159.999995231628
336,128,229818,5,0,0:0:0
400,240,230171,1,8,0:0:0
400,240,230406,1,0,0:0:0
400,240,230524,2,0,B|351:273|298:235,1,106.666663487752,0|0,0:0|0:0,0:0:0
264,216,230877,2,0,B|224:168,2,53.3333317438762
256,256,231230,2,0,B|225:306|161:292,1,106.666663487752,0|0,0:0|0:0,0:0:0
56,160,231936,1,0,0:0:0
56,160,232289,5,0,0:0:0
128,120,232524,1,0,0:0:0
128,120,232642,2,0,B|154:96|203:90|247:115|266:149,1,159.999995231628,0|8,0:0|0:0,0:0:0
432,248,233524,2,0,B|408:304|336:336|264:304|240:248,1,239.999992847443
240,248,234759,1,0,0:0:0
112,248,235112,6,0,B|101:190|157:157,1,106.666663487752,0|0,0:0|0:0,0:0:0
200,168,235465,2,0,B|236:180|285:168|318:130|320:95,1,159.999995231628,0|8,0:0|0:0,0:0:0
321,94,236053,1,0,0:0:0
208,40,236406,1,0,0:0:0
208,40,236524,1,0,0:0:0
136,160,237230,1,8,0:0:0
128,192,237583,1,0,0:0:0
120,224,237936,5,0,0:0:0
312,192,238642,1,8,0:0:0
176,320,239348,1,0,0:0:0
264,152,240053,1,8,0:0:0
280,344,240759,1,0,0:0:0
176,184,241465,1,8,0:0:0
248,248,241818,1,0,0:0:0
344,256,242171,2,0,B|380:268|429:256|462:218|464:183,1,159.999995231628
464,88,242877,1,8,0:0:0
408,168,243230,2,0,B|377:218|313:204,1,106.666663487752,0|0,0:0|0:0,0:0:0
315,204,243583,5,0,0:0:0
128,160,244289,1,8,0:0:0
168,248,244642,1,0,0:0:0
256,288,244995,2,0,B|292:300|341:288|374:250|376:215,1,159.999995231628,0|8,0:0|0:0,0:0:0
320,136,246406,5,8,0:0:0
248,200,246759,1,8,0:0:0
168,144,247112,1,8,0:0:0
200,56,247465,1,8,0:0:0
72,200,248053,1,0,0:0:0
72,200,248171,1,0,0:0:0
192,152,248524,1,8,0:0:0
288,232,248877,1,0,0:0:0
408,184,249230,5,4,0:0:0
80,160,259465,5,0,0:0:0
144,232,259818,1,8,0:0:0
232,200,260171,1,0,0:0:0
328,224,260524,1,4,0:0:0
432,160,262289,5,0,0:0:0
368,232,262642,1,8,0:0:0
280,200,262995,1,0,0:0:0
184,224,263348,1,4,0:0:0
224,368,265112,5,0,0:0:0
296,304,265465,1,8,0:0:0
264,216,265818,1,0,0:0:0
288,120,266171,1,4,0:0:0
288,16,267936,5,0,0:0:0
376,48,268289,1,8,0:0:0
312,120,268642,1,0,0:0:0
408,144,268995,2,0,B|399:228|304:196|313:230|246:206|257:239|150:196|142:281,1,319.999990463257,0|8,0:0|0:0,0:0:0
224,320,270053,1,0,0:0:0
312,288,270406,2,0,B|329:253|325:203|292:165|258:157,1,159.999995231628
176,104,271112,2,0,B|158:138|162:188|195:226|229:234,1,159.999995231628,8|0,0:0|0:0,0:0:0
229,235,271818,1,0,0:0:0
320,192,272171,6,0,B|335:135|400:129,1,106.666663487752,0|0,0:0|0:0,0:0:0
384,168,272524,2,0,B|438:144|482:191,1,106.666663487752,8|0,0:0|0:0,0:0:0
440,208,272877,2,0,B|492:235|484:299,1,106.666663487752,0|0,0:0|0:0,0:0:0
448,272,273230,2,0,B|460:329|404:363,1,106.666663487752,0|0,0:0|0:0,0:0:0
400,320,273583,2,0,B|361:365|300:342,1,106.666663487752,0|0,0:0|0:0,0:0:0
336,312,273936,2,0,B|276:310|256:249,1,106.666663487752,8|0,0:0|0:0,0:0:0
296,256,274289,2,0,B|259:209|294:154,1,106.666663487752,0|0,0:0|0:0,0:0:0
320,192,274642,1,4,0:0:0
376,248,276053,5,0,0:0:0
312,136,276406,1,0,0:0:0
200,72,276759,2,0,B|139:88|135:147,1,106.666663487752,0|0,0:0|0:0,0:0:0
152,232,277112,2,0,B|212:215|216:156,1,106.666663487752,0|0,0:0|0:0,0:0:0
215,156,277465,5,4,0:0:0
336,104,277818,2,0,B|294:63|236:91,1,106.666663487752,0|0,0:0|0:0,0:0:0
237,90,278171,1,8,0:0:0
152,184,278524,2,0,B|194:225|252:197,1,106.666663487752,0|0,0:0|0:0,0:0:0
250,198,278877,1,0,0:0:0
376,168,279230,1,0,0:0:0
256,320,279583,1,8,0:0:0
376,168,279936,1,0,0:0:0
384,296,280289,6,0,B|417:309|466:297|498:258|503:218,1,159.999995231628
440,160,280877,1,0,0:0:0
440,160,280995,2,0,B|384:145|347:199,1,106.666663487752,8|0,0:0|0:0,0:0:0
348,197,281348,1,0,0:0:0
224,224,281701,2,0,B|238:280|303:286,1,106.666663487752,0|0,0:0|0:0,0:0:0
301,285,282053,1,0,0:0:0
304,200,282289,1,0,0:0:0
304,200,282407,1,8,0:0:0
304,200,282759,2,0,B|290:144|225:138,1,106.666663487752,0|0,0:0|0:0,0:0:0
226,138,283112,5,0,0:0:0
104,184,283465,1,0,0:0:0
160,72,283818,1,8,0:0:0
208,192,284171,1,0,0:0:0
328,232,284524,2,0,B|322:266|286:301|236:307|200:291,1,159.999995231628
128,248,285112,1,0,0:0:0
272,152,285583,5,0,0:0:0
192,184,285818,1,0,0:0:0
192,184,285936,2,0,B|209:218|252:246|302:242|328:220,1,159.999995231628
376,104,286642,1,8,0:0:0
400,232,286995,1,0,0:0:0
240,336,287348,1,0,0:0:0
88,216,287701,1,0,0:0:0
208,64,288053,2,0,B|266:58|294:117,1,106.666663487752,8|0,0:0|0:0,0:0:0
224,224,288642,1,0,0:0:0
224,224,288759,6,0,B|256:238|305:227|338:189|345:150,1,159.999995231628
432,152,289348,1,0,0:0:0
432,152,289465,2,0,B|435:117|408:75|361:57|322:64,1,159.999995231628,8|0,0:0|0:0,0:0:0
200,112,290171,1,0,0:0:0
288,208,290524,1,0,0:0:0
104,272,290877,1,8,0:0:0
296,264,291230,1,0,0:0:0
176,320,291583,6,0,B|186:356|224:390|273:396|304:378,1,159.999995231628
272,296,292171,1,0,0:0:0
272,296,292289,2,0,B|282:262|324:234|374:238|407:259,1,159.999995231628,8|0,0:0|0:0,0:0:0
496,352,292995,1,0,0:0:0
392,280,293348,1,0,0:0:0
440,160,293701,1,8,0:0:0
344,80,294053,2,0,B|289:60|248:109,1,106.666663487752,0|0,0:0|0:0,0:0:0
249,109,294406,5,0,0:0:0
96,224,294759,1,0,0:0:0
176,48,295112,1,8,0:0:0
128,168,295465,2,0,B|159:190|209:194|251:168|265:135,1,159.999995231628
336,32,296171,2,0,B|393:33|414:95,1,106.666663487752,0|0,0:0|0:0,0:0:0
440,264,296877,2,0,B|383:278|347:223,1,106.666663487752,0|0,0:0|0:0,0:0:0
348,225,297230,5,0,0:0:0
224,200,297583,2,0,B|255:214|304:206|339:169|347:131,1,159.999995231628,0|8,0:0|0:0,0:0:0
232,72,298289,1,0,0:0:0
224,200,298642,1,0,0:0:0
464,104,299348,2,0,B|429:181|348:123|347:158|290:116|290:151|202:78|168:156,1,319.999990463257,8|0,0:0|0:0,0:0:0
172,149,300759,1,8,0:0:0
296,176,301112,5,0,0:0:0
320,304,301465,1,0,0:0:0
64,344,302171,1,8,0:0:0
64,344,302877,2,0,B|101:356|150:344|182:306|185:271,1,159.999995231628,0|8,0:0|0:0,0:0:0
256,168,303936,1,0,0:0:0
480,40,304289,2,0,B|443:28|394:40|362:78|359:113,1,159.999995231628
256,216,305348,5,0,0:0:0
256,192,306053,12,0,308524,0:0:0
192,136,314524,5,0,0:0:0
320,152,314877,1,0,0:0:0
360,272,315230,1,0,0:0:0
232,256,315583,1,0,0:0:0
96,184,315936,2,0,B|112:144|152:128|152:128|184:184|256:152,2,186.666661103567
256,192,317171,12,0,321348,0:0:0
