osu file format v9

[General]
AudioFilename: Duca - Clover.mp3
AudioLeadIn: 0
PreviewTime: 58773
Countdown: 0
SampleSet: Soft
StackLeniency: 0.5
Mode: 0
LetterboxInBreaks: 0

[Editor]
Bookmarks: 1290,14811,28332,41853,58754,72276,89177,99318,112839,126360,143261,156783,173684,188895,202416,215938,229459
DistanceSpacing: 0.8
BeatDivisor: 4
GridSize: 4

[Metadata]
Title:Clover
Artist:Duca
Creator:Cilvery
Version:Collab
Source:your diary
Tags:Hentai eroge kantoku cuffs cube visual novel vn opening Melophobia Ryafuka MiLu KSHR Patchouli Suzully Hinacle

[Difficulty]
HPDrainRate:7
CircleSize:4
OverallDifficulty:7
ApproachRate:8
SliderMultiplier:1.9
SliderTickRate:2

[Events]
//Background and Video events
0,0,"BG.png"
//Break Periods
2,89362,98553
2,173869,188130
//Storyboard Layer 0 (Background)
//Storyboard Layer 1 (Fail)
//Storyboard Layer 2 (Pass)
//Storyboard Layer 3 (Foreground)
Sprite,Foreground,Centre,"Name\Melophobia.png",320,240 S,0,1275,,1 F,0,1275,1486,0,1 M,0,1275,143246,177,87 F,0,1486,14585,1 F,0,14585,14796,1,0 F,0,14796,58739,0 F,0,58739,58951,0,1 F,0,58951,72049,1 F,0,72049,72261,1,0 F,0,72261,126345,0 F,0,126345,126556,0,1 F,0,126556,143035,1 F,0,143035,143246,1,0
Sprite,Foreground,Centre,"Name\Cilvery.png",320,240 F,0,14796,15007,0,1 M,0,14796,202401,142,89 F,0,15007,28106,1 F,0,28106,28317,1,0 F,0,28317,72261,0 F,0,72261,72472,0,1 F,0,72472,88951,1 F,0,88951,89162,1,0 F,0,89162,188880,0,0.01421803 F,0,188880,189092,0.01421803,1 F,0,189092,202190,1 F,0,202190,202401,1,0
Sprite,Foreground,Centre,"Name\Ryafuka.png",320,240 F,0,28317,28528,0,1 M,0,28317,238951,139,89 F,0,28528,41627,1 F,0,41627,41838,1,0 F,0,41838,143246,0 F,0,143246,143458,0,1 F,0,143458,156556,1 F,0,156556,156768,1,0 F,0,156768,229444,0,0.03773582 F,0,229444,229655,0.03773582,1 F,0,229655,238739,1 F,0,238739,238951,1,0
Sprite,Foreground,Centre,"Name\MiLu.png",320,240 F,0,41838,42049,0,1 M,0,41838,173669,107,85,106,85 F,0,42049,58528,1 F,0,58528,58739,1,0 F,0,58739,156768,0,0.04265404 F,0,156768,156979,0.04265404,1 F,0,156979,173458,1 F,0,173458,173669,1,0
Sprite,Foreground,Centre,"Name\KSHR.png",320,240 F,0,99303,99514,0,1 M,0,99303,215923,101,84 F,0,99514,112613,1,0.9533579 F,0,112613,112824,0.9533579,0 F,0,112824,202401,0 F,0,202401,202613,0,1 F,0,202613,215711,1 F,0,215711,215923,1,0
Sprite,Foreground,Centre,"Name\Patchouli.png",320,240 F,0,112824,113035,0,1 M,0,112824,229444,174,91 F,0,113035,126134,1 F,0,126134,126345,1,0 F,0,126345,215923,0 F,0,215923,216134,0,1 F,0,216134,229232,1 F,0,229232,229444,1,0
//Storyboard Sound Samples
//Background Colour Transformations
3,100,255,255,255

[TimingPoints]
-415,422.535211267606,4,2,1,40,1,0
1169,-200,4,2,1,40,0,0
2965,-200,4,2,1,60,0,0
6768,-200,4,2,1,50,0,0
7190,-200,4,2,1,60,0,0
7824,-100,4,2,1,70,0,0
13211,-100,4,2,1,50,0,0
13423,-100,4,2,1,70,0,0
14162,-100,4,2,1,60,0,0
14268,-100,4,2,1,70,0,0
35077,-100,4,2,2,70,0,0
35289,-100,4,2,1,70,0,0
36768,-100,4,2,2,70,0,0
36979,-100,4,2,1,70,0,0
38458,-100,4,2,2,70,0,0
38563,-100,4,2,1,70,0,0
41732,-133.333333333333,4,2,1,50,0,0
48282,-100,4,2,1,50,0,0
48704,-100,4,2,1,70,0,0
58739,-100,4,2,1,80,0,1
69937,-100,4,2,1,70,0,1
70254,-100,4,2,1,80,0,1
70676,-100,4,2,1,70,0,1
70782,-100,4,2,1,80,0,1
72155,-100,4,2,1,80,0,0
72261,-100,4,2,1,80,0,1
75430,-100,4,2,1,70,0,1
75641,-100,4,2,1,80,0,1
78915,-100,4,2,2,80,0,1
79127,-100,4,2,1,80,0,1
83986,-100,4,2,1,50,0,1
84197,-100,4,2,1,80,0,1
85782,-100,4,2,2,100,0,0
85887,-100,4,2,1,100,0,0
86099,-100,4,2,2,100,0,0
86310,-100,4,2,2,50,0,0
86521,-100,4,2,1,100,0,0
89162,-100,4,2,1,70,0,0
126239,-133.333333333333,4,2,1,50,0,0
133000,-100,4,2,1,60,0,0
139655,-100,4,2,1,70,0,0
141556,-100,4,1,1,40,0,0
142085,-100,4,2,1,70,0,0
143246,-100,4,2,1,80,0,1
155183,-100,4,2,1,70,0,1
155606,-100,4,2,1,80,0,1
170289,-100,4,2,1,60,0,0
171028,-100,4,2,1,40,0,0
188775,-100,4,2,1,60,0,0
188880,-100,4,2,1,80,0,0
188986,-100,4,2,2,80,0,0
189831,-100,4,2,1,80,0,0
190042,-100,4,2,2,80,0,0
190676,-100,4,2,1,80,0,0
190993,-100,4,2,2,80,0,0
191521,-100,4,2,1,80,0,0
191732,-100,4,2,2,80,0,0
193211,-100,4,2,1,80,0,0
193423,-100,4,2,2,80,0,0
194056,-100,4,2,1,80,0,0
194268,-100,4,2,2,80,0,0
194479,-100,4,2,1,80,0,0
194690,-100,4,2,2,80,0,0
195746,-100,4,2,1,80,0,0
195958,-100,4,2,2,80,0,0
197225,-100,4,2,1,80,0,0
197437,-100,4,2,2,80,0,0
197648,-100,4,2,2,60,0,0
197859,-100,4,2,2,80,0,0
198070,-100,4,2,2,50,0,0
198282,-100,4,2,2,80,0,0
198599,-100,4,2,2,100,0,0
199021,-100,4,2,1,80,0,0
202401,-100,4,2,1,80,0,1
213493,-100,4,2,1,70,0,1
213915,-100,4,2,1,80,0,1
215817,-100,4,2,1,80,0,0
215923,-100,4,2,1,80,0,1
227437,-100,4,2,1,40,0,1
227754,-100,4,2,1,80,0,1
227859,-100,4,2,1,90,0,1
228282,-100,4,2,1,80,0,1
229444,-100,4,2,1,50,0,0
231134,-100,4,2,1,30,0,0
231345,-100,4,2,1,60,0,0
238951,-100,4,2,1,30,0,0

[Colours]
Combo1 : 179,179,217
Combo2 : 254,194,210
Combo3 : 224,193,255
Combo4 : 189,216,238

[HitObjects]
76,312,1275,6,0,B|144:236|252:248,1,190,4|2
428,144,2965,2,0,B|360:68|252:80,1,190,0|2
92,208,4655,2,0,B|188:184|188:232|284:204,1,190,0|2
332,116,5923,1,0
440,148,6345,5,4
460,268,6768,1,8
352,348,7190,1,8
220,288,7613,1,2
216,152,8035,6,0,B|128:96|28:120,1,190,4|8
0,216,8669,1,0
88,268,8880,2,0,B|96:316|72:364,2,95,2|0|8
192,248,9514,6,0,B|280:192|380:216,1,190,2|0
460,272,10148,1,8
364,312,10359,2,0,B|340:212|388:112,1,190,2|2
324,40,10993,1,8
232,92,11204,5,0
232,92,11310,1,0
232,92,11415,2,0,B|252:140|248:188,1,95,2|0
212,272,11838,1,8
120,256,12049,2,0,B|96:308|41:302,1,95,2|0
40,208,12472,1,2
136,372,12683,1,8
212,272,12894,6,0,B|268:228|352:240,1,142.5,2|8
380,268,13317,2,0,B|428:260|457:216,1,95,8|8
440,116,13739,1,0
336,120,13951,2,0,B|344:8,1,95,2|8
208,128,14373,2,0,B|216:240,1,95,8|0
152,308,14796,6,0,B|200:352|288:340|308:256,1,190,4|8
328,164,15430,2,0,B|340:108|392:96,1,95
424,196,15852,2,0,B|472:176|516:208,1,95,0|8
456,292,16275,2,0,B|392:304|352:264|352:264|280:312,1,190
200,364,16908,1,8
224,164,17120,6,0,B|280:164|308:220,1,95,0|0
212,264,17542,2,0,B|156:264|128:208,1,95,0|8
132,112,17965,1,0
224,164,18176,2,0,B|264:212|356:208|380:132,1,190,0|8
288,80,18810,1,0
224,164,19021,2,0,B|208:216|140:228,1,95
288,80,19444,2,0,B|316:32|368:36,2,95,8|0|0
368,144,20077,5,2
256,260,20289,1,8
148,144,20500,1,2
312,204,20711,1,0
256,84,20923,1,2
200,204,21134,1,8
312,204,21345,1,2
408,244,21556,6,0,B|388:316|300:336|248:292,1,190,4|8
408,244,22190,2,0,B|464:248|480:304,1,95
312,204,22613,1,0
408,244,22824,1,8
212,180,23035,2,0,B|136:128|136:256|28:204,1,190
312,204,23669,1,8
240,280,23880,2,0,B|224:340|152:356,1,95
144,248,24303,6,0,B|96:276|40:248,1,95,0|8
216,172,24725,2,0,B|232:96|320:72|376:124,1,190,0|0
312,204,25359,2,0,B|296:256|240:272,2,95,8|0|0
288,100,25993,2,0,B|256:56|192:68,1,95,0|8
312,204,26415,2,0,B|344:248|408:236,1,95
216,172,26838,5,2
312,204,27049,1,8
288,100,27261,1,2
244,244,27472,1,0
360,140,27683,1,2
208,92,27894,1,8
244,244,28106,1,2
148,280,28317,6,0,B|213:368|317:320,1,190,4|8
360,140,28951,2,0,B|328:176|320:236,1,95
476,300,29373,2,0,B|460:254|412:217,1,95,2|8
184,184,29796,6,0,B|240:244|324:224|324:224|304:276,1,190
200,352,30430,1,8
92,260,30641,1,0
84,220,30746,1,0
92,180,30852,2,0,B|140:160|200:192,1,95,2|0
304,308,31275,6,0,B|392:376|480:312,2,190,8|0|8
244,224,32331,1,0
240,120,32542,1,0
340,88,32754,1,2
404,172,32965,1,8
344,256,33176,6,0,B|368:300|416:316,1,95,0|0
300,352,33599,1,2
200,324,33810,2,0,B|176:280|128:264,1,95,8|2
28,292,34232,5,0
76,156,34444,1,2
28,292,34655,1,8
76,156,34866,2,0,B|40:120|40:56,1,95,0|4
132,20,35289,5,0
216,136,35500,1,8
76,156,35711,1,0
8,236,35923,2,0,B|44:272|112:268,1,95,0|2
188,224,36345,1,8
328,224,36556,5,0
336,268,36662,1,0
332,312,36768,2,0,B|284:336|228:312,1,95,4|0
156,256,37190,1,8
172,152,37401,2,0,B|72:112,2,95,0|0|2
272,124,38035,6,0,B|356:68|472:128,2,190,8|4|8
248,224,39092,1,0
248,224,39197,1,0
248,224,39303,1,0
64,260,39514,5,2
108,352,39725,2,0,B|164:344|196:296,1,95,8|2
128,132,40148,2,0,B|106:184|132:236,1,95,0|0
189,307,40570,1,8
292,304,40782,1,0
364,228,40993,5,2
364,188,41415,1,2
364,160,41838,6,0,B|300:112|228:128,1,142.499995753169,4|0
204,184,42472,1,0
168,236,42683,2,0,B|101:200|79:130,1,142.499995753169,8|0
224,68,43528,6,0,B|304:64|340:136,1,142.499995753169,2|0
320,196,44162,1,0
284,248,44373,2,0,B|208:260,1,71.2499978765846,8|0
132,192,44796,2,0,B|208:180,1,71.2499978765846
264,168,45218,6,0,B|292:236|280:308,1,142.499995753169,2|0
232,352,45852,2,0,B|192:344|168:324,1,71.2499978765846,0|8
108,344,46275,1,0
112,280,46486,1,0
172,256,46697,1,0
228,288,46908,6,0,B|292:312|368:288,2,142.499995753169,2|0|8
228,224,47965,2,0,B|220:188|196:156,1,71.2499978765846
104,120,48387,5,0
104,120,48493,1,0
104,120,48599,2,0,B|176:64|288:88,1,190,4|8
372,144,49232,1,0
284,292,49444,6,0,B|260:252|264:200,1,95,2|0
400,156,49866,2,0,B|424:196|420:248,1,95,8|0
296,368,50289,2,0,B|224:380|184:304|220:232,2,190,2|8|0
400,352,51345,1,0
416,248,51556,1,8
324,196,51768,1,0
252,272,51979,6,0,B|208:296|160:292,1,95,4|0
76,232,52401,1,8
76,232,52613,2,0,B|172:232|208:116,1,190,2|0
436,232,53246,1,8
436,232,53458,2,0,B|340:232|304:116,1,190,2|0
388,124,54092,1,8
388,124,54303,5,2
216,124,54514,1,0
356,28,54725,1,2
292,188,54937,1,8
248,20,55148,2,0,B|212:52|160:48,1,95,4|0
64,92,55570,1,0
64,92,55782,2,0,B|56:188,1,95,8|0
152,292,56204,2,0,B|144:197,1,95,2|0
140,92,56627,1,8
240,192,56838,1,2
216,92,57049,5,0
257,82,57155,1,0
298,92,57261,1,0
330,119,57366,1,0
351,155,57472,1,2
352,197,57577,1,0
343,238,57683,1,0
316,271,57789,1,0
277,288,57894,1,2
88,200,58317,1,2
400,68,58739,6,0,B|436:104|443:151,1,95,4|0
448,256,59162,1,8
388,340,59373,1,0
388,340,59585,2,0,B|288:292|176:320,1,190,2|8
100,328,60218,1,0
24,256,60430,6,0,B|8:212|11:162,1,95,2|0
148,32,60852,2,0,B|164:76|161:126,1,95,8|0
140,252,61275,2,0,B|240:204|338:229,1,190,2|8
396,304,61908,1,0
268,130,62120,6,0,B|268:78|308:47,1,95,2|0
324,226,62542,2,0,B|369:252|375:302,1,95,8|0
213,226,62965,2,0,B|167:251|121:232,1,95,2|0
80,209,63282,1,0
80,209,63387,1,8
72,104,63599,1,0
176,92,63810,6,0,B|212:56|263:62,1,95,2|0
404,144,64232,2,0,B|352:204|275:193,1,142.5,8|0
232,168,64655,1,2
95,165,64866,1,0
51,294,65077,1,8
160,376,65289,1,0
272,296,65500,6,0,B|317:270|381:278,1,95,2|0
484,176,65923,2,0,B|439:150|392:156,1,95,8|0
180,276,66345,2,0,B|225:302|272:296,1,95,2|0
369,258,66768,1,8
393,157,66979,6,0,B|411:112|396:61,1,95,0|2
253,18,67401,2,0,B|235:63|250:114,1,95,0|8
297,217,67824,2,0,B|197:187|109:242,1,190,2|0
40,312,68458,1,8
172,360,68669,1,0
304,312,68880,6,0,B|312:260|296:216,1,95,2|0
332,120,69303,1,8
224,44,69514,2,0,B|216:96|231:137,1,95,2|0
400,200,69937,1,8
224,44,70148,1,8
136,144,70359,1,2
20,80,70570,5,0
20,80,70676,1,8
20,80,70782,1,0
20,212,70993,1,8
136,280,71204,1,2
248,212,71415,1,8
272,176,71521,1,8
312,160,71627,1,0
356,164,71732,1,0
392,188,71838,1,8
188,144,72261,6,0,B|112:164|52:96|68:28,2,190,4|8|0
272,84,73317,1,0
272,84,73423,1,0
272,84,73528,2,0,B|312:48|376:72,1,95,8|0
256,228,73951,1,2
256,228,74373,2,0,B|240:296|148:316|100:264,1,190,8|0
168,188,75007,1,0
252,124,75218,2,0,B|308:116|340:168,1,95,8|10
256,228,75641,6,0,B|228:276|184:284|184:284|184:336|144:368,1,190,4|8
80,284,76275,1,0
80,284,76380,1,0
80,284,76486,2,0,B|-16:284,1,95,2|0
256,228,76908,2,0,B|300:256|352:236,2,95,8|0|0
308,140,77542,1,0
212,100,77754,2,0,B|168:72|116:92,2,95,8|0|0
160,192,78387,1,0
160,192,78493,1,0
160,192,78599,6,0,B|220:220|272:188|272:188|320:256,1,190,8|4
376,332,79232,1,0
460,272,79444,2,0,B|500:240,2,47.5,8|0|0
376,332,79866,1,0
280,296,80077,2,0,B|240:256|184:276,2,95,0|8|0
216,376,80711,6,0,B|256:188,1,190,0|8
164,108,81345,1,0
44,128,81556,1,0
0,244,81768,2,0,B|60:272|112:224,1,95,0|8
316,116,82190,2,0,B|240:164|240:164|212:112|164:108,1,190
144,212,82824,1,8
144,212,82930,1,0
144,212,83035,2,0,B|168:268|224:268,1,95,2|0
316,116,83458,2,0,B|316:4,1,95,2|10
428,260,83880,6,0,B|428:372,1,95,2|2
260,288,84303,2,0,B|160:288,2,95,8|8|0
256,192,84937,2,0,B|308:192|336:232|336:232|356:180|408:164,1,190,2|8
508,132,85570,1,0
256,92,85782,6,0,B|180:92|140:164|164:232,1,190,4|0
256,192,86415,1,6
256,192,86521,12,2,89162
260,160,99303,38,0,B|292:196|344:204,1,95,4|0
344,100,99725,1,8
252,52,99937,2,0,B|204:56|168:96,1,95,0|0
40,136,100359,2,0,B|67:175|120:186,1,95,0|8
220,188,100782,2,0,B|204:296|92:308,1,190
93,307,101415,1,8
236,336,101627,6,0,B|280:348|332:348,1,95
392,216,102049,2,0,B|441:215|485:227,2,95,0|8|0
432,312,102683,2,0,B|476:224|460:128,1,190,0|8
380,60,103317,1,0
284,100,103528,2,0,B|240:188|256:284,1,190,0|8
168,344,104162,6,0,B|124:364|72:364,1,95,0|0
100,260,104584,2,0,B|52:251|9:221,2,95,0|8|2
152,168,105218,2,0,B|144:116|156:68,1,95,0|2
300,20,105641,2,0,B|308:72|296:120,1,95,8|2
240,200,106063,6,0,B|256:252|300:284,1,95,4|0
396,252,106486,1,8
240,200,106697,2,0,B|192:212|164:256,1,95
292,276,107120,2,0,B|263:316|271:372,1,95,0|8
396,344,107542,2,0,B|452:272|440:164,1,190,0|0
376,80,108176,1,8
304,156,108387,6,0,B|260:176|212:172,2,95
284,52,109021,1,8
184,84,109232,2,0,B|184:172|240:172|240:268,1,190
136,248,109866,2,0,B|92:276|76:320,2,95,8|0|0
180,344,110500,1,0
284,356,110711,1,8
364,288,110923,2,0,B|396:232|340:184|276:196|264:252,1,190,0|2
364,288,111556,6,0,B|416:296|456:268,1,95,8|2
428,168,111979,2,0,B|464:136|472:84,1,95,0|2
324,52,112401,2,0,B|288:84|280:136,1,95,8|2
268,262,112824,6,0,B|217:255|186:212,1,95
165,132,113246,1,8
102,191,113458,2,0,B|69:230|82:287,1,95
248,157,113880,2,0,B|264:102|224:61,1,95,0|8
16,26,114303,2,0,B|55:117|165:132,1,190
296,112,114937,1,8
390,156,115148,5,0
396,179,115254,1,0
396,202,115359,2,0,B|395:254|369:298,1,95
311,232,115782,1,8
175,335,115993,1,0
224,263,116204,6,0,B|128:239,1,95
131,239,116627,1,8
243,176,116838,2,0,B|335:144,1,95
186,55,117261,2,0,B|86:28,1,95,0|8
265,93,117683,2,0,B|312:70|317:12,1,95
413,247,118106,2,0,B|449:334,2,95,0|8|0
356,182,118739,5,0
274,153,118951,1,0
188,160,119162,1,8
106,135,119373,2,0,B|61:106|59:54,1,95,0|2
59,56,120007,1,10
122,219,120218,6,0,B|106:271|53:286,1,95,2|0
236,89,120641,2,0,B|289:91|330:118,2,95,2|8|0
354,251,121275,6,0,B|299:165|194:164,1,190,2|10
404,180,121908,2,0,B|453:165|472:113,1,95,2|0
470,116,122331,1,0
342,119,122542,1,10
315,37,122754,1,0
264,154,122965,6,0,B|313:257|248:355,1,190,0|8
198,275,123599,2,0,B|151:257|93:273,1,95
48,205,124021,1,0
210,150,124232,1,8
83,128,124444,1,0
138,192,124655,5,8
138,192,124761,1,0
138,192,124866,1,0
287,39,125077,2,0,B|309:87|289:140,1,95,8|0
274,171,125394,1,8
342,222,125606,2,0,B|392:207,1,47.5,8|0
295,294,125923,2,0,B|245:309,3,47.5,8|0|0|0
216,336,126345,6,0,B|148:296|76:319,1,142.499995753169,4|0
20,248,126979,1,2
100,200,127190,2,0,B|108:124|56:60,1,142.499995753169,8|0
12,144,127824,2,0,B|60:144|60:144|100:128|100:128|176:128,1,142.499995753169,2|8
236,84,128458,1,2
404,156,128880,2,0,B|356:156|356:156|316:172|316:172|240:172,1,142.499995753169,8|0
236,84,129514,1,2
152,128,129725,6,0,B|116:196|128:284,1,142.499995753169,0|0
240,352,130359,1,2
240,352,130570,2,0,B|276:284|264:196,1,142.499995753169,8|0
204,144,131204,1,0
136,84,131415,6,0,B|96:84|56:124,1,71.2499978765846,2|8
204,144,131838,1,0
296,160,132049,2,0,B|336:160|376:120,1,71.2499978765846,0|8
444,92,132472,2,0,B|476:112|483:149,1,71.2499978765846
492,240,132894,1,2
408,276,133106,6,0,B|372:316|304:320,1,95,4|0
236,260,133528,2,0,B|184:272|136:248,1,95,8|0
116,148,133951,2,0,B|60:152|16:244|52:304,1,190,2|8
160,356,134584,1,0
236,260,134796,2,0,B|256:212|236:168,1,95,2|0
144,216,135218,1,8
144,216,135430,2,0,B|144:104,1,95,2|0
144,16,135852,1,0
336,76,136063,2,0,B|372:116|368:172,1,95,8|0
348,200,136380,5,0
348,200,136486,2,0,B|348:300,1,95,4|0
264,356,136908,1,8
164,320,137120,1,2
164,320,137542,1,0
92,220,137754,1,8
128,104,137965,2,0,B|200:48|324:60,1,190,4|0
400,164,138599,1,8
332,244,138810,2,0,B|296:208|296:152,1,95,2|0
464,84,139232,2,0,B|500:120|500:176,1,95,0|8
384,328,139655,6,0,B|292:348|292:300|192:328,1,190,4|0
96,352,140289,1,8
96,352,140500,1,0
32,268,140711,1,0
100,188,140923,2,0,B|108:132|84:92,1,95,2|8
172,36,141345,5,4
276,52,141556,1,0
312,72,141662,1,0
340,104,141768,1,0
352,144,141873,1,0
352,188,141979,1,0
288,268,142190,1,0
200,216,142401,2,0,B|152:196|92:220,1,95,2|0
156,340,142824,1,0
172,340,142930,1,0
188,340,143035,1,0
204,340,143141,1,0
220,340,143246,6,0,B|268:360|328:336,1,95,6|0
400,284,143669,1,8
316,220,143880,1,0
437,86,144092,2,0,B|438:141|412:176,1,95,2|0
144,276,144514,5,8
260,132,144725,1,0
316,220,144937,2,0,B|268:212|216:220,1,95,2|0
124,180,145359,5,8
32,72,145570,1,0
124,180,145782,2,0,B|172:188|224:180,1,95,2|0
372,292,146204,5,8
288,356,146415,1,0
192,312,146627,2,0,B|136:256|44:288,1,142.5,2|0
36,316,147049,1,8
176,136,147261,1,0
226,226,147472,6,0,B|230:278|186:318,1,95,2|0
156,136,147894,1,8
316,156,148106,1,0
316,156,148211,1,0
316,156,148317,6,0,B|396:96|495:147,2,190,2|8|2
244,232,149373,1,0
156,292,149585,2,0,B|112:260|40:272,1,95,8|0
32,296,149901,1,0
32,296,150007,5,2
132,72,150430,1,8
360,168,150852,2,0,B|404:196|464:180,2,95,2|0|8
280,100,151486,2,0,B|156:88,1,95,0|2
120,172,151908,1,0
152,272,152120,2,0,B|108:300|48:284,2,95,8|0|2
152,272,152965,5,8
280,336,153176,1,0
340,208,153387,2,0,B|384:188|436:204,1,95,2|0
212,144,153810,2,0,B|168:124|116:140,2,95,8|2|0
212,144,154444,2,0,B|224:116|224:116|248:96|248:44,1,95,0|8
144,44,154866,5,0
56,128,155077,1,2
72,252,155289,1,8
164,336,155500,2,0,B|208:308|272:328,1,95,8|0
428,172,155923,1,8
436,212,156028,1,8
428,256,156134,2,0,B|384:284|320:264,1,95,0|8
256,200,156556,1,0
120,156,156768,6,0,B|144:200|120:252,1,95,4|0
256,200,157190,2,0,B|282:157|339:152,1,95,8|0
224,60,157613,2,0,B|173:58|140:11,1,95
120,156,158035,1,8
156,256,158246,1,0
256,200,158458,2,0,B|308:160|396:192|400:264,1,190,2|8
336,344,159092,1,0
336,344,159197,1,0
336,344,159303,2,0,B|240:336,1,95,2|0
61,248,159725,2,0,B|156:256,1,95,10|0
288,200,160148,6,0,B|212:208|168:136,1,142.5,2|0
164,96,160570,1,8
256,44,160782,1,0
344,100,160993,2,0,B|368:192,1,95,2|0
264,292,161415,2,0,B|288:200,1,95,8|0
264,164,161732,1,0
240,128,161838,6,0,B|188:144|144:132,1,95,2|0
60,72,162261,1,8
60,72,162472,1,0
201,94,162683,2,0,B|244:120|264:164,1,95,2|0
256,308,163106,1,8
256,308,163528,6,0,B|300:364|388:344|404:272,1,190,4|8
328,200,164162,1,0
328,200,164268,1,0
328,200,164373,2,0,B|312:152|320:104,1,95,2|0
464,104,164796,2,0,B|453:153|422:191,1,95,10|0
228,236,165218,6,0,B|124:212|44:264,1,190,2|8
120,336,165852,1,0
120,336,165958,1,0
120,336,166063,2,0,B|172:328|220:340,1,95
312,372,166486,1,8
384,296,166697,1,0
328,208,166908,6,0,B|312:160|324:112,1,95,2|0
184,208,167331,2,0,B|200:160|188:112,1,95,8|0
256,240,167754,1,2
356,136,167965,1,8
256,32,168176,1,8
156,136,168387,1,0
256,240,168599,5,2
328,208,168810,1,8
288,140,169021,1,10
216,172,169232,1,0
256,240,169444,2,0,B|244:284,2,47.5,8|0|0
288,140,169866,2,0,B|300:96,2,47.5,8|0|0
356,264,170289,6,0,B|296:264|256:356|256:356|216:264|152:264,1,285,2|0
256,192,171028,12,4,173669
72,120,188880,6,0,B|100:68|168:76,1,95,4|0
256,84,189303,2,0,B|304:92|324:144,1,95,4|0
368,240,189725,2,0,B|396:280|388:344|344:372,1,142.5
312,332,190148,2,0,B|276:288|220:300,1,95,4|0
124,320,190570,2,0,B|48:340|-12:276|4:200,1,190,0|4
108,208,191204,1,0
340,56,191415,2,0,B|304:96|256:84|256:84|252:144|196:160,1,190,0|4
276,0,192049,1,0
108,208,192261,6,0,B|84:160|112:108,1,95,0|0
340,56,192683,2,0,B|364:104|336:156,1,95,4|0
244,104,193106,2,0,B|444:104,1,190,0|4
108,208,193739,1,0
212,196,193951,2,0,B|216:268|156:324|88:316,2,190,0|4|0
200,92,195007,1,0
296,136,195218,2,0,B|324:180|308:232,1,95,4|0
212,196,195641,6,0,B|124:144|124:252|24:204,1,190,0|4
296,136,196275,1,0
172,284,196486,1,0
296,135,196697,2,0,B|296:231,1,95,0|4
172,284,197120,2,0,B|172:88,1,190
260,36,197754,1,4
296,136,197965,1,0
388,84,198176,1,4
408,188,198387,1,0
112,324,198599,6,0,B|168:348|220:300,1,95,6|2
132,140,199021,2,0,B|160:188|140:252,2,95,4|0|0
44,196,199655,2,0,B|16:148|36:84,2,95,4|0|0
132,140,200289,1,4
212,76,200500,1,0
312,112,200711,6,0,B|360:132|368:188,1,95,0|4
360,288,201134,1,0
212,76,201345,2,0,B|228:16|284:4,1,95,0|4
228,184,201768,1,0
228,184,201873,1,0
228,184,201979,1,2
140,244,202190,1,0
40,212,202401,6,0,B|12:252|12:304,1,95,4|0
96,364,202824,1,8
184,312,203035,1,0
280,352,203246,2,0,B|324:292|312:216,1,142.5,2|0
304,192,203669,6,0,B|348:168|400:172,1,95,8|0
496,288,204092,2,0,B|446:295|398:273,1,95,2|0
356,88,204514,2,0,B|405:80|453:102,1,95,8|0
508,184,204937,1,2
224,208,205359,6,0,B|188:240|172:288,1,95,8|0
264,340,205782,2,0,B|324:296|400:320,1,142.5,2|0
420,336,206204,1,8
296,132,206415,1,0
224,208,206627,2,0,B|180:232|132:224,1,95,2|0
36,120,207049,6,0,B|12:212,1,95,8|0
56,308,207472,2,0,B|92:236|168:228,1,142.5,2|0
192,232,207894,1,8
248,320,208106,1,0
316,240,208317,2,0,B|332:144,1,95,2|0
336,120,208634,1,0
340,96,208739,1,8
228,28,208951,1,0
331,146,209162,6,0,B|412:160|460:100,1,142.5,2|0
472,76,209585,1,8
512,172,209796,2,0,B|476:264,1,95,0|2
388,316,210218,1,0
316,240,210430,1,8
260,328,210641,6,0,B|216:352|168:348,1,95,0|2
112,260,211063,1,0
8,268,211275,2,0,B|0:320|24:368,1,95,8|0
224,224,211697,2,0,B|264:156|240:72,1,142.5,2|0
228,64,212120,2,0,B|184:92|128:88,1,95,8|0
40,48,212542,5,2
40,48,212754,2,0,B|32:96|16:152,1,95,0|8
76,304,213176,2,0,B|84:256|100:200,1,95,0|2
180,148,213599,1,8
76,304,213810,1,8
192,344,214021,1,0
296,272,214232,5,10
296,272,214338,1,0
296,272,214444,1,0
408,320,214655,1,8
472,216,214866,2,0,B|488:168|480:116,2,95,8|0|8
368,192,215500,1,8
356,168,215606,1,0
344,144,215711,1,0
332,120,215817,1,0
320,96,215923,6,0,B|200:72,1,95,4|0
204,159,216345,2,0,B|97:188,1,95,8|0
35,145,216768,2,0,B|136:157|105:227|196:244,1,190,0|8
271,214,217401,1,0
261,299,217613,2,0,B|239:348|169:369,1,95
293,123,218035,2,0,B|346:136|362:194,1,95,8|0
347,270,218458,1,0
202,145,218669,1,0
385,119,218880,6,0,B|429:93|437:35,1,95,8|0
233,56,219303,2,0,B|214:146|298:152|250:249,1,190,0|8
179,197,219937,1,0
106,151,220148,2,0,B|80:198|110:253,1,95,0|0
255,237,220570,6,0,B|278:193|249:146,1,95,8|0
104,242,220993,2,0,B|157:319|189:257|247:339,1,142.5,0|0
248,347,221415,1,8
316,294,221627,2,0,B|414:326,2,95
477,164,222261,2,0,B|385:186,1,95,8|0
163,34,222683,6,0,B|212:34|212:34|299:69,1,142.5,0|0
335,91,223106,1,8
275,151,223317,2,0,B|255:197|274:251,1,95
356,255,223739,2,0,B|379:208|436:199,2,95,0|8|0
435,286,224373,5,0
309,327,224585,1,0
289,314,224690,1,0
268,301,224796,1,8
191,338,225007,2,0,B|100:312,1,95
204,238,225430,2,0,B|247:217|257:156,2,95,0|8|0
154,20,226063,6,0,B|183:111,1,95
311,113,226486,2,0,B|282:203,1,95,8|0
204,238,226908,1,0
248,72,227120,1,8
367,195,227331,1,8
375,217,227437,1,8
385,238,227542,1,8
395,259,227648,1,8
405,280,227754,1,8
472,332,227965,6,0,B|524:344,2,47.5,8|0|8
305,290,228387,1,0
453,185,228599,2,0,B|482:88,1,95,8|0
402,58,229021,1,8
379,82,229127,1,8
348,93,229232,1,8
314,93,229338,1,8
280,84,229444,1,4
256,192,229549,12,4,231134
44,144,231556,22,0,B|88:120|156:132,1,95,8|0
292,240,231979,2,0,B|248:216|180:228,1,95,2|0
132,304,232401,1,8
228,348,232613,1,0
324,312,232824,6,0,B|244:236|148:284,1,190,2|8
48,264,233458,1,0
56,84,233669,2,0,B|92:120|88:184,1,95,2|0
120,272,234092,2,0,B|70:285|17:249,1,95,8|0
192,128,234514,5,2
328,88,234725,1,2
192,128,234937,2,0,B|216:172|220:236,1,95,10|0
176,356,235359,1,2
292,272,235570,1,2
148,272,235782,1,10
268,352,235993,6,0,B|352:296|460:340,1,190,4|0
488,200,236627,2,0,B|448:232|372:212,1,95,8|0
312,156,237049,5,0
216,340,237472,1,8
24,256,237894,1,0
68,140,238106,1,0
96,116,238211,1,0
132,100,238317,1,8
172,96,238423,1,0
208,100,238528,1,0
244,116,238634,1,0
276,140,238739,2,0,B|300:124|300:124|332:124|364:92,1,95,2|4
