osu file format v13

[General]
AudioFilename: moteyaba_ed.mp3
AudioLeadIn: 1500
PreviewTime: 65213
Countdown: 0
SampleSet: Soft
StackLeniency: 0.7
Mode: 0
LetterboxInBreaks: 0
WidescreenStoryboard: 0

[Editor]
DistanceSpacing: 1.4
BeatDivisor: 4
GridSize: 4
TimelineZoom: 1

[Metadata]
Title:Boku Koi (Short ver.)
TitleUnicode:ボク恋 (ショートver.)
Artist:Duca
ArtistUnicode:Duca
Creator:CloudSplash16
Version:Normal
Source:妹のおかげでモテすぎてヤバい。
Tags:Imouto no Okage de Motesugite Yabai moteyaba hulotte eroge ending ed
BeatmapID:406242
BeatmapSetID:160704

[Difficulty]
HPDrainRate:4
CircleSize:3.5
OverallDifficulty:4
ApproachRate:5
SliderMultiplier:1.1
SliderTickRate:1

[Events]
//Background and Video events
0,0,"bg.jpg",0,0
//Break Periods
//Storyboard Layer 0 (Background)
//Storyboard Layer 1 (Fail)
//Storyboard Layer 2 (Pass)
//Storyboard Layer 3 (Foreground)
//Storyboard Sound Samples
//Background Colour Transformations
3,100,163,162,255

[TimingPoints]
418,491.803278688525,4,2,2,50,1,0
8286,-100,4,2,1,50,0,0
47631,-100,4,2,3,55,0,0
65336,-100,4,2,3,60,0,1
100745,-100,4,2,3,55,0,0
117467,-100,4,2,1,40,0,0
118450,-100,4,2,1,25,0,0
119434,-100,4,2,1,10,0,0

[Colours]
Combo1 : 160,235,255
Combo2 : 255,158,212
Combo3 : 255,216,160
Combo4 : 160,167,255
Combo5 : 255,162,161

[HitObjects]
72,184,418,6,0,P|116:153|170:154,1,110,2|2,0:0|0:0,0:0:0:0:
292,204,1401,2,0,P|319:207|346:204,2,55,2|0|0,0:0|0:0|0:0,0:0:0:0:
252,76,2385,2,0,P|296:45|350:47,2,110,2|2|2,0:0|0:0|0:0,0:0:0:0:
340,324,4352,6,0,P|391:339|442:320,1,110,2|2,0:0|0:0,0:0:0:0:
440,188,5336,2,0,P|414:178|387:174,2,55,2|0|0,0:0|0:0|0:0,0:0:0:0:
320,244,6319,2,0,B|275:240|250:208|250:208|216:208,1,110,2|2,0:0|0:0,0:0:0:0:
108,276,7303,2,0,L|92:356,2,82.5,8|8|4,0:3|0:3|0:3,0:0:0:0:
123,200,8286,6,0,P|121:145|90:101,1,110,6|0,0:0|0:0,0:0:0:0:
148,51,9024,2,0,P|203:45|258:45,1,110,2|2,0:0|0:0,0:0:0:0:
335,50,9762,1,8,0:0:0:0:
404,188,10254,2,0,P|406:240|380:288,1,110,2|0,0:0|0:0,0:0:0:0:
308,320,10991,2,0,P|253:316|200:328,1,110,2|2,0:0|0:0,0:0:0:0:
124,344,11729,1,8,0:0:0:0:
124,344,12221,6,0,L|135:234,1,110,6|0,0:0|0:0,0:0:0:0:
58,240,12958,2,0,L|46:130,1,110,2|2,0:0|0:0,0:0:0:0:
38,53,13696,1,8,0:0:0:0:
187,95,14188,2,0,P|215:99|242:96,1,55,6|6,0:0|0:0,0:0:0:0:
384,40,14926,2,0,L|376:96,1,55,6|6,0:0|0:0,0:0:0:0:
348,244,15663,1,0,0:0:0:0:
348,244,16155,6,0,P|301:271|248:259,1,110,2|8,0:0|0:0,0:0:0:0:
96,272,17139,2,0,L|85:325,2,55,0|2|8,0:0|0:0|0:0,0:0:0:0:
116,196,17877,2,0,B|120:156|96:116|96:116|120:96,1,110,0|0,0:0|0:0,0:0:0:0:
192,96,18614,2,0,P|219:100|246:96,1,55,8|2,0:0|0:0,0:0:0:0:
396,60,19352,1,2,0:0:0:0:
452,112,19598,2,0,P|460:143|456:171,1,55,8|0,0:0|0:0,0:0:0:0:
440,240,20090,5,2,0:0:0:0:
316,332,20581,1,8,0:0:0:0:
192,240,21073,2,0,L|192:184,2,55,0|2|8,0:0|0:0|0:0,0:0:0:0:
136,292,21811,2,0,P|82:296|42:261,1,110,0|0,0:0|0:0,0:0:0:0:
28,184,22549,2,0,L|28:128,1,55,8|2,0:0|0:0,0:0:0:0:
83,75,23040,2,0,P|135:92|187:77,1,110,0|8,0:0|0:0,0:0:0:0:
340,100,24024,5,2,0:0:0:0:
244,220,24516,1,8,0:0:0:0:
339,339,25008,2,0,P|391:355|437:329,1,110,0|8,0:0|0:0,0:0:0:0:
472,260,25745,2,0,L|472:205,1,55,0|2,0:0|0:0,0:0:0:0:
408,64,26483,1,8,0:0:0:0:
340,99,26729,2,0,P|286:107|236:86,1,110,2|2,0:0|0:0,0:0:0:0:
180,32,27467,1,8,0:0:0:0:
180,32,27958,5,2,0:0:0:0:
56,120,28450,1,8,0:0:0:0:
204,168,28942,1,0,0:0:0:0:
140,306,29434,1,8,0:0:0:0:
288,256,29926,2,0,P|334:251|389:295,1,110,2|8,0:0|0:0,0:0:0:0:
456,256,30663,2,0,P|480:207|472:153,1,110,2|10,0:0|0:0,0:0:0:0:
440,84,31401,1,8,0:0:0:0:
440,84,31893,5,2,0:0:0:0:
308,164,32385,1,8,0:0:0:0:
181,77,32877,2,0,P|127:70|83:101,1,110,0|8,0:0|0:0,0:0:0:0:
68,176,33614,2,0,L|68:292,1,110,0|0,0:0|0:0,0:0:0:0:
68,364,34352,1,8,0:0:0:0:
68,364,34844,5,0,0:0:0:0:
196,276,35336,1,8,0:0:0:0:
332,344,35827,1,2,0:0:0:0:
460,256,36319,1,8,0:0:0:0:
460,256,36811,2,0,L|460:146,1,110,0|8,0:0|0:0,0:0:0:0:
443,70,37549,2,0,P|398:39|345:46,1,110,0|0,0:0|0:0,0:0:0:0:
276,80,38286,1,8,0:0:0:0:
148,164,38778,2,0,P|120:166|93:162,2,55,0|2|8,0:0|0:0|0:0,0:0:0:0:
299,191,39762,6,0,P|334:233|332:287,1,110,2|8,0:0|0:0,0:0:0:0:
296,354,40499,1,0,0:0:0:0:
152,296,40991,2,0,L|92:288,1,55,2|8,0:0|0:0,0:0:0:0:
204,176,41729,2,0,P|220:124|199:74,1,110,2|8,0:0|0:0,0:0:0:0:
336,148,42713,1,0,0:0:0:0:
464,64,43204,1,8,0:0:0:0:
336,148,43696,6,0,P|319:199|340:249,1,110,6|8,0:0|0:0,0:0:0:0:
397,196,44434,2,0,P|413:144|392:94,1,110,6|2,0:0|0:0,0:0:0:0:
318,73,45172,1,12,0:0:0:0:
124,196,45909,2,0,P|96:198|69:194,2,55,2|8|2,0:0|0:0|0:0,0:0:0:0:
196,168,46647,1,0,0:0:0:0:
318,73,47139,1,8,0:0:0:0:
439,167,47631,6,0,P|455:219|433:268,1,110,6|8,0:0|0:0,0:0:0:0:
280,276,48614,2,0,P|225:272|171:280,1,110,0|8,0:0|0:0,0:0:0:0:
96,300,49352,1,0,0:0:0:0:
115,225,49598,2,0,P|99:173|50:151,2,110,2|8|0,0:0|0:0|0:0,0:0:0:0:
96,300,50827,2,0,L|80:356,1,55,2|8,0:0|0:0,0:0:0:0:
231,316,51565,6,0,P|286:307|339:318,1,110,2|8,0:0|0:0,0:0:0:0:
412,340,52303,1,2,0:0:0:0:
428,188,52795,2,0,L|432:128,1,55,2|8,0:0|0:0,0:0:0:0:
380,76,53286,2,0,B|328:60|328:60|274:74,1,110,0|0,0:0|0:0,0:0:0:0:
200,100,54024,1,8,0:0:0:0:
280,232,54516,2,0,P|308:234|335:230,2,55,0|8|8,0:0|0:0|0:0,0:0:0:0:
212,196,55254,6,0,P|159:184|110:206,1,110,2|0,0:0|0:0,0:0:0:0:
88,280,55991,2,0,P|102:302|125:318,1,55,8|2,0:0|0:0,0:0:0:0:
199,298,56483,2,0,P|222:249|212:196,1,110,0|8,0:0|0:0,0:0:0:0:
148,152,57221,2,0,L|42:121,1,110,2|0,0:0|0:0,0:0:0:0:
80,53,57958,1,8,0:0:0:0:
155,32,58204,2,0,P|210:28|264:40,1,110,2|2,0:0|0:0,0:0:0:0:
336,68,58942,1,8,0:0:0:0:
336,68,59434,6,0,L|368:20,2,55,2|0|8,0:0|0:0|0:0,0:0:0:0:
299,136,60172,2,0,P|289:189|314:237,1,110,2|2,0:0|0:0,0:0:0:0:
376,284,60909,1,8,0:0:0:0:
314,237,61155,2,0,P|260:226|212:251,1,110,2|2,0:0|0:0,0:0:0:0:
140,276,61893,1,8,0:0:0:0:
65,258,62139,2,0,P|40:209|50:156,1,110,2|8,0:0|0:0,0:0:0:0:
92,92,62877,1,8,0:0:0:0:
92,92,63368,6,0,L|145:102,1,55,8|0,0:0|0:0,0:0:0:0:
223,102,63860,2,0,L|276:91,1,55,2|8,0:0|0:0,0:0:0:0:
354,91,64352,2,0,L|407:101,2,55,2|8|10,0:0|0:0|0:0,0:0:0:0:
228,180,65336,6,0,P|206:229|225:280,1,110,6|8,0:0|0:0,0:0:0:0:
375,318,66319,2,0,L|435:326,2,55,0|2|8,0:0|0:0|0:0,0:0:0:0:
224,344,67303,2,0,P|176:356|120:336,2,110,2|8|0,0:0|0:0|0:0,0:0:0:0:
344,248,68778,1,8,0:0:0:0:
296,100,69270,6,0,L|186:92,1,110,6|8,0:0|0:0,0:0:0:0:
88,212,70254,2,0,L|92:268,1,55,0|2,0:0|0:0,0:0:0:0:
165,288,70745,2,0,L|207:324,1,55,8|0,0:0|0:0,0:0:0:0:
283,328,71237,2,0,P|324:291|330:238,2,110,2|8|0,0:0|0:0|0:0,0:0:0:0:
192,204,72713,2,0,L|188:149,1,55,8|0,0:0|0:0,0:0:0:0:
233,87,73204,6,0,P|289:79|353:87,1,110,2|8,0:0|0:0,0:0:0:0:
400,135,73942,2,0,P|367:178|370:232,1,110,2|2,0:0|0:0,0:0:0:0:
408,300,74680,1,8,0:0:0:0:
256,320,75172,2,0,P|201:316|148:330,1,110,2|8,0:0|0:0,0:0:0:0:
72,332,75909,2,0,P|34:293|34:239,1,110,2|2,0:0|0:0,0:0:0:0:
61,168,76647,1,8,0:0:0:0:
61,168,77139,6,0,L|169:152,1,110,2|8,0:0|0:0,0:0:0:0:
244,176,77877,2,0,L|240:230,1,55,2|0,0:0|0:0,0:0:0:0:
304,276,78368,2,0,L|358:272,1,55,2|8,0:0|0:0,0:0:0:0:
436,260,78860,2,0,P|466:215|460:162,1,110,2|2,0:0|0:0,0:0:0:0:
414,100,79598,1,8,0:0:0:0:
339,115,79844,2,0,P|285:128|232:117,1,110,2|2,0:0|0:0,0:0:0:0:
160,92,80581,1,8,0:0:0:0:
284,180,81073,6,0,P|306:229|287:280,1,110,6|8,0:0|0:0,0:0:0:0:
136,320,82057,2,0,L|76:328,2,55,0|2|8,0:0|0:0|0:0,0:0:0:0:
288,344,83040,2,0,P|336:356|392:336,2,110,2|8|0,0:0|0:0|0:0,0:0:0:0:
168,248,84516,1,8,0:0:0:0:
216,100,85008,6,0,L|326:92,1,110,6|8,0:0|0:0,0:0:0:0:
444,192,85991,2,0,L|440:248,1,55,0|2,0:0|0:0,0:0:0:0:
416,320,86483,1,8,0:0:0:0:
348,356,86729,2,0,P|293:353|244:330,1,110,0|0,0:0|0:0,0:0:0:0:
200,267,87467,1,8,0:0:0:0:
245,204,87713,2,0,P|294:180|348:178,1,110,2|2,0:0|0:0,0:0:0:0:
404,124,88450,2,0,P|381:108|354:101,1,55,8|0,0:0|0:0,0:0:0:0:
280,88,88942,6,0,P|224:80|160:88,1,110,2|8,0:0|0:0,0:0:0:0:
113,136,89680,2,0,P|146:179|143:233,1,110,2|2,0:0|0:0,0:0:0:0:
105,301,90418,1,8,0:0:0:0:
257,321,90910,2,0,P|312:317|365:331,1,110,2|8,0:0|0:0,0:0:0:0:
441,333,91647,2,0,P|479:294|479:240,1,110,2|2,0:0|0:0,0:0:0:0:
452,169,92385,1,8,0:0:0:0:
452,169,92877,6,0,L|344:153,1,110,2|8,0:0|0:0,0:0:0:0:
269,177,93615,2,0,L|273:231,1,55,2|0,0:0|0:0,0:0:0:0:
209,277,94106,2,0,L|155:273,1,55,2|8,0:0|0:0,0:0:0:0:
77,261,94598,2,0,P|47:216|53:163,1,110,2|2,0:0|0:0,0:0:0:0:
99,101,95336,1,8,0:0:0:0:
174,116,95582,2,0,P|228:129|281:118,1,110,2|2,0:0|0:0,0:0:0:0:
353,93,96319,1,8,0:0:0:0:
353,93,96811,5,2,0:0:0:0:
476,185,97303,1,8,0:0:0:0:
328,228,97795,1,0,0:0:0:0:
392,366,98286,1,8,0:0:0:0:
244,316,98778,2,0,P|198:311|143:355,1,110,2|8,0:0|0:0,0:0:0:0:
76,316,99516,2,0,P|52:267|60:213,1,110,8|8,0:3|0:0,0:0:0:0:
92,144,100254,1,8,0:0:0:0:
92,144,100745,5,6,0:0:0:0:
228,76,101237,1,8,0:0:0:0:
192,224,101729,2,0,P|189:251|192:278,2,55,0|2|8,0:0|0:0|0:0,0:0:0:0:
344,196,102713,2,0,P|366:244|355:297,2,110,2|8|0,0:0|0:0|0:0,0:0:0:0:
68,328,104680,6,0,P|118:348|170:334,1,110,6|8,0:0|0:0,0:0:0:0:
168,179,105663,2,0,P|141:171|114:169,2,55,0|2|8,0:0|0:0|0:0,0:0:0:0:
256,304,106647,2,0,P|306:323|358:308,1,110,2|8,0:0|0:0,0:0:0:0:
360,156,107631,2,0,P|308:141|257:160,1,110,0|8,0:0|0:0,0:0:0:0:
124,236,108614,6,0,P|175:253|225:232,1,110,2|8,0:0|0:0,0:0:0:0:
172,175,109352,2,0,P|120:159|70:180,1,110,2|2,0:0|0:0,0:0:0:0:
47,253,110090,1,8,0:0:0:0:
100,308,110336,2,0,B|120:324|132:352|132:352|160:348|186:354,1,110,2|0,0:0|0:0,0:0:0:0:
263,366,111073,1,8,0:0:0:0:
328,324,111319,2,0,L|343:215,1,110,2|2,0:0|0:0,0:0:0:0:
356,140,112057,1,8,0:0:0:0:
212,84,112549,6,0,P|223:133|274:132,2,110,2|0|0,0:0|0:0|0:0,0:0:0:0:
360,48,114024,2,0,L|414:44,1,55,8|8,0:0|0:0,0:0:0:0:
460,191,114762,2,0,P|456:219|455:246,1,55,0|8,0:0|0:0,0:0:0:0:
320,172,115499,2,0,P|269:151|216:162,2,110,2|8|0,0:0|0:0|0:0,0:0:0:0:
256,192,116729,12,0,119434,0:0:0:0:
