osu file format v13

[General]
AudioFilename: moteyaba_ed.mp3
AudioLeadIn: 1500
PreviewTime: 65213
Countdown: 0
SampleSet: Soft
StackLeniency: 0.7
Mode: 0
LetterboxInBreaks: 0
WidescreenStoryboard: 0

[Editor]
DistanceSpacing: 1.4
BeatDivisor: 4
GridSize: 4
TimelineZoom: 1

[Metadata]
Title:Boku Koi (Short ver.)
TitleUnicode:ボク恋 (ショートver.)
Artist:Duca
ArtistUnicode:Duca
Creator:CloudSplash16
Version:Hard
Source:妹のおかげでモテすぎてヤバい。
Tags:Imouto no Okage de Motesugite Yabai moteyaba hulotte eroge ending ed
BeatmapID:392550
BeatmapSetID:160704

[Difficulty]
HPDrainRate:6
CircleSize:4
OverallDifficulty:6
ApproachRate:7
SliderMultiplier:1.4
SliderTickRate:1

[Events]
//Background and Video events
0,0,"bg.jpg",0,0
//Break Periods
//Storyboard Layer 0 (Background)
//Storyboard Layer 1 (Fail)
//Storyboard Layer 2 (Pass)
//Storyboard Layer 3 (Foreground)
//Storyboard Sound Samples
//Background Colour Transformations
3,100,163,162,255

[TimingPoints]
418,491.803278688525,4,2,2,50,1,0
8286,-100,4,2,1,50,0,0
47631,-100,4,2,3,55,0,0
65336,-100,4,2,3,60,0,1
100745,-100,4,2,3,55,0,0
117467,-100,4,2,1,40,0,0
118450,-100,4,2,1,25,0,0
119434,-100,4,2,1,10,0,0

[Colours]
Combo1 : 160,235,255
Combo2 : 255,158,212
Combo3 : 255,216,160
Combo4 : 160,167,255
Combo5 : 255,162,161

[HitObjects]
260,80,418,6,0,P|197:109|129:98,1,140,2|2,0:0|0:0,0:0:0:0:
273,186,1402,2,0,P|285:218|289:253,2,70,2|0|0,0:0|0:0|0:0,0:0:0:0:
45,226,2386,2,0,P|78:258|168:254,1,140,2|2,0:0|0:0,0:0:0:0:
273,186,3369,1,2,0:0:0:0:
273,186,4353,6,0,P|330:148|398:157,1,140,2|2,0:0|0:0,0:0:0:0:
171,216,5337,2,0,P|167:184|175:144,1,70,2|0,0:0|0:0,0:0:0:0:
351,242,5828,2,0,P|355:274|347:314,1,70,0|0,0:0|0:0,0:0:0:0:
189,305,6320,6,0,L|251:273,1,70,2|0,0:0|0:0,0:0:0:0:
351,242,6812,1,2,0:0:0:0:
453,264,7058,1,0,0:0:0:0:
453,264,7180,1,0,0:0:0:0:
453,264,7303,2,0,L|477:289,2,35,8|0|0,0:3|0:0|0:0,0:0:0:0:
421,165,7672,2,0,L|430:131,2,35,8|0|0,0:3|0:0|0:0,0:0:0:0:
351,242,8041,1,4,0:3:0:0:
351,242,8287,6,0,P|317:243|284:231,2,70,6|0|0,0:0|0:0|0:0,0:0:0:0:
328,161,9025,2,0,P|262:149|209:192,1,140,2|2,0:0|0:0,0:0:0:0:
200,292,9763,2,0,L|200:362,1,70,8|0,0:0|0:0,0:0:0:0:
284,302,10255,6,0,L|284:232,1,70,2|0,0:0|0:0,0:0:0:0:
284,132,10746,1,0,0:0:0:0:
210,192,10992,2,0,P|175:199|141:192,1,70,2|0,0:0|0:0,0:0:0:0:
64,136,11484,1,2,0:0:0:0:
164,36,11730,1,8,0:0:0:0:
164,36,12222,6,0,L|233:46,1,70,6|0,0:0|0:0,0:0:0:0:
356,96,12714,2,0,L|286:106,1,70,0|2,0:0|0:0,0:0:0:0:
176,176,13205,2,0,P|169:210|173:244,1,70,0|2,0:0|0:0,0:0:0:0:
268,336,13697,2,0,P|274:301|270:267,1,70,8|2,0:0|0:0,0:0:0:0:
144,328,14189,5,6,0:0:0:0:
144,328,14435,1,6,0:0:0:0:
296,112,14927,5,6,0:0:0:0:
296,112,15173,1,6,0:0:0:0:
220,176,15419,6,0,L|176:180,2,35
312,208,15910,1,0,0:0:0:0:
312,208,16156,2,0,L|312:278,1,70,2|0,0:0|0:0,0:0:0:0:
312,376,16647,1,8,0:0:0:0:
204,312,16894,1,2,0:0:0:0:
204,312,17386,5,2,0:0:0:0:
88,264,17632,1,8,0:0:0:0:
132,352,17878,1,0,0:0:0:0:
164,232,18123,2,0,B|176:180|126:130|126:130|168:108,1,140,2|8,0:0|0:0,0:0:0:0:
276,124,18861,2,0,P|283:90|280:55,1,70,2|0,0:0|0:0,0:0:0:0:
248,208,19353,5,2,0:0:0:0:
336,248,19599,1,8,0:0:0:0:
416,192,19845,1,0,0:0:0:0:
276,124,20091,2,0,L|212:94,1,70,2|0,0:0|0:0,0:0:0:0:
124,52,20582,1,8,0:0:0:0:
132,176,20828,1,2,0:0:0:0:
132,176,21320,5,2,0:0:0:0:
88,296,21566,1,8,0:0:0:0:
56,204,21812,1,0,0:0:0:0:
163,271,22058,2,0,P|231:282|291:248,1,140,2|8,0:0|0:0,0:0:0:0:
344,164,22796,2,0,L|344:88,1,70,2|0,0:0|0:0,0:0:0:0:
397,248,23287,6,0,P|424:269|457:281,1,70,2|8,0:0|0:0,0:0:0:0:
481,168,23779,1,0,0:0:0:0:
397,248,24025,2,0,P|369:269|336:281,1,70,2|0,0:0|0:0,0:0:0:0:
208,228,24517,2,0,P|242:223|276:228,1,70,8|2,0:0|0:0,0:0:0:0:
241,327,25009,1,0,0:0:0:0:
120,296,25255,6,0,L|120:220,1,70,2|8,0:0|0:0,0:0:0:0:
120,100,25746,1,0,0:0:0:0:
236,144,25992,1,2,0:0:0:0:
236,144,26484,2,0,L|312:144,1,70,8|2,0:0|0:0,0:0:0:0:
388,240,26976,6,0,P|387:274|373:306,1,70,0|2,0:0|0:0,0:0:0:0:
248,308,27468,2,0,P|215:296|180:298,1,70,8|0,0:0|0:0,0:0:0:0:
88,328,27959,1,2,0:0:0:0:
88,328,28205,1,0,0:0:0:0:
115,232,28451,2,0,P|119:197|113:163,1,70,8|2,0:0|0:0,0:0:0:0:
76,72,28943,1,0,0:0:0:0:
204,128,29189,6,0,L|284:128,1,70,0|8,0:0|0:0,0:0:0:0:
372,128,29681,1,0,0:0:0:0:
284,220,29926,2,0,P|270:286|314:337,1,140,2|8,0:0|0:0,0:0:0:0:
436,320,30664,2,0,L|450:180,1,140,2|10,0:0|0:0,0:0:0:0:
460,84,31402,5,8,0:0:0:0:
460,84,31648,1,0,0:0:0:0:
371,128,31894,2,0,P|337:136|303:128,1,70,2|0,0:0|0:0,0:0:0:0:
212,92,32386,2,0,L|212:12,1,70,8|2,0:0|0:0,0:0:0:0:
212,220,33123,5,2,0:0:0:0:
123,264,33369,2,0,P|89:272|55:264,1,70,8|0,0:0|0:0,0:0:0:0:
89,121,33861,2,0,L|89:191,1,70,2|0,0:0|0:0,0:0:0:0:
212,220,34352,1,8,0:0:0:0:
276,148,34599,6,0,P|283:114|275:80,1,70,2|0,0:0|0:0,0:0:0:0:
202,115,35091,1,2,0:0:0:0:
138,187,35337,2,0,P|130:220|138:254,1,70,8|0,0:0|0:0,0:0:0:0:
208,328,35828,2,0,L|278:328,1,70,2|0,0:0|0:0,0:0:0:0:
404,260,36319,2,0,L|334:260,1,70,8|2,0:0|0:0,0:0:0:0:
239,235,36812,6,0,P|210:174|239:112,1,140,0|8,0:0|0:0,0:0:0:0:
332,76,37550,2,0,L|402:76,1,70,0|2,0:0|0:0,0:0:0:0:
459,174,38041,1,0,0:0:0:0:
361,174,38287,2,0,L|291:174,1,70,8|2,0:0|0:0,0:0:0:0:
164,174,38779,1,0,0:0:0:0:
82,271,39025,6,0,P|116:279|150:271,1,70,2|8,0:0|0:0,0:0:0:0:
241,234,39517,1,0,0:0:0:0:
328,276,39763,2,0,L|318:345,1,70,2|0,0:0|0:0,0:0:0:0:
241,234,40255,2,0,L|250:164,1,70,8|2,0:0|0:0,0:0:0:0:
327,104,40746,6,0,P|361:94|395:103,1,70,0|2,0:0|0:0,0:0:0:0:
468,168,41238,1,8,0:0:0:0:
395,234,41484,1,0,0:0:0:0:
444,320,41730,2,0,P|477:328|511:319,1,70,2|0,0:0|0:0,0:0:0:0:
395,234,42222,2,0,P|361:225|327:234,1,70,8|2,0:0|0:0,0:0:0:0:
108,360,42959,5,2,0:0:0:0:
108,360,43205,2,0,P|98:326|107:292,1,70,8|0,0:0|0:0,0:0:0:0:
168,216,43697,2,0,P|170:148|121:100,1,140,6|8,0:0|0:0,0:0:0:0:
208,148,44435,2,0,P|272:164|344:140,1,140,6|2,0:0|0:0,0:0:0:0:
396,60,45173,6,0,L|388:216,1,140,12|0,0:0|0:0,0:0:0:0:
384,296,45910,1,2,0:0:0:0:
300,244,46156,2,0,P|266:235|232:244,1,70,8|2,0:0|0:0,0:0:0:0:
223,250,46525,1,8,0:0:0:0:
214,256,46648,1,0,0:0:0:0:
144,324,46894,5,2,0:0:0:0:
68,264,47140,2,0,P|58:230|67:196,1,70,8|10,0:0|0:0,0:0:0:0:
144,136,47632,2,0,P|210:152|274:125,1,140,6|8,0:0|0:0,0:0:0:0:
336,48,48369,2,0,L|364:120,1,70,2|0,0:0|0:0,0:0:0:0:
328,204,48861,5,2,0:0:0:0:
448,164,49107,2,0,L|473:229,1,70,8|0,0:0|0:0,0:0:0:0:
444,324,49599,2,0,B|396:344|336:312|336:312|300:324,1,140,2|8,0:0|0:0,0:0:0:0:
204,360,50337,1,2,0:0:0:0:
224,252,50582,6,0,P|222:217|208:185,1,70,0|2,0:0|0:0,0:0:0:0:
152,88,51074,1,8,0:0:0:0:
152,88,51566,2,0,P|219:96|271:52,1,140,2|8,0:0|0:0,0:0:0:0:
416,128,52304,2,0,P|381:126|349:112,1,70,2|0,0:0|0:0,0:0:0:0:
271,52,52796,5,2,0:0:0:0:
272,164,53041,2,0,L|272:244,1,70,8|0,0:0|0:0,0:0:0:0:
244,327,53533,2,0,P|177:343|119:308,1,140,2|8,0:0|0:0,0:0:0:0:
100,212,54271,2,0,L|100:142,1,70,2|0,0:0|0:0,0:0:0:0:
100,28,54763,5,8,0:0:0:0:
100,28,55009,1,8,0:0:0:0:
204,100,55255,1,2,0:0:0:0:
204,100,55500,2,0,P|270:115|333:86,1,140,0|8,0:0|0:0,0:0:0:0:
431,85,56238,1,2,0:0:0:0:
480,168,56484,2,0,P|476:236|432:289,1,140,0|8,0:0|0:0,0:0:0:0:
334,289,57222,6,0,P|300:280|265:287,1,70,2|0,0:0|0:0,0:0:0:0:
172,320,57714,1,0,0:0:0:0:
172,320,57959,1,8,0:0:0:0:
92,260,58205,2,0,P|80:192|120:138,1,140,2|2,0:0|0:0,0:0:0:0:
212,104,58943,1,8,0:0:0:0:
212,104,59435,6,0,P|246:113|280:104,1,70,2|0,0:0|0:0,0:0:0:0:
368,60,59927,1,8,0:0:0:0:
388,156,60173,2,0,P|431:207|498:203,1,140,2|2,0:0|0:0,0:0:0:0:
462,136,60910,1,8,0:0:0:0:
335,221,61156,6,0,P|266:225|212:183,1,140,2|2,0:0|0:0,0:0:0:0:
209,85,61894,1,8,0:0:0:0:
293,135,62140,2,0,L|272:273,1,140,2|8,0:0|0:0,0:0:0:0:
216,352,62878,2,0,P|182:360|148:351,1,70,8|2,0:0|0:0,0:0:0:0:
80,284,63369,5,8,0:0:0:0:
160,220,63615,2,0,L|186:197,2,35,0|2|2,0:0|0:0|0:0,0:0:0:0:
287,245,64106,2,0,L|313:267,2,35,0|2|2,0:0|0:0|0:0,0:0:0:0:
384,232,64599,2,0,P|392:265|385:300,2,70,0|2|2,0:0|0:0|0:0,0:0:0:0:
348,140,65337,5,6,0:0:0:0:
240,367,65828,1,8,0:0:0:0:
240,367,66074,2,0,P|176:342|150:279,1,140,2|2,0:0|0:0,0:0:0:0:
148,180,66812,2,0,L|148:100,1,70,8|0,0:0|0:0,0:0:0:0:
148,12,67304,5,2,0:0:0:0:
256,176,67796,2,0,P|290:182|323:174,1,70,8|2,0:0|0:0,0:0:0:0:
468,40,68533,1,2,0:0:0:0:
432,132,68779,2,0,P|425:166|433:199,1,70,8|0,0:0|0:0,0:0:0:0:
484,284,69271,5,6,0:0:0:0:
232,360,69763,1,8,0:0:0:0:
232,360,70009,2,0,P|165:346|129:288,1,140,2|2,0:0|0:0,0:0:0:0:
140,132,70746,2,0,P|148:165|141:199,1,70,8|0,0:0|0:0,0:0:0:0:
220,76,71238,6,0,P|285:55|346:86,2,140,2|8|0,0:0|0:0|0:0,0:0:0:0:
140,132,72468,1,2,0:0:0:0:
148,228,72714,2,0,L|156:308,1,70,8|0,0:0|0:0,0:0:0:0:
280,288,73205,6,0,P|296:222|258:165,1,140,2|8,0:0|0:0,0:0:0:0:
148,228,73943,2,0,L|78:234,1,70,2|0,0:0|0:0,0:0:0:0:
20,156,74435,1,2,0:0:0:0:
78,77,74681,2,0,L|158:85,1,70,8|0,0:0|0:0,0:0:0:0:
216,156,75173,6,0,P|281:172|338:134,1,140,2|8,0:0|0:0,0:0:0:0:
436,124,75910,2,0,L|453:191,1,70,2|0,0:0|0:0,0:0:0:0:
400,300,76402,1,2,0:0:0:0:
280,304,76648,2,0,P|273:338|281:371,1,70,8|0,0:0|0:0,0:0:0:0:
336,240,77140,6,0,P|271:218|211:252,1,140,2|8,0:0|0:0,0:0:0:0:
128,304,77878,2,0,L|145:371,1,70,2|0,0:0|0:0,0:0:0:0:
262,371,78369,2,0,L|280:304,1,70,2|8,0:0|0:0,0:0:0:0:
160,228,78861,2,0,P|125:220|92:229,1,70,2|0,0:0|0:0,0:0:0:0:
128,304,79353,5,2,0:0:0:0:
236,240,79599,1,8,0:0:0:0:
364,240,79845,2,0,P|396:299|374:363,1,140,2|2,0:0|0:0,0:0:0:0:
262,371,80582,2,0,L|246:339,3,35,8|0|0|0,0:0|0:0|0:0|0:0,0:0:0:0:
224,296,81074,5,6,0:0:0:0:
224,44,81566,1,8,0:0:0:0:
224,44,81812,2,0,L|224:114,1,70,2|0,0:0|0:0,0:0:0:0:
224,212,82304,1,2,0:0:0:0:
304,268,82550,2,0,P|338:275|371:266,1,70,8|0,0:0|0:0,0:0:0:0:
456,220,83041,5,2,0:0:0:0:
224,114,83533,2,0,L|224:44,1,70,8|2,0:0|0:0,0:0:0:0:
224,212,84271,1,2,0:0:0:0:
144,268,84517,2,0,P|110:276|76:269,1,70,8|0,0:0|0:0,0:0:0:0:
16,192,85009,6,0,L|16:122,1,70,6|0,0:0|0:0,0:0:0:0:
100,72,85500,1,8,0:0:0:0:
100,72,85746,2,0,P|162:100|227:79,1,140,2|2,0:0|0:0,0:0:0:0:
320,116,86484,2,0,P|328:149|321:183,1,70,8|0,0:0|0:0,0:0:0:0:
280,272,86976,5,2,0:0:0:0:
40,348,87468,1,8,0:0:0:0:
40,348,87714,2,0,L|32:204,1,140,2|2,0:0|0:0,0:0:0:0:
100,140,88451,2,0,P|133:131|167:138,1,70,8|0,0:0|0:0,0:0:0:0:
252,188,88943,6,0,P|318:204|379:173,1,140,2|8,0:0|0:0,0:0:0:0:
444,100,89681,1,2,0:0:0:0:
380,344,90173,1,2,0:0:0:0:
380,344,90419,2,0,L|310:333,1,70,8|0,0:0|0:0,0:0:0:0:
215,315,90910,6,0,P|147:318|92:360,1,140,2|8,0:0|0:0,0:0:0:0:
144,276,91648,2,0,L|156:200,1,70,2|0,0:0|0:0,0:0:0:0:
56,128,92140,2,0,L|68:204,1,70,2|8,0:0|0:0,0:0:0:0:
84,308,92632,1,0,0:0:0:0:
215,316,92878,6,0,P|219:247|173:198,1,140,2|8,0:0|0:0,0:0:0:0:
76,277,93615,2,0,P|110:285|144:276,1,70,2|0,0:0|0:0,0:0:0:0:
248,236,94107,2,0,P|281:226|315:234,1,70,2|8,0:0|0:0,0:0:0:0:
400,284,94599,6,0,L|389:353,2,70,2|0|0,0:0|0:0|0:0,0:0:0:0:
416,188,95337,1,8,0:0:0:0:
440,92,95582,2,0,P|454:60|481:39,2,70,2|0|2,0:0|0:0|0:0,0:0:0:0:
416,188,96320,1,8,0:0:0:0:
416,188,96566,1,2,0:0:0:0:
339,288,96812,6,0,P|271:292|219:247,1,140,2|8,0:0|0:0,0:0:0:0:
136,196,97550,2,0,P|102:188|68:197,1,70,2|0,0:0|0:0,0:0:0:0:
93,333,98041,1,2,0:0:0:0:
93,333,98287,2,0,L|104:264,1,70,8|0,0:0|0:0,0:0:0:0:
219,247,98779,6,0,P|271:292|339:288,1,140,2|8,0:0|0:0,0:0:0:0:
432,200,99516,2,0,L|432:148,2,35,8|8|2,0:3|0:3|0:0,0:0:0:0:
432,300,100009,1,8,0:0:0:0:
432,300,100255,1,8,0:0:0:0:
251,173,100745,6,0,P|217:165|183:174,1,70,6|0,0:0|0:0,0:0:0:0:
108,236,101238,2,0,L|108:306,1,70,8|2,0:0|0:0,0:0:0:0:
192,356,101730,1,0,0:0:0:0:
276,306,101976,1,2,0:0:0:0:
360,356,102222,2,0,P|393:363|427:354,1,70,8|0,0:0|0:0,0:0:0:0:
319,233,102713,6,0,P|251:223|199:267,2,140,2|8|0,0:0|0:0|0:0,0:0:0:0:
276,306,103943,1,2,0:0:0:0:
131,304,104189,2,0,P|121:270|129:236,1,70,8|0,0:0|0:0,0:0:0:0:
180,152,104681,6,0,L|250:138,1,70,6|0,0:0|0:0,0:0:0:0:
276,44,105173,2,0,L|207:57,1,70,8|2,0:0|0:0,0:0:0:0:
111,78,105664,1,0,0:0:0:0:
52,156,105910,1,2,0:0:0:0:
111,234,106156,2,0,P|121:268|113:302,1,70,8|0,0:0|0:0,0:0:0:0:
188,200,106648,6,0,P|253:179|314:210,2,140,2|8|0,0:0|0:0|0:0,0:0:0:0:
211,324,107878,2,0,P|236:300|246:267,2,70,2|8|0,0:0|0:0|0:0,0:0:0:0:
188,200,108615,6,0,P|253:179|314:210,1,140,2|8,0:0|0:0,0:0:0:0:
348,300,109353,2,0,L|376:157,1,140,2|2,0:0|0:0,0:0:0:0:
394,66,110091,1,8,0:0:0:0:
268,56,110337,6,0,P|329:87|394:66,1,140,2|0,0:0|0:0,0:0:0:0:
476,16,111074,1,8,0:0:0:0:
456,112,111320,2,0,L|442:180,1,70,2|0,0:0|0:0,0:0:0:0:
423,277,111812,1,2,0:0:0:0:
316,308,112058,1,8,0:0:0:0:
316,308,112181,1,0,0:0:0:0:
316,308,112304,1,0,0:0:0:0:
224,244,112550,6,0,P|190:236|156:246,1,70,2|0,0:0|0:0,0:0:0:0:
48,312,113041,2,0,P|71:286|79:252,1,70,8|2,0:0|0:0,0:0:0:0:
76,156,113533,2,0,L|72:116,3,35,0|0|2|0,0:0|0:0|0:0|0:0,0:0:0:0:
64,72,114025,1,8,0:0:0:0:
64,72,114271,1,8,0:0:0:0:
260,96,114763,6,0,L|329:105,2,70,0|8|2,0:0|0:0|0:0,0:0:0:0:
180,152,115500,1,2,0:0:0:0:
180,152,115746,1,2,0:0:0:0:
252,240,115992,2,0,P|261:273|254:307,1,70,8|0,0:0|0:0,0:0:0:0:
256,192,116484,12,0,119435,0:0:0:0:
