osu file format v12

[General]
AudioFilename: Duca - Ashita Tenkini Naare.mp3
AudioLeadIn: 1000
PreviewTime: 59428
Countdown: 0
SampleSet: Soft
StackLeniency: 0.7
Mode: 0
LetterboxInBreaks: 0

[Editor]
DistanceSpacing: 1.5
BeatDivisor: 4
GridSize: 4

[Metadata]
Title:Ashita Tenki ni Naare (Short Ver.)
TitleUnicode:あした天気になあれ (Short Ver.)
Artist:Duca
ArtistUnicode:Duca
Creator:Mythol
Version:Insane
Source:Nettai Teikiatsu Shoujo
Tags:sorda s_o_r_d_a kosiga visual novel
BeatmapID:162168
BeatmapSetID:53158

[Difficulty]
HPDrainRate:7
CircleSize:4
OverallDifficulty:7
ApproachRate:8
SliderMultiplier:1.8
SliderTickRate:1

[Events]
//Background and Video events
0,0,"BG.jpg",0,0
//Break Periods
2,13989,21759
//Storyboard Layer 0 (Background)
//Storyboard Layer 1 (Fail)
//Storyboard Layer 2 (Pass)
//Storyboard Layer 3 (Foreground)
//Storyboard Sound Samples
//Background Colour Transformations
3,100,0,0,0

[TimingPoints]
1208,355.029585798817,4,2,1,10,1,0
2628,-133.333333333333,4,2,1,40,0,0
12391,-100,4,2,1,50,0,0
25350,-100,4,2,1,60,0,0
40971,-100,4,2,1,40,0,0
41503,-100,4,2,1,60,0,0
59432,-90.9090909090909,4,2,1,70,0,1
61563,-90.9090909090909,4,2,1,45,0,1
61918,-100,4,2,1,70,0,1
64758,-100,4,2,1,50,0,1
64847,-100,4,2,1,60,0,1
70261,-100,4,2,1,50,0,1
70438,-100,4,2,1,60,0,1
71503,-90.9090909090909,4,2,1,45,0,1
71858,-100,4,2,1,60,0,1
80024,-100,4,2,1,50,0,1
80113,-100,4,2,1,60,0,1
84994,-100,4,2,1,50,0,1
86237,-100,4,2,1,60,0,1
86947,-100,4,2,1,50,0,1
87835,-100,4,2,1,60,0,0
100438,-100,4,2,1,40,0,0

[Colours]
Combo1 : 238,166,253
Combo2 : 241,201,133
Combo3 : 115,211,253
Combo4 : 197,252,152

[HitObjects]
157,297,2628,6,0,B|224:330|291:298,1,134.999995976687,2|0,0:0|0:0,0:0:0:0:
348,234,3160,1,0,0:0:0:0:
436,254,3338,2,0,B|471:235|487:190,1,67.4999979883433,0|0,0:0|0:0,0:0:0:0:
400,170,3693,2,0,B|376:141|376:104,1,67.4999979883433,0|0,0:0|0:0,0:0:0:0:
308,52,4048,6,0,B|233:68|170:18,1,134.999995976687,0|0,0:0|0:0,0:0:0:0:
78,30,4580,1,0,0:0:0:0:
54,129,4758,2,0,B|129:113|192:163,1,134.999995976687,0|0,0:0|0:0,0:0:0:0:
201,244,5290,5,0,0:0:0:0:
201,244,5379,1,0,0:0:0:0:
201,244,5468,2,0,B|275:276|344:242,1,134.999995976687,2|0,0:0|0:0,0:0:0:0:
414,140,6000,1,0,0:0:0:0:
414,140,6178,2,0,B|340:108|271:142,1,134.999995976687,0|0,0:0|0:0,0:0:0:0:
206,162,6710,1,0,0:0:0:0:
126,145,6888,6,0,B|85:130|70:93,1,67.4999979883433,2|0,0:0|0:0,0:0:0:0:
199,50,7243,2,0,B|240:65|255:102,1,67.4999979883433,0|0,0:0|0:0,0:0:0:0:
133,211,7598,2,0,B|114:171|130:134,1,67.4999979883433,0|0,0:0|0:0,0:0:0:0:
252,196,7953,2,0,B|270:235|254:272,1,67.4999979883433,0|0,0:0|0:0,0:0:0:0:
194,331,8308,5,2,0:0:0:0:
110,376,8486,1,0,0:0:0:0:
110,281,8663,1,0,0:0:0:0:
194,331,8841,2,0,B|261:375|336:328,1,134.999995976687,0|0,0:0|0:0,0:0:0:0:
336,244,9373,1,0,0:0:0:0:
424,276,9551,1,0,0:0:0:0:
488,208,9728,6,0,B|504:176|496:124,1,67.4999979883433,2|0,0:0|0:0,0:0:0:0:
436,68,10083,1,0,0:0:0:0:
345,38,10261,2,0,B|337:82|348:120,1,67.4999979883433,2|0,0:0|0:0,0:0:0:0:
354,199,10616,5,0,0:0:0:0:
254,130,10793,1,0,0:0:0:0:
155,201,10971,1,0,0:0:0:0:
200,312,11148,2,0,B|215:357|197:387,1,67.4999979883433,2|0,0:0|0:0,0:0:0:0:
300,304,11503,1,0,0:0:0:0:
300,304,11681,2,0,B|291:263|304:226,1,67.4999979883433,0|0,0:0|0:0,0:0:0:0:
228,140,12036,2,0,B|237:181|224:218,1,67.4999979883433,0|0,0:0|0:0,0:0:0:0:
128,268,12391,6,0,B|111:316|125:359,1,90,8|0,0:0|0:0,0:0:0:0:
256,369,12746,1,8,0:0:0:0:
380,328,12923,1,8,0:0:0:0:
256,192,22509,12,4,24107,0:0:0:0:
256,328,24639,5,8,0:0:0:0:
112,80,24994,1,8,0:0:0:0:
395,131,25350,6,0,B|342:215|226:179,1,180,4|8,0:0|0:0,0:0:0:0:
156,142,25882,1,0,0:0:0:0:
84,197,26060,2,0,B|58:237|67:286,1,90,0|0,0:0|0:0,0:0:0:0:
192,274,26415,1,8,0:0:0:0:
281,186,26592,6,0,B|299:140|282:95,1,90,0|0,0:0|0:0,0:0:0:0:
195,34,26947,1,0,0:0:0:0:
61,90,27125,1,8,0:0:0:0:
208,136,27302,1,0,0:0:0:0:
108,14,27480,1,0,0:0:0:0:
121,157,27657,1,0,0:0:0:0:
121,157,27746,1,0,0:0:0:0:
121,157,27835,1,8,0:0:0:0:
103,244,28012,6,0,B|93:312|161:362|229:339,1,180,0|0,0:0|0:0,0:0:0:0:
281,252,28545,2,0,B|229:230|179:255,1,90,8|0,0:0|0:0,0:0:0:0:
322,331,28900,2,0,B|366:305|367:246,1,90,0|0,0:0|0:0,0:0:0:0:
344,150,29255,1,8,0:0:0:0:
452,159,29432,6,0,B|515:192|523:266|492:334,1,180,0|0,0:0|0:0,0:0:0:0:
409,307,29965,1,8,0:0:0:0:
325,338,30142,1,0,0:0:0:0:
325,338,30231,1,0,0:0:0:0:
325,338,30320,2,0,B|281:363|232:347,1,90,0|0,0:0|0:0,0:0:0:0:
166,267,30675,1,8,0:0:0:0:
272,249,30852,1,0,0:0:0:0:
149,369,31030,1,8,0:0:0:0:
426,115,31385,6,0,B|381:96|337:107,1,90,12|0,0:0|0:0,0:0:0:0:
248,45,31740,1,8,0:0:0:0:
167,117,31918,1,8,0:0:0:0:
167,117,32006,1,0,0:0:0:0:
167,117,32095,2,0,B|142:161|85:173,1,90,0|8,0:0|0:0,0:0:0:0:
10,105,32450,1,0,0:0:0:0:
97,169,32628,1,0,0:0:0:0:
46,265,32805,1,8,0:0:0:0:
147,302,32983,6,0,B|199:310|239:273,1,90,0|8,0:0|0:0,0:0:0:0:
278,152,33338,1,0,0:0:0:0:
411,133,33515,2,0,B|463:132|499:171,1,90,8|0,0:0|0:0,0:0:0:0:
425,249,33870,6,0,B|438:300|419:342,1,90,4|0,0:0|0:0,0:0:0:0:
334,361,34225,1,8,0:0:0:0:
259,310,34403,1,0,0:0:0:0:
173,338,34580,2,0,B|126:350|85:324,1,90,0|0,0:0|0:0,0:0:0:0:
4,254,34935,1,8,0:0:0:0:
104,210,35113,6,0,B|212:210|262:123,1,180,0|0,0:0|0:0,0:0:0:0:
249,247,35645,1,8,0:0:0:0:
249,247,35823,2,0,B|316:320|412:305,1,180,0|0,0:0|0:0,0:0:0:0:
483,225,36355,1,8,0:0:0:0:
483,225,36444,1,0,0:0:0:0:
483,225,36533,1,0,0:0:0:0:
417,139,36710,6,0,B|387:101|329:100,1,90,4|0,0:0|0:0,0:0:0:0:
266,181,37065,2,0,B|220:198|170:177,1,90,8|0,0:0|0:0,0:0:0:0:
126,84,37421,2,0,B|172:67|222:88,1,90,0|0,0:0|0:0,0:0:0:0:
266,181,37776,1,8,0:0:0:0:
196,262,37953,6,0,B|164:302|167:356,1,90,0|0,0:0|0:0,0:0:0:0:
326,281,38308,1,0,0:0:0:0:
257,339,38486,1,8,0:0:0:0:
339,375,38663,1,0,0:0:0:0:
411,321,38841,1,0,0:0:0:0:
411,321,38929,1,0,0:0:0:0:
411,321,39018,2,0,B|457:301|505:315,1,90,0|8,0:0|0:0,0:0:0:0:
448,217,39373,6,0,B|416:178|418:119,1,90,0|0,0:0|0:0,0:0:0:0:
474,41,39728,1,0,0:0:0:0:
367,20,39906,2,0,B|316:16|279:47,1,90,8|0,0:0|0:0,0:0:0:0:
250,128,40261,1,0,0:0:0:0:
177,181,40438,2,0,B|133:203|80:187,1,90,0|8,0:0|0:0,0:0:0:0:
28,124,40793,1,0,0:0:0:0:
144,26,40971,5,8,0:0:0:0:
176,181,41148,1,8,0:0:0:0:
28,124,41326,1,8,0:0:0:0:
208,91,41503,6,0,B|251:117|305:98,1,90,0|8,0:0|0:0,0:0:0:0:
389,49,41858,1,0,0:0:0:0:
450,138,42036,2,0,B|474:187|459:242,1,90,8|8,0:0|0:0,0:0:0:0:
407,318,42391,1,8,0:0:0:0:
101,324,42746,5,12,0:0:0:0:
39,235,42923,2,0,B|23:190|33:146,1,90,0|8,0:0|0:0,0:0:0:0:
97,83,43279,1,8,0:0:0:0:
97,83,43367,1,0,0:0:0:0:
97,83,43456,1,0,0:0:0:0:
192,180,43634,1,8,0:0:0:0:
255,60,43811,6,0,B|362:41,1,90,0|0,0:0|0:0,0:0:0:0:
429,160,44166,2,0,B|322:179,1,90,8|0,0:0|0:0,0:0:0:0:
257,293,44521,2,0,B|364:274,1,90,8|0,0:0|0:0,0:0:0:0:
266,156,44876,1,8,0:0:0:0:
190,233,45054,5,0,0:0:0:0:
190,233,45142,1,0,0:0:0:0:
190,233,45231,2,0,B|142:218|116:172,1,90,4|0,0:0|0:0,0:0:0:0:
69,104,45586,1,8,0:0:0:0:
119,29,45764,1,0,0:0:0:0:
200,67,45941,2,0,B|252:77|291:60,1,90,0|0,0:0|0:0,0:0:0:0:
384,11,46296,5,8,0:0:0:0:
466,81,46474,1,0,0:0:0:0:
406,170,46651,2,0,B|386:216|392:269,1,90,0|0,0:0|0:0,0:0:0:0:
452,324,47006,1,8,0:0:0:0:
373,369,47184,1,0,0:0:0:0:
298,318,47361,1,8,0:0:0:0:
298,318,47450,1,0,0:0:0:0:
298,318,47539,1,0,0:0:0:0:
209,325,47716,2,0,B|170:351|114:345,1,90,8|0,0:0|0:0,0:0:0:0:
82,265,48071,6,0,B|21:195|37:93,1,180,4|8,0:0|0:0,0:0:0:0:
148,38,48604,1,0,0:0:0:0:
222,139,48781,2,0,B|276:155|330:121,1,90,0|0,0:0|0:0,0:0:0:0:
392,62,49136,1,8,0:0:0:0:
284,53,49314,2,0,B|291:155|388:187,1,180,0|0,0:0|0:0,0:0:0:0:
471,217,49847,5,8,0:0:0:0:
493,303,50024,1,0,0:0:0:0:
493,303,50113,1,0,0:0:0:0:
493,303,50202,1,0,0:0:0:0:
423,359,50379,1,0,0:0:0:0:
340,322,50557,2,0,B|295:296|242:311,1,90,8|0,0:0|0:0,0:0:0:0:
150,237,50912,6,0,B|88:204|84:112|141:67,1,180,0|8,0:0|0:0,0:0:0:0:
264,48,51444,1,0,0:0:0:0:
376,140,51622,2,0,B|432:176|424:268|372:304,1,180,0|8,0:0|0:0,0:0:0:0:
300,346,52154,2,0,B|251:359|204:328,1,90,0|0,0:0|0:0,0:0:0:0:
144,274,52509,1,0,0:0:0:0:
69,325,52687,1,8,0:0:0:0:
0,267,52864,2,0,B|-12:215|3:170,1,90,0|0,0:0|0:0,0:0:0:0:
92,90,53219,1,0,0:0:0:0:
160,197,53397,1,8,0:0:0:0:
238,123,53574,5,0,0:0:0:0:
238,123,53663,1,0,0:0:0:0:
238,123,53752,2,0,B|286:109|329:128,1,90,4|0,0:0|0:0,0:0:0:0:
413,217,54107,1,8,0:0:0:0:
314,295,54284,2,0,B|266:309|223:290,1,90,8|0,0:0|0:0,0:0:0:0:
128,339,54639,1,8,0:0:0:0:
34,283,54817,1,8,0:0:0:0:
128,230,54994,1,0,0:0:0:0:
34,283,55172,6,0,B|12:237|25:184,1,90,12|0,0:0|0:0,0:0:0:0:
59,74,55527,1,8,0:0:0:0:
173,19,55705,2,0,B|222:9|267:24,1,90,8|0,0:0|0:0,0:0:0:0:
318,135,56060,2,0,B|269:145|224:130,1,90,8|0,0:0|0:0,0:0:0:0:
124,103,56415,5,0,0:0:0:0:
47,178,56592,2,0,B|24:224|35:282,1,90,0|8,0:0|0:0,0:0:0:0:
109,342,56947,2,0,B|207:379|278:314,1,180,8|0,0:0|0:0,0:0:0:0:
361,247,57480,1,0,0:0:0:0:
297,160,57657,1,8,0:0:0:0:
297,160,57746,1,0,0:0:0:0:
297,160,57835,1,0,0:0:0:0:
195,197,58012,6,0,B|142:190|111:144,1,90,0|0,0:0|0:0,0:0:0:0:
210,96,58367,1,8,0:0:0:0:
297,160,58545,2,0,B|343:252|298:346,1,180,4|0,0:0|0:0,0:0:0:0:
201,368,59077,1,8,0:0:0:0:
94,346,59255,5,0,0:0:0:0:
94,346,59344,1,0,0:0:0:0:
94,346,59432,2,0,B|27:262|60:147,1,197.99999409914,4|8,0:0|0:0,0:0:0:0:
130,78,59965,1,0,0:0:0:0:
218,141,60142,2,0,B|264:166|315:146,1,98.9999970495702,0|0,0:0|0:0,0:0:0:0:
396,75,60497,1,8,0:0:0:0:
475,151,60675,5,0,0:0:0:0:
475,151,60764,1,0,0:0:0:0:
475,151,60852,2,0,B|454:195|460:248,1,98.9999970495702,0|0,0:0|0:0,0:0:0:0:
350,297,61208,2,0,B|371:253|365:198,1,98.9999970495702,8|0,0:0|0:0,0:0:0:0:
475,151,61563,1,8,0:0:0:0:
365,200,61740,1,8,0:0:0:0:
464,266,61918,1,8,0:0:0:0:
350,298,62095,5,0,0:0:0:0:
350,298,62184,1,0,0:0:0:0:
350,298,62273,2,0,B|309:321|248:308,1,90,4|0,0:0|0:0,0:0:0:0:
171,251,62628,1,8,0:0:0:0:
87,318,62805,1,0,0:0:0:0:
15,250,62983,2,0,B|-2:202|13:159,1,90,0|0,0:0|0:0,0:0:0:0:
129,63,63338,2,0,B|146:111|131:154,1,90,8|0,0:0|0:0,0:0:0:0:
172,251,63693,6,0,B|274:275,1,90,0|0,0:0|0:0,0:0:0:0:
389,116,64048,2,0,B|287:92,1,90,8|0,0:0|0:0,0:0:0:0:
346,284,64403,2,0,B|371:187,1,90,0|0,0:0|0:0,0:0:0:0:
211,69,64758,2,0,B|186:166,1,90,12|0,0:0|0:0,0:0:0:0:
189,255,65113,5,4,0:0:0:0:
120,326,65290,1,0,0:0:0:0:
25,294,65468,1,8,0:0:0:0:
70,206,65645,2,0,B|85:162|69:97,1,90,0|0,0:0|0:0,0:0:0:0:
174,43,66000,2,0,B|157:90|175:152,1,90,0|8,0:0|0:0,0:0:0:0:
246,190,66355,1,0,0:0:0:0:
336,145,66533,5,0,0:0:0:0:
336,145,66622,1,0,0:0:0:0:
336,145,66710,1,0,0:0:0:0:
461,204,66888,1,8,0:0:0:0:
370,308,67065,2,0,B|328:334|272:327,1,90,4|0,0:0|0:0,0:0:0:0:
189,276,67421,5,0,0:0:0:0:
116,196,67598,1,8,0:0:0:0:
24,253,67776,1,0,0:0:0:0:
98,330,67953,2,0,B|140:374|191:376,1,90,4|0,0:0|0:0,0:0:0:0:
249,308,68308,1,8,0:0:0:0:
318,234,68486,2,0,B|368:210|421:229,1,90,0|0,0:0|0:0,0:0:0:0:
456,338,68841,2,0,B|406:362|353:343,1,90,0|8,0:0|0:0,0:0:0:0:
249,308,69196,1,0,0:0:0:0:
165,219,69373,6,0,B|125:119|182:24,1,180,2|8,0:0|0:0,0:0:0:0:
347,165,69906,2,0,B|387:265|330:360,1,180,4|8,0:0|0:0,0:0:0:0:
238,327,70438,1,8,0:0:0:0:
144,359,70616,5,0,0:0:0:0:
144,359,70705,1,0,0:0:0:0:
144,359,70793,2,0,B|95:378|45:361,1,90,4|0,0:0|0:0,0:0:0:0:
87,270,71148,1,8,0:0:0:0:
162,204,71326,1,0,0:0:0:0:
238,327,71503,1,8,0:0:0:0:
87,270,71681,1,8,0:0:0:0:
245,239,71858,2,0,B|285:207|296:151,1,90,8|0,0:0|0:0,0:0:0:0:
196,84,72213,6,0,B|92:84,1,90,0|0,0:0|0:0,0:0:0:0:
24,180,72568,2,0,B|128:180,1,90,8|0,0:0|0:0,0:0:0:0:
196,276,72923,2,0,B|92:276,1,90,0|0,0:0|0:0,0:0:0:0:
24,372,73279,2,0,B|128:372,1,90,8|0,0:0|0:0,0:0:0:0:
224,360,73634,6,0,B|268:344|288:288,1,90,0|0,0:0|0:0,0:0:0:0:
237,199,73989,1,8,0:0:0:0:
297,109,74166,1,0,0:0:0:0:
391,161,74344,2,0,B|440:173|493:161,1,90,0|0,0:0|0:0,0:0:0:0:
426,39,74699,2,0,B|380:27|324:39,1,90,8|0,0:0|0:0,0:0:0:0:
232,64,75054,5,0,0:0:0:0:
98,136,75231,1,0,0:0:0:0:
250,156,75409,1,8,0:0:0:0:
138,51,75586,1,0,0:0:0:0:
168,201,75764,2,0,B|186:251|168:308,1,90,0|0,0:0|0:0,0:0:0:0:
103,372,76119,1,4,0:0:0:0:
20,304,76296,5,8,0:0:0:0:
20,304,76385,1,8,0:0:0:0:
20,304,76474,2,0,B|4:249|20:197,1,90,4|0,0:0|0:0,0:0:0:0:
49,112,76829,1,8,0:0:0:0:
152,144,77006,2,0,B|200:154|256:136,1,90,0|8,0:0|0:0,0:0:0:0:
325,64,77361,2,0,B|371:55|429:72,1,90,0|8,0:0|0:0,0:0:0:0:
482,151,77716,1,0,0:0:0:0:
381,241,77894,5,8,0:0:0:0:
381,241,77983,1,0,0:0:0:0:
381,241,78071,1,0,0:0:0:0:
477,336,78249,1,8,0:0:0:0:
347,372,78426,2,0,B|299:381|246:358,1,90,4|0,0:0|0:0,0:0:0:0:
169,319,78781,1,0,0:0:0:0:
114,236,78959,1,8,0:0:0:0:
114,137,79136,1,0,0:0:0:0:
162,50,79314,6,0,B|204:22|259:29,1,90,4|0,0:0|0:0,0:0:0:0:
334,119,79669,1,8,0:0:0:0:
425,32,79847,1,0,0:0:0:0:
488,141,80024,1,12,0:0:0:0:
488,165,80113,1,0,0:0:0:0:
488,189,80202,1,0,0:0:0:0:
488,213,80290,1,0,0:0:0:0:
488,237,80379,1,8,0:0:0:0:
488,261,80468,1,0,0:0:0:0:
488,285,80557,6,0,B|444:311|381:297,1,90,8|0,0:0|0:0,0:0:0:0:
241,271,80912,1,8,0:0:0:0:
308,124,81089,1,8,0:0:0:0:
394,174,81267,5,0,0:0:0:0:
472,114,81444,2,0,B|515:78|519:31,1,90,0|0,0:0|0:0,0:0:0:0:
419,26,81799,1,8,0:0:0:0:
419,26,81888,1,0,0:0:0:0:
419,26,81977,1,0,0:0:0:0:
312,40,82154,6,0,B|261:29|211:48,1,90,4|0,0:0|0:0,0:0:0:0:
143,117,82509,1,8,0:0:0:0:
143,117,82687,2,0,B|123:163|136:218,1,90,0|0,0:0|0:0,0:0:0:0:
86,302,83042,1,0,0:0:0:0:
169,370,83219,1,8,0:0:0:0:
252,302,83397,2,0,B|297:287|358:304,1,90,4|0,0:0|0:0,0:0:0:0:
444,331,83752,1,0,0:0:0:0:
507,244,83929,1,8,0:0:0:0:
440,158,84107,1,0,0:0:0:0:
338,196,84284,5,8,0:0:0:0:
313,196,84373,1,0,0:0:0:0:
288,196,84462,1,0,0:0:0:0:
263,196,84551,1,0,0:0:0:0:
238,196,84639,1,8,0:0:0:0:
213,196,84728,1,0,0:0:0:0:
188,196,84817,1,0,0:0:0:0:
163,196,84906,1,0,0:0:0:0:
138,196,84994,6,0,B|40:196,1,90,2|0,0:0|0:0,0:0:0:0:
90,76,85350,1,2,0:0:0:0:
208,120,85527,2,0,B|260:132|316:112,1,90,2|0,0:0|0:0,0:0:0:0:
400,44,85882,2,0,B|436:88|440:136,1,90,2|0,0:0|0:0,0:0:0:0:
381,237,86237,5,8,0:0:0:0:
131,237,86592,1,8,0:0:0:0:
131,237,86770,1,8,0:0:0:0:
46,287,86947,5,2,0:0:0:0:
3,198,87125,2,0,B|-5:146|9:96,1,90,2|0,0:0|0:0,0:0:0:0:
75,25,87480,1,2,0:0:0:0:
171,75,87657,5,0,0:0:0:0:
171,75,87746,1,0,0:0:0:0:
171,75,87835,2,0,B|217:87|262:75,1,90,4|0,0:0|0:0,0:0:0:0:
336,27,88190,1,8,0:0:0:0:
412,74,88367,1,0,0:0:0:0:
377,157,88545,2,0,B|364:209|382:263,1,90,0|0,0:0|0:0,0:0:0:0:
463,272,88900,1,8,0:0:0:0:
377,157,89077,6,0,B|284:112|196:162,1,180,4|0,0:0|0:0,0:0:0:0:
145,226,89610,1,8,0:0:0:0:
185,306,89787,1,0,0:0:0:0:
111,358,89965,2,0,B|63:377|15:358,1,90,0|0,0:0|0:0,0:0:0:0:
145,226,90320,2,0,B|193:207|241:226,1,90,8|0,0:0|0:0,0:0:0:0:
298,309,90675,5,0,0:0:0:0:
369,228,90852,1,0,0:0:0:0:
443,306,91030,1,8,0:0:0:0:
495,211,91207,1,0,0:0:0:0:
419,133,91385,2,0,B|395:89|398:40,1,90,0|0,0:0|0:0,0:0:0:0:
256,16,91740,1,8,0:0:0:0:
178,137,91918,6,0,B|230:212|207:324,1,180,4|0,0:0|0:0,0:0:0:0:
112,374,92450,1,8,0:0:0:0:
112,374,92628,1,0,0:0:0:0:
21,300,92805,1,8,0:0:0:0:
21,300,92983,1,0,0:0:0:0:
88,204,93160,1,8,0:0:0:0:
185,268,93338,5,0,0:0:0:0:
185,268,93426,1,0,0:0:0:0:
185,268,93515,2,0,B|232:289|284:269,1,90,4|0,0:0|0:0,0:0:0:0:
288,120,93870,2,0,B|244:148|237:205,1,90,8|0,0:0|0:0,0:0:0:0:
368,275,94225,2,0,B|362:220|319:188,1,90,0|0,0:0|0:0,0:0:0:0:
203,180,94580,1,8,0:0:0:0:
114,270,94758,6,0,B|66:287|20:259,1,90,4|0,0:0|0:0,0:0:0:0:
0,157,95113,1,0,0:0:0:0:
40,57,95290,1,8,0:0:0:0:
143,88,95468,2,0,B|187:106|239:98,1,90,0|0,0:0|0:0,0:0:0:0:
324,44,95823,1,0,0:0:0:0:
393,126,96000,2,0,B|422:167|420:219,1,90,8|0,0:0|0:0,0:0:0:0:
337,279,96355,6,0,B|379:313|445:306,2,90,12|0|0,0:0|0:0|0:0,0:0:0:0:
175,279,96888,2,0,B|133:313|67:306,2,90,8|0|0,0:0|0:0|0:0,0:0:0:0:
328,144,97421,2,0,B|347:93|408:66,2,90,8|0|0,0:0|0:0|0:0,0:0:0:0:
184,144,97953,2,0,B|164:93|103:66,2,90,12|0|0,0:0|0:0|0:0,0:0:0:0:
256,272,98486,1,8,0:0:0:0:
256,272,98841,1,8,0:0:0:0:
256,192,99196,12,4,100438,0:0:0:0:
