osu file format v12

[General]
AudioFilename: Duca - Ashita Tenkini Naare.mp3
AudioLeadIn: 1000
PreviewTime: 59428
Countdown: 0
SampleSet: Soft
StackLeniency: 0.7
Mode: 0
LetterboxInBreaks: 0

[Editor]
DistanceSpacing: 1
BeatDivisor: 2
GridSize: 4

[Metadata]
Title:Ashita Tenki ni Naare (Short Ver.)
TitleUnicode:あした天気になあれ (Short Ver.)
Artist:Duca
ArtistUnicode:Duca
Creator:Mythol
Version:Easy
Source:Nettai Teikiatsu Shoujo
Tags:sorda s_o_r_d_a kosiga visual novel
BeatmapID:162238
BeatmapSetID:53158

[Difficulty]
HPDrainRate:2
CircleSize:3
OverallDifficulty:2
ApproachRate:3
SliderMultiplier:0.8
SliderTickRate:1

[Events]
//Background and Video events
0,0,"BG.jpg",0,0
//Break Periods
2,13989,21069
//Storyboard Layer 0 (Background)
//Storyboard Layer 1 (Fail)
//Storyboard Layer 2 (Pass)
//Storyboard Layer 3 (Foreground)
//Storyboard Sound Samples
//Background Colour Transformations
3,100,0,0,0

[TimingPoints]
1208,355.029585798817,4,2,1,40,1,0
12391,-100,4,2,1,50,0,0
27835,-100,4,2,1,40,0,0
28190,-100,4,2,1,50,0,0
48071,-100,4,2,1,40,0,0
53752,-100,4,2,1,50,0,0
59432,-100,4,2,1,60,0,1
64758,-100,4,2,1,50,0,1
64847,-100,4,2,1,60,0,1
80024,-100,4,2,1,50,0,1
80202,-100,4,2,1,60,0,1
87835,-100,4,2,1,60,0,0
100438,-100,4,2,1,40,0,0

[Colours]
Combo1 : 238,166,253
Combo2 : 241,201,133
Combo3 : 115,211,253
Combo4 : 197,252,152

[HitObjects]
180,288,2628,2,0,B|256:332|332:288,1,160,2|0,0:0|0:0,0:0:0:0:
398,142,4048,1,2,0:0:0:0:
255,70,4758,1,2,0:0:0:0:
115,145,5468,6,0,B|75:221|114:304,1,160,2|0,0:0|0:0,0:0:0:0:
264,346,6888,1,2,0:0:0:0:
367,223,7598,1,2,0:0:0:0:
208,199,8308,6,0,B|119:187|74:104,1,160,2|0,0:0|0:0,0:0:0:0:
225,48,9728,2,0,B|314:60|359:143,1,160,2|0,0:0|0:0,0:0:0:0:
374,210,10793,1,0,0:0:0:0:
348,286,11148,6,0,B|307:324|256:306|256:306|205:324|162:286,1,200,2|0,0:0|0:0,0:0:0:0:
214,224,12391,1,8,0:0:0:0:
293,224,12746,2,0,B|302:160,1,40,8|8,0:0|0:0,0:0:0:0:
256,192,22509,12,0,24639,0:0:0:0:
376,96,25350,6,0,B|293:54|217:97,1,160,4|2,0:0|0:0,0:0:0:0:
120,216,26770,2,0,B|203:258|279:215,1,160,0|2,0:0|0:0,0:0:0:0:
338,171,27835,1,8,0:0:0:0:
406,212,28190,6,0,B|444:284|417:370,1,160,2|2,0:0|0:0,0:0:0:0:
341,350,29255,1,8,0:0:0:0:
261,350,29610,2,0,B|177:350,1,80,2|8,0:0|0:0,0:0:0:0:
137,282,30320,6,0,B|93:265|51:285,2,80,0|8|8,0:0|0:0|0:0,0:0:0:0:
193,226,31385,1,4,0:0:0:0:
256,176,31740,6,0,B|272:139|257:75,2,80,8|0|8,0:0|0:0|0:0,0:0:0:0:
272,256,32805,2,0,B|276:304|324:332,1,80,8|8,0:0|0:0,0:0:0:0:
388,344,33515,1,8,0:0:0:0:
459,303,33870,6,0,B|433:226|433:226|460:202|463:154,1,160,4|0,0:0|0:0,0:0:0:0:
398,107,34935,1,8,0:0:0:0:
326,72,35290,2,0,B|265:48|204:75,2,120,2|2|8,0:0|0:0|0:0,0:0:0:0:
295,146,36710,6,0,B|251:224|284:317,1,160,4|2,0:0|0:0,0:0:0:0:
427,239,38131,2,0,B|471:161|438:68,1,160,0|2,0:0|0:0,0:0:0:0:
295,23,39551,5,0,0:0:0:0:
164,116,40261,1,2,0:0:0:0:
304,196,40971,2,0,B|264:368,1,160,2|8,0:0|0:0,0:0:0:0:
192,325,42036,5,8,0:0:0:0:
112,336,42391,2,0,B|63:344|20:315,1,80,8|4,0:0|0:0,0:0:0:0:
83,260,43101,6,0,B|100:224|100:224|137:241|189:229,2,120,8|2|8,0:0|0:0|0:0,0:0:0:0:
112,337,44521,2,0,B|154:346|197:332,1,80
256,192,45231,12,0,47361,0:0:0:0:
96,277,48071,6,0,B|177:321|257:277,1,160,4|0,0:0|0:0,0:0:0:0:
344,152,49492,2,0,B|408:203|409:308,1,160,2|0,0:0|0:0,0:0:0:0:
359,356,50557,1,8,0:0:0:0:
281,335,50912,6,0,B|202:301|121:339,1,160,2|0,0:0|0:0,0:0:0:0:
26,211,52332,2,0,B|105:245|186:207,1,160,2|0,0:0|0:0,0:0:0:0:
249,167,53397,1,12,0:0:0:0:
315,122,53752,6,0,B|379:97|438:127,2,120,4|8|0,0:0|0:0|0:0,0:0:0:0:
249,167,55172,2,0,B|185:192|126:162,2,120,8|8|0,0:0|0:0|0:0,0:0:0:0:
325,194,56592,6,0,B|369:272|344:361,1,160,2|0,0:0|0:0,0:0:0:0:
273,379,57657,1,8,0:0:0:0:
198,350,58012,2,0,B|132:322|59:360,2,120,10|4|0,0:0|0:0|0:0,0:0:0:0:
259,298,59432,6,0,B|294:222|269:139,1,160,4|2,0:0|0:0,0:0:0:0:
139,49,60852,2,0,B|57:49,1,80,2|8,0:0|0:0,0:0:0:0:
56,129,61563,2,0,B|138:129,1,80,2|8,0:0|0:0,0:0:0:0:
209,160,62273,6,0,B|251:237|218:326,2,160,2|2|2,0:0|0:0|0:0,0:0:0:0:
313,39,64403,1,2,0:0:0:0:
390,57,64758,1,4,0:0:0:0:
454,105,65113,6,0,B|499:179|477:285,1,160,4|0,0:0|0:0,0:0:0:0:
360,363,66533,2,0,B|320:317|328:236,1,120,10|4,0:0|0:0,0:0:0:0:
276,141,67598,1,2,0:0:0:0:
212,92,67953,6,0,B|120:60|68:132,1,160,4|0,0:0|0:0,0:0:0:0:
152,264,69373,2,0,B|187:321|174:380,2,120,2|4|0,0:0|0:0|0:0,0:0:0:0:
178,188,70793,6,0,B|252:132|332:189,1,160,4|10,0:0|0:0,0:0:0:0:
256,328,72213,1,2,0:0:0:0:
412,372,72923,1,2,0:0:0:0:
360,219,73634,6,0,B|304:149|311:57,2,160,2|10|2,0:0|0:0|0:0,0:0:0:0:
462,95,75764,1,2,0:0:0:0:
404,39,76119,1,4,0:0:0:0:
325,28,76474,6,0,B|257:24|203:88,2,120,4|0|8,0:0|0:0|0:0,0:0:0:0:
326,107,77894,2,0,B|275:152|282:235,2,120,8|4|8,0:0|0:0|0:0,0:0:0:0:
399,75,79314,5,2,0:0:0:0:
485,209,80024,2,0,B|511:269|488:339,2,120,4|8|8,0:0|0:0|0:0,0:0:0:0:
290,68,82154,5,4,0:0:0:0:
160,164,82864,2,0,B|110:279,2,120,2|4|8,0:0|0:0|0:0,0:0:0:0:
237,178,84284,2,0,B|249:222|291:241,2,80,2|8|4,0:0|0:0|0:0,0:0:0:0:
468,321,86237,5,8,0:0:0:0:
388,321,86592,2,0,B|324:321,1,40,8|8,0:0|0:0,0:0:0:0:
108,324,87835,6,0,B|58:250|89:166,1,160,4|2,0:0|0:0,0:0:0:0:
197,216,89077,2,0,B|255:230|318:212,1,120,4|2,0:0|0:0,0:0:0:0:
373,157,89965,2,0,B|414:138|461:154,1,80,0|2,0:0|0:0,0:0:0:0:
492,219,90675,6,0,B|500:307|436:365,1,160,2|0,0:0|0:0,0:0:0:0:
360,271,91918,2,0,B|298:249|242:275,1,120,4|2,0:0|0:0,0:0:0:0:
182,326,92805,2,0,B|141:339|98:326,2,80,8|8|4,0:0|0:0|0:0,0:0:0:0:
123,177,94225,5,2,0:0:0:0:
194,80,94758,2,0,B|252:50|324:80,1,120,4|2,0:0|0:0,0:0:0:0:
370,128,95645,1,2,0:0:0:0:
326,195,96000,1,2,0:0:0:0:
379,254,96355,6,0,B|424:300|426:373,1,120,8|8,0:0|0:0,0:0:0:0:
306,344,97421,2,0,B|250:369|181:343,1,120,8|4,0:0|0:0,0:0:0:0:
92,276,98486,2,0,B|63:236|59:187,1,80,8|2,0:0|0:0,0:0:0:0:
124,152,99196,6,0,B|196:152|196:152|256:92|320:152|320:152|392:152,1,280,4|4,0:0|0:0,0:0:0:0:
