osu file format v14

[General]
AudioFilename: DUBSTEP - DUBSTEP Suicide Girls _HD movie_.mp3
AudioLeadIn: 0
PreviewTime: 31652
Countdown: 0
SampleSet: Soft
StackLeniency: 0.7
Mode: 0
LetterboxInBreaks: 1
SkinPreference:Cookiezi
WidescreenStoryboard: 0

[Editor]
DistanceSpacing: 0.6
BeatDivisor: 6
GridSize: 4
TimelineZoom: 1

[Metadata]
Title:Suicide GIrls
TitleUnicode:Suicide GIrls
Artist:Dubstep
ArtistUnicode:Dubstep
Creator:silikon4ik
Version:Hard
Source:
Tags:suicide girls girl suicide dubstep dub dubs death die
BeatmapID:689131
BeatmapSetID:307964

[Difficulty]
HPDrainRate:5
CircleSize:4
OverallDifficulty:6
ApproachRate:7
SliderMultiplier:1.9
SliderTickRate:1

[Events]
//Background and Video events
0,0,"1409346299.jpg",0,0
//Break Periods
//Storyboard Layer 0 (Background)
//Storyboard Layer 1 (Fail)
//Storyboard Layer 2 (Pass)
//Storyboard Layer 3 (Foreground)
//Storyboard Sound Samples

[TimingPoints]
6.74542243116764,498.090652498755,4,2,0,100,1,0

[HitObjects]
232,96,15696,5,0,0:0:0:0:
304,96,15945,1,0,0:0:0:0:
376,96,16194,1,0,0:0:0:0:
380,164,16443,2,0,L|380:268|380:268,1,95
380,259,16941,1,0,0:0:0:0:
256,292,17190,2,0,L|256:168,3,95
256,176,18187,1,0,0:0:0:0:
256,160,18436,1,0,0:0:0:0:
400,48,19058,5,0,0:0:0:0:
440,104,19307,1,0,0:0:0:0:
388,140,19556,1,0,0:0:0:0:
440,192,19805,1,0,0:0:0:0:
372,208,20054,1,0,0:0:0:0:
440,260,20303,2,0,L|356:320,1,95
362,315,20802,1,0,0:0:0:0:
284,268,21051,5,0,0:0:0:0:
248,324,21300,1,0,0:0:0:0:
200,272,21549,1,0,0:0:0:0:
168,324,21798,1,0,0:0:0:0:
124,272,22047,1,0,0:0:0:0:
84,336,22296,2,0,P|44:296|44:256,2,95
92,200,23043,1,0,0:0:0:0:
32,160,23292,5,0,0:0:0:0:
88,120,23541,1,0,0:0:0:0:
32,104,23790,1,0,0:0:0:0:
76,56,24039,1,0,0:0:0:0:
144,44,24288,2,0,L|228:104,2,95
80,72,25035,5,0,0:0:0:0:
128,112,25284,1,0,0:0:0:0:
80,152,25533,1,0,0:0:0:0:
136,188,25782,1,0,0:0:0:0:
72,220,26031,1,0,0:0:0:0:
128,256,26281,2,0,L|232:256,2,95
180,200,27028,5,0,0:0:0:0:
224,248,27277,1,0,0:0:0:0:
264,200,27526,1,0,0:0:0:0:
300,248,27775,1,0,0:0:0:0:
336,200,28024,1,0,0:0:0:0:
288,132,28273,2,0,L|76:132,2,190
296,124,29518,1,0,0:0:0:0:
304,124,29767,1,0,0:0:0:0:
308,128,30016,1,0,0:0:0:0:
256,192,30265,12,0,31261,0:0:0:0:
92,112,32258,6,0,L|304:64,2,190
160,160,33461,1,0,0:0:0:0:
240,176,33710,1,0,0:0:0:0:
260,248,33959,1,0,0:0:0:0:
164,252,34208,2,0,P|56:152|92:88,1,221.666666666667
152,88,34956,1,0,0:0:0:0:
236,124,35205,1,0,0:0:0:0:
320,168,35703,1,0,0:0:0:0:
292,240,36118,6,0,P|184:140|220:76,1,221.666666666667
264,72,36866,1,0,0:0:0:0:
328,108,37115,1,0,0:0:0:0:
416,152,37612,1,0,0:0:0:0:
432,244,38110,6,0,P|324:144|360:80,1,221.666666666667
424,84,38858,1,0,0:0:0:0:
480,136,39107,1,0,0:0:0:0:
424,176,39604,1,0,0:0:0:0:
308,168,40103,6,0,B|240:128|240:128|168:172,1,158.333333333333
236,88,40767,1,0,0:0:0:0:
204,228,41016,1,0,0:0:0:0:
304,152,41265,1,0,0:0:0:0:
172,144,41514,1,0,0:0:0:0:
292,232,41763,1,0,0:0:0:0:
240,56,42012,6,0,L|240:232|240:232,1,158.333333333333
240,214,42510,1,0,0:0:0:0:
180,264,42759,1,0,0:0:0:0:
176,168,43008,1,0,0:0:0:0:
296,164,43257,1,0,0:0:0:0:
296,176,43506,1,0,0:0:0:0:
296,188,43755,1,0,0:0:0:0:
296,196,44004,1,0,0:0:0:0:
300,272,44502,1,0,0:0:0:0:
304,324,45000,2,0,L|104:324,1,190
64,264,46080,5,0,0:0:0:0:
136,208,46412,1,0,0:0:0:0:
136,208,46495,1,0,0:0:0:0:
60,152,46744,1,0,0:0:0:0:
132,104,46993,1,0,0:0:0:0:
328,128,47906,2,0,L|316:280,2,126.666666666667
332,96,48736,1,0,0:0:0:0:
336,88,48985,5,0,0:0:0:0:
384,24,49483,1,0,0:0:0:0:
416,88,49981,1,0,0:0:0:0:
424,156,50230,1,0,0:0:0:0:
412,228,50479,1,0,0:0:0:0:
376,288,50728,1,0,0:0:0:0:
316,328,50978,1,0,0:0:0:0:
252,352,51476,1,0,0:0:0:0:
252,40,51974,5,0,0:0:0:0:
168,44,52223,1,0,0:0:0:0:
132,116,52471,1,0,0:0:0:0:
164,188,52720,1,0,0:0:0:0:
220,244,52970,1,0,0:0:0:0:
276,288,53468,1,0,0:0:0:0:
368,40,53883,5,0,0:0:0:0:
424,112,54381,1,0,0:0:0:0:
416,200,54630,1,0,0:0:0:0:
372,272,54879,1,0,0:0:0:0:
296,300,55128,1,0,0:0:0:0:
208,280,55377,1,0,0:0:0:0:
156,212,55626,1,0,0:0:0:0:
240,120,55876,1,0,0:0:0:0:
132,96,56374,1,0,0:0:0:0:
200,72,56623,2,0,L|316:72,1,95
140,160,57868,5,0,0:0:0:0:
312,64,58283,1,0,0:0:0:0:
320,64,58366,1,0,0:0:0:0:
416,64,58615,2,0,L|416:160,1,95
252,100,59777,5,0,0:0:0:0:
220,228,60358,1,0,0:0:0:0:
312,168,60856,1,0,0:0:0:0:
192,160,61354,1,0,0:0:0:0:
280,228,61853,1,0,0:0:0:0:
384,236,62185,1,0,0:0:0:0:
384,236,62268,1,0,0:0:0:0:
208,280,62600,2,0,L|324:280,1,95
276,148,63264,5,0,0:0:0:0:
192,204,63513,5,0,0:0:0:0:
292,240,63762,5,0,0:0:0:0:
