osu file format v7

[General]
AudioFilename: Dubmood - Toffelskater (Dubmood 2007 Remix).mp3
AudioLeadIn: 0
PreviewTime: 22224
Countdown: 1
SampleSet: Soft
StackLeniency: 0.7
Mode: 0
LetterboxInBreaks: 1
EpilepsyWarning: 1

[Editor]
Bookmarks: 11182,44763,59696,74628,87786,97119,112051,126983,141916,156848,171780
DistanceSpacing: 1
BeatDivisor: 4
GridSize: 8

[Metadata]
Title:Toffelskater (Dubmood 2007 Remix)
Artist:Dubmood
Creator:Natteke desu
Version:Soft
Source:
Tags:8bit shulin

[Difficulty]
HPDrainRate:2
CircleSize:3
OverallDifficulty:2
SliderMultiplier:0.999999999999999
SliderTickRate:0.5

[Events]
//Background and Video events
0,0,"bg.jpg"
//Break Periods
//Storyboard Layer 0 (Background)
//Storyboard Layer 1 (Fail)
//Storyboard Layer 2 (Pass)
//Storyboard Layer 3 (Foreground)
//Storyboard Sound Samples
//Background Colour Transformations
3,100,163,162,255

[TimingPoints]
58,466.635557629491,4,2,0,50,1,0
14681,-100,4,1,1,71,0,0
15148,-100,4,2,1,90,0,0
22457,-100,4,2,1,80,0,1
37389,-100,4,2,1,60,0,0
37621,-100,4,2,1,90,0,0
52205,-100,4,1,1,95,0,0
52463,-100,4,2,1,91,0,0
111818,-100,4,1,1,91,0,0
112284,-100,4,2,1,91,0,0

[Colours]
Combo1 : 192,192,192
Combo2 : 255,128,64
Combo3 : 255,0,128
Combo4 : 0,255,0

[HitObjects]
56,120,11256,2,0,B|112:48|200:48,2,150,0|0|0
56,224,13122,2,0,B|56:344,2,99.9999999999999,0|8|0
56,120,14522,1,2
120,40,14989,6,0,B|432:40,1,300,0|0
464,128,16855,6,0,B|528:216|448:336,2,200,2|0|2
392,200,19189,6,0,B|328:256|240:256,2,150,0|0|0
392,96,21055,6,0,B|328:40|240:40,2,150,0|0|8
392,200,22922,6,0,B|272:200,1,99.9999999999999,0|0
192,200,23855,1,8
88,200,24322,2,0,B|32:264|88:344,2,150,0|2|8
120,104,26188,6,0,B|296:104,2,150,8|0|8
88,200,28055,5,0
128,288,28521,1,8
208,352,28988,1,0
288,288,29455,1,8
336,200,29921,6,0,B|392:120|480:120,2,150,8|0|8
288,288,31788,2,0,B|112:288,2,150,0|0|8
368,352,33654,5,8
448,288,34121,1,2
368,224,34588,1,8
448,160,35054,1,2
256,192,35521,12,4,37387
80,264,38321,6,0,B|16:232|16:128|88:96,1,200,0|2
136,184,39721,1,8
232,184,40187,1,0
336,184,40654,1,8
432,184,41120,6,0,B|456:280|352:336,2,175,2|0|2
376,40,43454,1,8
312,112,43920,1,0
240,176,44387,1,8
160,232,44854,6,0,B|48:176|48:56,2,200,12|0|2
184,328,47187,1,0
280,368,47653,1,2
376,328,48120,1,0
424,240,48587,6,0,B|424:24,2,200,2|0|2
328,280,50920,1,0
232,240,51386,1,2
136,280,51853,1,8
80,192,52320,6,0,B|120:48|352:48|392:216,2,400,8|2|2
136,280,56519,2,0,B|360:280,1,200
440,280,57919,2,0,B|520:208|488:72,2,200,0|0|12
360,352,60252,5,0
280,288,60719,1,2
200,352,61186,1,0
120,288,61652,6,0,B|120:176,1,99.9999999999999,0|2
24,168,62586,2,0,B|24:56,1,99.9999999999999,0|2
120,32,63519,6,0,B|240:32,1,99.9999999999999,0|2
256,128,64452,2,0,B|368:128,1,99.9999999999999,0|2
456,128,65385,5,0
456,232,65852,1,2
456,336,66319,1,0
360,336,66785,1,0
256,336,67252,5,0
176,280,67719,1,2
256,216,68185,1,0
328,152,68652,1,2
256,80,69119,6,0,B|176:32|88:56,2,150,0|0|2
344,136,70985,2,0,B|408:192|496:192,2,150,0|0|2
256,192,72852,12,12,74718
256,192,75185,6,0,B|216:304|96:304,1,200,0|2
8,304,76585,2,0,B|8:96,1,200
80,32,77985,1,2
160,96,78451,6,0,B|232:176|352:176,1,200
440,176,79851,1,2
256,192,80318,12,8,82184
256,192,82651,5,0
216,280,83118,1,2
120,280,83584,1,0
72,192,84051,2,0,B|72:24,2,150,8|0|2
120,280,85917,6,0,B|192:352|272:352,2,150,8|0|2
64,200,87784,1,8
120,120,88251,1,2
192,48,88717,1,0
264,120,89184,1,2
320,200,89651,6,0,B|336:280|440:304,2,150,8|0|2
264,120,91517,2,0,B|384:0,2,150,8|0|2
200,192,93384,6,0,B|88:192,1,99.9999999999999,8|2
40,272,94317,2,0,B|160:272,1,99.9999999999999,0|2
232,304,95250,6,0,B|280:368|384:360,2,150,8|0|2
224,200,97117,6,0,B|128:104|232:16,1,200,12|2
320,24,98517,1,8
416,24,98983,6,0,B|512:120|408:208,1,200,8|2
320,200,100383,1,8
248,272,100850,6,0,B|184:344|104:344,2,150,8|0|2
184,192,102716,1,8
128,104,103183,1,2
192,24,103650,1,0
288,24,104116,1,2
352,104,104583,6,0,B|472:104,1,99.9999999999999,8|2
488,200,105516,2,0,B|376:200,1,99.9999999999999,0|2
352,296,106449,5,8
272,352,106916,1,2
168,352,107383,1,0
80,296,107849,1,2
256,192,108316,12,12,112049
