osu file format v7

[General]
AudioFilename: Dubmood - Toffelskater (Dubmood 2007 Remix).mp3
AudioLeadIn: 0
PreviewTime: 22224
Countdown: 1
SampleSet: Normal
StackLeniency: 0.7
Mode: 0
LetterboxInBreaks: 1
EpilepsyWarning: 1

[Editor]
Bookmarks: 11182,44763,59696,74628,87786,97119,112051,126983,141916,156848,171780
DistanceSpacing: 0.800000011920929
BeatDivisor: 4
GridSize: 16

[Metadata]
Title:Toffelskater (Dubmood 2007 Remix)
Artist:Dubmood
Creator:Natteke desu
Version:Rough
Source:
Tags:8bit shulin

[Difficulty]
HPDrainRate:7
CircleSize:4
OverallDifficulty:8
SliderMultiplier:2.6
SliderTickRate:1

[Events]
//Background and Video events
0,0,"bg.jpg"
//Break Periods
2,15190,21706
2,52521,57170
2,61386,61603
2,65119,65336
2,112250,117833
2,138382,141165
//Storyboard Layer 0 (Background)
//Storyboard Layer 1 (Fail)
//Storyboard Layer 2 (Pass)
//Storyboard Layer 3 (Foreground)
//Storyboard Sound Samples
//Background Colour Transformations
3,100,163,162,255

[TimingPoints]
58,466.635557629491,4,1,1,100,1,0
11182,-100,4,2,1,20,0,0
13823,-100,4,2,1,41,0,0
14290,-100,4,2,1,71,0,0
14757,-100,4,1,1,71,0,0
15223,-100,4,2,1,95,0,0
22456,-100,4,2,1,95,0,1
37388,-100,4,2,1,95,0,0
52205,-100,4,1,1,95,0,0
52463,-100,4,2,1,91,0,0
110184,-100,4,1,1,91,0,0
112284,-100,4,2,1,91,0,0
125117,-100,4,2,1,0,0,0
126517,-100,4,2,1,91,0,0
126983,-100,4,2,1,91,0,1
138182,-100,4,2,1,91,0,0
141915,-100,4,2,1,91,0,1
156848,-100,4,2,1,91,0,0
169914,-100,4,1,1,91,0,0

[Colours]
Combo1 : 192,192,192
Combo2 : 255,128,64
Combo3 : 255,0,128
Combo4 : 0,255,0

[HitObjects]
135,88,11257,2,0,B|255:30|398:92,1,260,0|2
256,320,12423,2,0,B|208:240|304:208|256:128,2,195
80,240,13590,1,8
256,80,14057,1,8
448,240,14523,1,12
256,192,14990,5,4
80,192,22456,5,0
160,128,22689,1,2
256,160,22923,1,8
240,256,23156,1,2
320,320,23389,6,0,B|384:336|464:320,1,130,0|2
384,240,23856,2,0,B|304:224|208:256,1,130,8|2
160,288,24323,5,0
80,224,24556,1,2
80,128,24789,2,0,B|128:80|208:64,1,130,8|2
240,160,25256,2,0,B|400:160,1,130,0|2
304,240,25722,2,0,B|144:240,1,130,8|2
96,320,26189,6,0,B|272:320,1,130,0|2
320,288,26656,1,8
400,224,26889,1,2
448,128,27122,2,0,B|304:128,1,130,0|2
240,64,27589,2,0,B|176:128|256:192,1,130,8|2
240,288,28056,6,0,B|208:256|112:256,2,130,0|2|8
288,192,28756,1,2
256,96,28989,2,0,B|320:32|384:32,2,130,0|2|8
160,144,29689,1,2
96,224,29922,6,0,B|160:272|224:224,1,130,0|2
160,144,30389,2,0,B|224:96|288:144,1,130,8|2
336,224,30855,2,0,B|400:176|368:96,3,130,0|2|8|2
272,64,31789,5,0
192,128,32022,1,2
272,192,32255,1,8
352,128,32489,1,2
272,64,32722,1,0
192,128,32955,1,2
272,192,33189,1,8
352,128,33422,1,2
272,64,33655,6,0,B|192:48|128:80,1,130,0|2
48,112,34122,2,0,B|96:160|192:160,1,130,8|2
272,192,34589,2,0,B|224:256|112:256,2,130,0|2|8
352,128,35288,1,2
272,64,35522,6,2,B|208:32,3,65
176,112,35988,2,0,B|112:128,3,65
144,208,36455,6,2,B|80:256,3,65
208,256,36922,2,0,B|288:208,4,65,0|2|2|2|4
400,192,37855,5,8
320,128,38088,1,0
240,64,38322,2,0,B|80:64,2,130,0|0|8
240,160,39022,1,0
240,272,39255,2,0,B|384:272,1,130
304,192,39722,2,0,B|160:192,1,130,8|0
64,192,40188,2,0,B|64:112|176:112,1,130
256,112,40655,2,0,B|352:112|352:224,1,130,8|0
208,176,41121,6,0,B|208:320,1,130
288,240,41588,2,0,B|288:80,1,130,8|0
368,176,42055,2,0,B|464:176|464:272,1,130
368,272,42521,2,0,B|272:272|272:176,1,130,8|0
272,96,42988,1,0
176,96,43221,1,0
96,160,43455,1,8
96,256,43688,1,0
160,336,43921,2,0,B|224:304,4,65,0|8|0|0|8
304,336,44621,2,0,B|304:192,1,130,2|4
304,96,45088,5,2
208,96,45321,1,8
112,128,45554,1,0
112,128,45671,2,0,B|16:224|144:320,1,195
160,208,46254,2,0,B|224:160|192:80,1,130,8|0
304,64,46721,5,0
384,128,46954,1,2
384,240,47188,1,8
304,304,47421,1,0
304,304,47538,2,0,B|96:304,1,195
176,224,48121,2,0,B|320:224,1,130,8|0
352,128,48588,5,0
256,80,48821,1,2
160,112,49054,1,8
64,80,49288,1,0
64,80,49404,2,0,B|64:288,1,195
256,208,49988,2,0,B|256:64,1,130,8|0
368,80,50454,6,2,B|464:192|368:352,1,260,2|8
224,224,51271,1,2
144,96,51621,1,2
224,32,51854,1,8
304,96,52087,1,0
224,160,52321,1,4
256,192,57920,12,4,59787
256,64,60020,6,0,B|112:64,1,130,0|2
256,320,60953,2,0,B|416:320,1,130,2|0
112,192,62353,5,0
112,192,62470,2,2,B|112:112|224:112,1,130
256,192,62937,1,0
256,192,63053,2,2,B|416:192,1,130
192,48,64220,5,0
320,112,64453,2,2,B|320:192|192:192,2,130
256,304,66086,5,0
176,208,66320,1,2
336,208,66553,1,2
256,128,66786,2,0,B|256:176|272:176|304:160|304:128|288:80|224:64|160:112|160:192,1,260
160,178,67720,5,8
80,240,67953,1,2
112,336,68186,1,0
208,352,68420,1,2
288,288,68653,1,8
256,192,68886,1,2
224,96,69120,1,0
432,96,69586,6,0,B|432:240,1,130,8|2
352,304,70053,1,0
288,224,70286,2,0,B|288:64,1,130,2|8
192,48,70753,1,2
96,96,70986,1,0
96,304,71453,5,8
176,240,71686,1,2
272,192,71919,2,0,B|416:192,2,130,0|2|8
208,112,72619,1,2
128,48,72853,1,0
144,256,73319,6,0,B|304:256,1,130,8|2
368,256,73786,2,0,B|368:64,1,130,0|2
288,48,74253,1,4
144,192,74719,5,0
224,128,74953,1,2
304,192,75186,1,0
384,128,75419,1,2
464,192,75652,1,0
384,256,75886,1,2
304,192,76119,1,0
224,256,76352,1,2
144,192,76586,6,0,B|144:48,1,130,0|2
224,128,77052,2,0,B|224:272,1,130,0|2
304,192,77519,2,0,B|304:48,1,130,0|2
384,128,77986,2,0,B|384:272,1,130,0|2
304,336,78452,6,0,B|240:304|176:336,1,130,0|2
80,336,78919,2,0,B|128:272|96:208,1,130,0|2
96,112,79386,2,0,B|160:160|224:112,1,130,0|2
160,32,79852,2,0,B|240:0|304:48,1,130,0|2
368,112,80319,1,4
304,224,81019,5,0
304,224,81135,1,0
304,224,81252,1,0
304,224,81369,1,0
304,224,81485,1,0
304,224,81602,1,0
304,224,81719,5,2
304,224,81835,1,2
304,224,81952,1,2
304,224,82069,1,2
304,224,82185,6,0,B|256:160|256:80,1,130,0|2
160,64,82652,1,0
64,112,82885,1,2
64,224,83119,2,0,B|128:272|192:224,1,130,0|2
256,144,83585,1,0
336,80,83819,1,2
416,144,84052,6,0,B|448:208|416:288,1,130,0|2
352,352,84519,1,0
256,304,84752,2,0,B|176:288|160:208,3,130,2|0|2|0
160,112,85685,1,2
256,64,85918,6,0,B|416:64,1,130,0|2
320,144,86385,1,0
384,224,86618,2,0,B|224:224,1,130,2|0
144,224,87085,2,0,B|112:144|160:64,2,130,2|0|2
256,224,87785,6,0,B|256:64,1,130,0|2
160,48,88252,1,0
64,96,88485,1,2
64,192,88718,2,0,B|64:272|160:272,1,130,0|2
256,272,89185,2,0,B|352:272|352:176,1,130,0|2
352,96,89652,5,0
256,144,89885,1,2
160,96,90118,2,0,B|16:96,1,130,8|2
256,144,90585,2,0,B|416:144,1,130,0|2
192,208,91051,2,0,B|144:272|192:352,1,130,8|2
256,272,91518,5,0
336,208,91751,1,2
256,144,91985,1,8
336,80,92218,1,2
256,16,92451,2,0,B|112:16,1,130,0|2
256,144,92918,2,0,B|416:144,1,130,8|2
400,240,93385,5,0
304,272,93618,1,2
208,272,93851,1,8
112,240,94085,1,2
48,160,94318,2,0,B|32:80|96:16,1,130,0|2
464,160,94785,2,0,B|480:80|416:16,1,130,8|2
256,64,95251,6,0,B|256:208,1,130,0|2
192,272,95718,1,8
320,272,95951,1,2
256,192,96184,2,0,B|256:48,4,130,0|2|8|2|4
112,192,97584,5,0
208,144,97818,1,2
304,144,98051,1,0
400,192,98284,1,2
400,304,98518,1,0
304,336,98751,1,2
208,336,98984,1,0
112,288,99218,1,2
96,192,99451,6,0,B|192:96,1,130,0|2
240,192,99918,2,0,B|176:352,1,130,0|2
288,288,100384,2,0,B|432:176,1,130,0|2
320,128,100851,6,0,B|256:96|192:128,1,130,0|2
256,208,101317,2,0,B|320:240|400:208,1,130,0|2
320,128,101784,2,0,B|256:96|192:128,1,130,0|2
256,208,102251,2,0,B|320:240|400:208,1,130,0|2
480,208,102717,5,0
400,272,102951,1,2
320,208,103184,1,0
256,128,103417,1,2
176,208,103651,1,0
96,272,103884,1,2
16,208,104117,1,0
96,144,104351,2,0,B|96:304,1,130,2|4
192,272,104817,6,0,B|336:272,1,130,2|0
256,192,105284,2,0,B|112:192,1,130,2|0
320,112,105750,2,0,B|464:112,2,130,2|0|2
192,112,106450,6,0,B|144:176|192:256,1,130,0|2
320,272,106917,2,0,B|368:208|320:128,1,130,0|2
192,112,107384,2,0,B|144:176|192:256,1,130,0|2
320,272,107850,2,0,B|368:208|320:128,1,130,0|2
256,192,108317,5,4
256,96,108550,1,2
336,144,108784,1,0
336,240,109017,1,2
256,288,109250,1,4
176,240,109484,1,2
176,144,109717,1,0
256,192,109950,1,2
256,192,110183,12,4,112050
224,272,118583,6,0,B|224:176,3,65
288,192,119050,6,2,B|288:80,4,65,2|2|2|2|6
192,160,119750,5,2
96,112,119983,2,0,B|144:64|224:64,1,130,8|2
320,240,120683,1,2
416,288,120916,2,0,B|384:336|288:352,1,130,8|2
256,144,121616,5,2
160,144,121849,2,0,B|160:64|272:64,1,130,8|2
352,64,122316,1,0
432,144,122549,1,2
368,224,122783,2,0,B|368:304|256:304,1,130,8|2
176,304,123483,5,2
96,240,123716,1,8
96,144,123949,2,0,B|96:0,2,130,2|0|2
192,144,124649,2,0,B|336:144,1,130,8|2
256,192,125116,12,4,126516
256,64,126982,6,0,B|256:144|352:144,1,130,0|2
336,64,127449,2,0,B|432:64|432:176,1,130,8|2
368,224,127916,1,0
288,288,128149,1,2
208,224,128382,1,8
128,288,128616,1,2
48,224,128849,6,0,B|32:160|64:96,1,130,0|2
144,48,129316,2,0,B|176:112|128:192,1,130,8|2
208,224,129782,1,0
288,160,130016,1,2
208,96,130249,1,8
128,160,130482,1,2
208,224,130715,6,0,B|208:80,1,130,0|2
288,32,131182,1,8
368,96,131415,1,2
368,208,131649,2,0,B|512:192,1,130,0|2
304,272,132115,2,0,B|144:288,1,130,8|2
80,224,132582,5,0
144,144,132815,1,2
240,96,133049,2,0,B|304:80|416:80,1,130,8|0
464,128,133515,2,0,B|400:160,4,65,0|8|0|0|8
464,240,134215,1,2
368,288,134449,6,0,B|304:256|272:192,1,130,0|2
176,208,134915,2,0,B|192:128|288:112,1,130,8|2
352,80,135382,1,0
432,144,135615,1,2
352,208,135848,1,8
416,288,136082,1,2
352,208,136315,6,0,B|333:139|354:77,1,130,0|2
256,112,136782,2,0,B|272:192|224:272,1,130,8|2
176,160,137248,2,0,B|32:176,1,130,0|2
256,112,137715,2,0,B|400:96,1,130,8|2
448,176,138182,1,4
112,256,141915,6,0,B|192:208|192:96,1,130,4|2
80,160,142381,2,0,B|96:96|176:48,1,130,8|2
256,112,142848,1,0
352,64,143081,1,2
448,112,143315,2,0,B|464:176|432:256,1,130,8|2
368,320,143781,6,0,B|336:240|384:160,1,130,0|2
256,208,144248,1,8
160,240,144481,1,2
80,176,144715,2,2,B|96:112,4,65,2|8|0|0|8
64,272,145414,1,2
144,336,145648,6,0,B|208:304|272:288,1,130,0|2
192,208,146114,2,0,B|240:144|240:64,1,130,8|2
336,112,146581,1,0
336,208,146814,2,0,B|400:256|464:208,2,130,2|8|2
256,272,147514,6,0,B|112:240,1,130,0|2
336,208,147981,2,0,B|448:128,1,130,8|2
352,64,148448,1,0
256,112,148681,1,2
160,64,148914,2,0,B|96:96,4,65,8|0|0|8|0
160,176,149614,5,2
256,224,149848,2,0,B|384:304,1,130,8|2
368,192,150314,2,0,B|240:128,1,130,0|2
160,80,150781,1,8
64,112,151014,1,2
64,208,151247,6,0,B|128:256|192:208,1,130,0|2
256,144,151714,1,8
352,192,151947,1,2
448,144,152181,2,0,B|352:48,1,130,0|2
352,192,152647,2,0,B|432:320,1,130,8|2
320,336,153114,5,0
224,288,153347,1,2
224,176,153581,2,0,B|176:128|192:48,1,130,8|2
288,96,154047,2,0,B|336:144|320:256,1,130,0|2
224,176,154514,2,0,B|176:128|192:48,1,130,8|2
96,112,154981,5,0
32,192,155214,1,2
128,240,155447,1,8
192,160,155680,1,2
272,96,155914,1,0
336,176,156147,1,2
256,240,156380,1,8
192,160,156614,1,2
96,128,156847,1,4
256,240,157314,6,0,B|448:240,1,130,0|2
256,80,158014,2,0,B|112:80,1,130,0|2
64,160,158480,1,2
112,256,158714,2,0,B|256:256,1,130,0|2
192,160,159180,2,0,B|48:160,1,130,2|2
112,64,159647,2,0,B|272:64,1,130,0|2
304,144,160113,2,0,B|432:176,2,130,2|2|4
128,240,161047,6,2,B|48:112,1,130
272,112,161747,1,0
272,112,161980,2,2,B|368:224,1,130
256,256,162447,1,0
160,208,162680,1,2
160,112,162913,2,2,B|32:32,2,130,2|2|0
256,128,163613,1,0
352,112,163847,2,0,B|480:32,2,130,2|2|4
256,288,164780,6,2,B|256:128,1,130
448,64,165480,1,0
368,128,165713,2,2,B|224:128,1,130
160,192,166180,1,0
160,192,166413,1,0
160,192,166646,2,2,B|256:304,1,130
272,192,167113,2,0,B|176:80,1,130
288,64,167580,2,2,B|384:176,1,130
384,288,168046,6,0,B|224:320|64:272,1,260,4|0
384,96,168980,2,2,B|224:64|64:112,1,260,6|2
256,192,169913,12,4,171779
