osu file format v12

[General]
AudioFilename: A Brief Tutorial On Vip Production.mp3
AudioLeadIn: 1500
PreviewTime: 48126
Countdown: 0
SampleSet: Soft
StackLeniency: 0.7
Mode: 0
LetterboxInBreaks: 1
EpilepsyWarning: 1
WidescreenStoryboard: 1

[Editor]
Bookmarks: 3556,10413,20698,30984,48126,57983,69554,92696
DistanceSpacing: 1
BeatDivisor: 2
GridSize: 4

[Metadata]
Title:A Brief Tutorial On Vip Production
TitleUnicode:A Brief Tutorial On Vip Production
Artist:Dubba Jonny
ArtistUnicode:Dubba Jonny
Creator:KonataN
Version:Normal
Source:
Tags:
BeatmapID:283670
BeatmapSetID:101165

[Difficulty]
HPDrainRate:3
CircleSize:3
OverallDifficulty:3
ApproachRate:4
SliderMultiplier:0.999999999999999
SliderTickRate:1

[Events]
//Background and Video events
0,0,"background.jpg",0,0
//Break Periods
2,41469,46806
//Storyboard Layer 0 (Background)
//Storyboard Layer 1 (Fail)
//Storyboard Layer 2 (Pass)
//Storyboard Layer 3 (Foreground)
Sprite,Foreground,Centre,"sb\speedup.png",320,240 M,0,45983,,305,172 S,0,45983,,0.4065451 F,0,45983,46037,0,1 F,0,46037,46090,1 F,0,46090,46144,1,0 F,0,46197,46251,0,1 F,0,46251,46304,1 F,0,46304,46358,1,0 F,0,46519,46572,0,1 F,0,46572,46626,1 F,0,46626,46679,1,0 F,0,46733,46787,0,1 F,0,46787,46840,1 F,0,46840,46894,1,0
//Storyboard Sound Samples
//Background Colour Transformations
3,100,163,162,255

[TimingPoints]
128,428.556122995607,4,2,0,100,1,0
128,-100,4,2,0,50,0,0
13841,-100,4,2,0,75,0,0
48126,-80,4,1,1,100,0,1
54983,-80,4,1,1,100,0,0
55840,-80,4,1,1,100,0,1
68696,-80,4,1,1,100,0,0
69554,-80,4,1,1,100,0,1
75553,-80,4,1,1,100,0,0
75982,-80,4,2,0,100,0,0
78982,-80,4,1,1,100,0,1
106409,-80,4,1,1,100,0,0

[Colours]
Combo1 : 34,217,232
Combo2 : 41,56,241
Combo3 : 18,124,255

[HitObjects]
112,176,13841,2,0,B|168:220|164:264|164:264|208:256|252:316,1,200,0|2,0:0|0:0,0:0:0:0:
312,116,15556,2,0,P|264:148|244:192,1,99.9999999999999
340,212,16413,1,2,0:0:0:0:
224,47,17270,6,0,P|112:92|95:177,1,200,0|2,0:0|0:0,0:0:0:0:
392,192,19413,2,0,L|284:192,1,99.9999999999999,0|2,0:0|0:0,0:0:0:0:
116,284,20698,6,0,B|88:229|88:229|126:192|95:155|95:155|132:98,1,200,0|2,0:0|0:0,0:0:0:0:
324,112,22412,1,0,0:0:0:0:
384,192,22841,1,0,0:0:0:0:
324,272,23270,1,2,0:0:0:0:
140,192,24127,6,0,P|189:83|132:39,1,200,0|2,0:0|0:0,0:0:0:0:
432,116,26269,1,0,0:0:0:0:
332,116,26698,1,2,0:0:0:0:
144,180,27555,6,0,B|176:228|176:228|248:216|316:264,1,200
400,292,28841,2,2,P|412:260|412:240,1,50
388,200,29269,1,0,0:0:0:0:
300,156,29698,2,0,P|256:140|224:100,1,99.9999999999999,0|2,0:0|0:0,0:0:0:0:
148,284,30984,2,0,B|112:244|112:244|152:208|144:160|132:100,1,200
428,180,33126,2,0,P|364:220|320:216,1,99.9999999999999,0|2,0:0|0:0,0:0:0:0:
152,280,34412,6,0,B|160:208|214:165|214:165|194:96,1,200,0|2,0:0|0:0,0:0:0:0:
292,72,35698,2,2,P|308:104|340:120,1,50
364,140,36126,1,0,0:0:0:0:
320,232,36555,2,0,P|268:268|268:308,1,99.9999999999999,0|2,0:0|0:0,0:0:0:0:
72,272,37840,6,0,B|111:212|138:192|138:192|114:175|71:112,1,200,0|2,0:0|0:0,0:0:0:0:
356,240,39983,2,0,P|368:192|348:140,1,99.9999999999999,0|2,0:0|0:0,0:0:0:0:
156,192,41269,1,4,0:0:0:0:
104,176,48126,6,10,B|200:132|200:132|256:164|356:128,1,250,8|8,0:0|0:0,0:0:0:0:
404,132,49197,2,0,P|428:108|440:72,2,62.4999999999999,0|8|0,0:0|0:0|0:0,0:0:0:0:
400,196,49840,2,10,B|408:228|432:252|432:252|408:284|408:332,1,125,8|8,0:0|0:0,0:0:0:0:
288,308,50697,6,0,L|256:368,3,62.4999999999999,8|0|8|0,0:0|0:0|0:0|0:0,0:0:0:0:
208,328,51554,2,10,B|168:280|168:280|120:292|72:264,1,125,8|8,0:0|0:0,0:0:0:0:
136,148,52411,6,8,L|96:96,2,62.4999999999999,8|0|8,0:0|0:0|0:0,0:0:0:0:
260,148,53268,6,0,P|252:106|260:80,1,62.4999999999999,8|0,0:0|0:0,0:0:0:0:
312,52,53697,2,10,B|368:40|408:72|416:104,1,125,8|8,0:0|0:0,0:0:0:0:
400,156,54340,2,0,B|372:174|372:174|368:216,1,62.4999999999999,0|8,0:0|0:0,0:0:0:0:
248,192,54983,5,4,0:0:0:0:
36,60,55840,6,0,L|4:128,3,62.4999999999999,8|0|8|0,0:0|0:0|0:0|0:0,0:0:0:0:
44,168,56697,2,0,P|96:192|104:208,1,62.4999999999999,8|0,0:0|0:0,0:0:0:0:
152,220,57125,2,10,B|220:196|220:196|224:172|260:160,1,125,10|8,0:0|0:0,0:0:0:0:
308,196,57768,6,0,L|348:264,2,62.4999999999999,0|8|0,0:0|0:0|0:0,0:0:0:0:
352,152,58411,6,10,P|388:112|388:32,1,125,8|8,0:0|0:0,0:0:0:0:
272,84,59268,2,10,B|231:85|209:100|209:100|186:85|131:85,1,125,8|8,0:0|0:0,0:0:0:0:
28,92,60125,2,10,B|40:144|84:160|84:160|80:204,1,125,8|8,0:0|0:0,0:0:0:0:
180,272,60982,6,0,L|232:232,3,62.4999999999999,8|0|8|0,0:0|0:0|0:0|0:0,0:0:0:0:
292,236,61840,6,10,B|336:248|368:276|368:276|436:272,1,125,8|8,0:0|0:0,0:0:0:0:
420,148,62697,6,0,L|456:92,3,62.4999999999999,8|0|8|0,0:0|0:0|0:0|0:0,0:0:0:0:
404,56,63554,2,10,P|320:40|260:56,1,125,8|8,0:0|0:0,0:0:0:0:
208,148,64411,6,0,L|144:104,3,62.4999999999999,8|0|8|0,0:0|0:0|0:0|0:0,0:0:0:0:
104,144,65268,2,10,B|100:188|140:216|140:216|112:264,1,125,8|8,0:0|0:0,0:0:0:0:
240,288,66125,6,0,L|212:344,2,62.4999999999999,8|0|8,0:0|0:0|0:0,0:0:0:0:
360,260,66982,6,0,L|392:196,1,62.4999999999999,8|0,0:0|0:0,0:0:0:0:
376,144,67411,2,10,B|364:88|380:64|380:64|312:44,1,125,8|8,0:0|0:0,0:0:0:0:
276,52,68054,2,0,P|236:48|208:56,1,62.4999999999999,0|8,0:0|0:0,0:0:0:0:
256,172,68696,5,4,0:0:0:0:
480,280,69554,6,0,L|492:200,3,62.4999999999999,8|0|8|0,0:0|0:0|0:0|0:0,0:0:0:0:
432,196,70411,2,0,P|400:176|352:172,1,62.4999999999999,8|0,0:0|0:0,0:0:0:0:
316,184,70839,2,10,B|280:224|256:232|256:232|248:268|216:276,1,125,8|8,0:0|0:0,0:0:0:0:
172,296,71482,6,0,P|140:296|104:268,2,62.4999999999999,0|8|0,0:0|0:0|0:0,0:0:0:0:
224,328,72125,6,10,B|276:336|300:328|300:328|356:368,1,125,8|8,0:0|0:0,0:0:0:0:
456,308,72982,2,10,B|450:259|450:259|469:242|487:193,1,125,8|8,0:0|0:0,0:0:0:0:
376,128,73839,6,10,P|300:100|236:112,1,125,8|8,0:0|0:0,0:0:0:0:
144,160,74696,6,0,L|112:216,3,62.4999999999999,8|0|8|0,0:0|0:0|0:0|0:0,0:0:0:0:
144,268,75553,1,2,0:0:0:0:
168,200,78982,6,0,L|156:264,1,62.4999999999999,8|0,0:0|0:0,0:0:0:0:
196,308,79410,2,0,P|240:304|276:316,1,62.4999999999999,8|0,0:0|0:0,0:0:0:0:
308,272,79839,1,8,0:0:0:0:
388,176,80267,6,0,P|388:144|400:108,1,62.4999999999999,8|0,0:0|0:0,0:0:0:0:
336,92,80696,2,0,L|268:72,3,62.4999999999999,8|0|8|0,0:0|0:0|0:0|0:0,0:0:0:0:
216,88,81553,2,0,P|160:112|136:116,3,62.4999999999999,8|0|8|0,0:0|0:0|0:0|0:0,0:0:0:0:
168,176,82410,6,0,P|172:208|168:248,1,62.4999999999999,8|0,0:0|0:0,0:0:0:0:
168,300,82839,2,0,P|184:336|216:348,1,62.4999999999999,8|0,0:0|0:0,0:0:0:0:
264,344,83267,2,0,P|312:344|328:336,2,62.4999999999999,8|0|8,0:0|0:0|0:0,0:0:0:0:
316,232,84125,6,0,P|368:216|392:220,1,62.4999999999999,8|0,0:0|0:0,0:0:0:0:
400,160,84553,2,0,P|432:140|448:112,1,62.4999999999999,8|0,0:0|0:0,0:0:0:0:
428,60,84982,2,0,P|412:40|372:28,3,62.4999999999999,8|0|8|0,0:0|0:0|0:0|0:0,0:0:0:0:
316,32,85839,6,0,P|276:44|240:44,1,62.4999999999999,8|0,0:0|0:0,0:0:0:0:
224,100,86267,2,0,P|184:108|148:104,1,62.4999999999999,8|0,0:0|0:0,0:0:0:0:
104,88,86696,2,0,P|64:80|36:56,2,62.4999999999999,8|0|8,0:0|0:0|0:0,0:0:0:0:
112,212,87553,6,0,P|120:244|128:292,1,62.4999999999999,8|0,0:0|0:0,0:0:0:0:
148,332,87982,2,10,B|220:328|248:316|248:316|276:296,1,125,8|8,0:0|0:0,0:0:0:0:
272,240,88624,2,0,L|244:184,2,62.4999999999999,0|8|0,0:0|0:0|0:0,0:0:0:0:
328,268,89267,6,10,B|352:292|376:320|376:320|384:304|404:296|404:296|440:280,1,125,8|8,0:0|0:0,0:0:0:0:
440,164,90124,2,10,B|396:120|396:120|400:76|376:56|376:56,1,125,8|8,0:0|0:0,0:0:0:0:
260,120,90981,2,10,P|216:136|136:120,1,125,8|8,0:0|0:0,0:0:0:0:
100,240,91839,6,0,P|144:268|156:304,1,62.4999999999999,8|0,0:0|0:0,0:0:0:0:
188,320,92267,2,0,P|226:338|268:325,1,62.4999999999999,8|0,0:0|0:0,0:0:0:0:
284,288,92696,6,0,P|320:244|328:220,1,62.4999999999999,8|0,0:0|0:0,0:0:0:0:
328,176,93124,2,0,P|328:128|344:92,1,62.4999999999999,8|0,0:0|0:0,0:0:0:0:
344,52,93553,1,8,0:0:0:0:
220,56,93981,6,0,P|184:64|156:80,1,62.4999999999999,8|0,0:0|0:0,0:0:0:0:
120,124,94410,2,0,P|124:168|104:208,1,62.4999999999999,8|0,0:0|0:0,0:0:0:0:
112,248,94838,2,0,P|104:288|124:332,1,62.4999999999999,8|0,0:0|0:0,0:0:0:0:
168,336,95267,6,0,L|224:304,3,62.4999999999999,8|0|8|0,0:0|0:0|0:0|0:0,0:0:0:0:
220,244,96124,6,0,P|188:212|184:184,1,62.4999999999999,8|0,0:0|0:0,0:0:0:0:
180,132,96553,2,0,P|192:88|224:68,1,62.4999999999999,8|0,0:0|0:0,0:0:0:0:
264,92,96981,2,0,L|328:120,2,62.4999999999999,8|0|8,0:0|0:0|0:0,0:0:0:0:
280,216,97838,6,0,L|288:280,1,62.4999999999999,8|0,0:0|0:0,0:0:0:0:
336,316,98267,2,0,L|396:288,1,62.4999999999999,8|0,0:0|0:0,0:0:0:0:
400,228,98695,2,0,L|388:160,3,62.4999999999999,8|0|8|0,0:0|0:0|0:0|0:0,0:0:0:0:
352,116,99553,6,0,P|304:104|272:104,1,62.4999999999999,8|0,0:0|0:0,0:0:0:0:
228,108,99981,2,0,P|180:112|144:100,1,62.4999999999999,8|0,0:0|0:0,0:0:0:0:
104,100,100410,2,0,L|80:36,2,62.4999999999999,8|0|8,0:0|0:0|0:0,0:0:0:0:
152,216,101267,6,0,P|180:244|188:272,1,62.4999999999999,8|0,0:0|0:0,0:0:0:0:
208,324,101695,2,2,B|272:332|272:332|296:312|344:316,1,125,8|8,0:0|0:0,0:0:0:0:
380,280,102338,2,0,P|392:248|384:212,2,62.4999999999999,0|8|0,0:0|0:0|0:0,0:0:0:0:
324,256,102981,6,10,B|296:228|256:216|256:216|264:184|264:184|252:152,1,125,8|8,0:0|0:0,0:0:0:0:
140,132,103838,2,10,B|108:164|108:164|132:200|132:200|116:232|128:252,1,125,8|8,0:0|0:0,0:0:0:0:
184,344,104695,6,10,P|256:324|316:352,1,125,10|8,0:0|0:0,0:0:0:0:
428,336,105552,6,0,P|388:312|372:288,1,62.4999999999999,8|0,0:0|0:0,0:0:0:0:
332,256,105981,2,0,L|360:188,2,62.4999999999999,8|0|4,0:0|0:0|0:0,0:0:0:0:
