osu file format v12

[General]
AudioFilename: A Brief Tutorial On Vip Production.mp3
AudioLeadIn: 1500
PreviewTime: 48126
Countdown: 0
SampleSet: Soft
StackLeniency: 0.7
Mode: 0
LetterboxInBreaks: 1
EpilepsyWarning: 1
WidescreenStoryboard: 1

[Editor]
Bookmarks: 3556,10413,20698,30984,48126,57983,69554,92696
DistanceSpacing: 0.9
BeatDivisor: 8
GridSize: 4

[Metadata]
Title:A Brief Tutorial On Vip Production
TitleUnicode:A Brief Tutorial On Vip Production
Artist:Dubba Jonny
ArtistUnicode:Dubba Jonny
Creator:KonataN
Version:Insane
Source:
Tags:
BeatmapID:276755
BeatmapSetID:101165

[Difficulty]
HPDrainRate:8
CircleSize:4
OverallDifficulty:8
ApproachRate:9
SliderMultiplier:2
SliderTickRate:1

[Events]
//Background and Video events
0,0,"background.jpg",0,0
//Break Periods
//Storyboard Layer 0 (Background)
//Storyboard Layer 1 (Fail)
//Storyboard Layer 2 (Pass)
//Storyboard Layer 3 (Foreground)
Sprite,Foreground,Centre,"sb\speedup.png",320,240 M,0,45983,,329,184 S,0,45983,,0.4065451 F,0,45983,46037,0,1 F,0,46037,46090,1 F,0,46090,46144,1,0 F,0,46197,46251,0,1 F,0,46251,46304,1 F,0,46304,46358,1,0 F,0,46519,46572,0,1 F,0,46572,46626,1 F,0,46626,46679,1,0 F,0,46733,46787,0,1 F,0,46787,46840,1 F,0,46840,46894,1,0
//Storyboard Sound Samples
//Background Colour Transformations
3,100,163,162,255

[TimingPoints]
128,428.556122995607,4,2,0,100,1,0
128,-100,4,2,0,50,0,0
13841,-100,4,2,0,75,0,0
48126,-66.6666666666667,4,1,1,100,0,1
54983,-66.6666666666667,4,1,1,100,0,0
55840,-66.6666666666667,4,1,1,100,0,1
68696,-66.6666666666667,4,1,1,100,0,0
69554,-66.6666666666667,4,1,1,100,0,1
75553,-66.6666666666667,4,1,1,100,0,0
75982,-66.6666666666667,4,2,0,100,0,0
78982,-66.6666666666667,4,1,1,100,0,1
106409,-66.6666666666667,4,1,1,100,0,0

[Colours]
Combo1 : 34,217,232
Combo2 : 41,56,241
Combo3 : 18,124,255

[HitObjects]
116,236,128,2,0,P|168:260|224:236,1,100,4|0,0:0|0:0,0:0:0:0:
168,164,556,1,0,0:0:0:0:
80,168,770,2,0,L|24:136,2,50,0|0|2,0:0|0:0|0:0,0:0:0:0:
120,88,1199,1,0,0:0:0:0:
208,84,1413,1,0,0:0:0:0:
208,84,1520,1,0,0:0:0:0:
208,84,1627,1,0,0:0:0:0:
268,256,2056,5,0,0:0:0:0:
192,212,2270,1,0,0:0:0:0:
192,304,2485,2,0,L|192:360,2,50,0|0|2,0:0|0:0|0:0,0:0:0:0:
268,256,2913,1,0,0:0:0:0:
192,212,3127,1,0,0:0:0:0:
192,212,3235,1,0,0:0:0:0:
192,212,3342,1,0,0:0:0:0:
296,112,3770,5,0,0:0:0:0:
364,172,3985,2,0,P|388:216|356:264,1,100
367,257,4306,1,0,0:0:0:0:
367,257,4413,1,2,0:0:0:0:
364,172,4627,1,0,0:0:0:0:
280,208,4842,1,0,0:0:0:0:
280,208,4949,1,0,0:0:0:0:
280,208,5056,1,0,0:0:0:0:
284,296,5270,6,0,P|245:322|186:318,1,100
212,232,5699,2,0,P|168:208|144:160,1,100
145,165,6020,1,0,0:0:0:0:
145,165,6127,1,2,0:0:0:0:
236,164,6342,1,0,0:0:0:0:
316,208,6556,1,0,0:0:0:0:
320,164,6663,1,0,0:0:0:0:
312,120,6770,1,0,0:0:0:0:
312,120,7199,22,0,P|264:96|216:120,1,100
180,192,7627,1,0,0:0:0:0:
224,200,7734,1,0,0:0:0:0:
268,192,7842,1,2,0:0:0:0:
224,272,8056,1,0,0:0:0:0:
180,352,8270,1,0,0:0:0:0:
224,340,8377,1,0,0:0:0:0:
268,352,8484,1,0,0:0:0:0:
268,352,8913,6,0,L|340:352,2,50
224,272,9341,2,0,L|252:224,2,50,0|0|2,0:0|0:0|0:0,0:0:0:0:
132,272,9770,1,0,0:0:0:0:
164,188,9984,2,0,L|104:188,2,50
228,124,10413,5,0,0:0:0:0:
140,104,10627,2,0,L|212:32,1,100
228,124,11056,1,0,0:0:0:0:
228,124,11163,1,0,0:0:0:0:
228,124,11270,1,2,0:0:0:0:
292,184,11484,1,0,0:0:0:0:
312,96,11699,1,0,0:0:0:0:
312,96,11806,1,0,0:0:0:0:
312,96,11913,1,0,0:0:0:0:
312,96,12341,22,0,L|416:184,1,100
404,72,12770,1,0,0:0:0:0:
404,72,12877,1,0,0:0:0:0:
404,72,12984,1,2,0:0:0:0:
312,96,13198,1,0,0:0:0:0:
288,184,13413,1,0,0:0:0:0:
288,184,13520,1,0,0:0:0:0:
288,184,13627,1,0,0:0:0:0:
196,188,13841,6,0,P|144:200|88:184,1,100,2|0,0:0|0:0,0:0:0:0:
148,116,14270,1,0,0:0:0:0:
216,56,14484,1,0,0:0:0:0:
256,36,14591,1,0,0:0:0:0:
296,56,14698,1,8,0:0:0:0:
256,136,14913,1,0,0:0:0:0:
188,200,15127,2,0,P|208:224|244:232,1,50
336,164,15556,6,0,P|360:228|344:284,1,100,2|0,0:0|0:0,0:0:0:0:
424,160,15984,2,0,P|440:224|432:280,1,100,2|0,0:0|0:0,0:0:0:0:
437,257,16305,1,0,0:0:0:0:
437,257,16413,1,8,0:0:0:0:
392,336,16627,1,0,0:0:0:0:
304,324,16841,1,0,0:0:0:0:
304,324,16948,1,0,0:0:0:0:
304,324,17055,1,0,0:0:0:0:
152,256,17270,22,0,P|192:240|244:256,1,100,2|0,0:0|0:0,0:0:0:0:
200,332,17698,1,0,0:0:0:0:
108,332,17913,1,0,0:0:0:0:
108,332,18020,1,0,0:0:0:0:
108,332,18127,1,8,0:0:0:0:
152,252,18341,1,0,0:0:0:0:
152,164,18555,2,0,L|152:108,1,50
284,88,18984,6,0,P|332:108|332:172,1,100
341,151,19413,1,2,0:0:0:0:
312,236,19627,1,0,0:0:0:0:
312,236,19734,1,0,0:0:0:0:
312,236,19841,1,8,0:0:0:0:
256,308,20055,1,0,0:0:0:0:
172,276,20270,2,0,L|128:332,2,50
144,192,20698,5,2,0:0:0:0:
232,192,20912,2,0,P|284:168|316:204,1,100
312,191,21234,1,0,0:0:0:0:
312,191,21341,1,0,0:0:0:0:
232,272,21555,1,8,0:0:0:0:
232,192,21770,1,0,0:0:0:0:
232,272,21984,2,0,L|232:328,1,50
184,100,22412,2,0,P|240:84|288:112,2,100,2|0|2,0:0|0:0|0:0,0:0:0:0:
160,120,22948,1,0,0:0:0:0:
140,148,23055,1,0,0:0:0:0:
128,184,23162,1,0,0:0:0:0:
124,220,23270,2,0,P|132:272|168:324,1,100,8|0,0:0|0:0,0:0:0:0:
244,316,23698,22,0,P|236:284|220:256,2,50
316,260,24127,1,2,0:0:0:0:
388,208,24341,2,0,L|476:136,1,100
380,124,24769,1,0,0:0:0:0:
380,124,24877,1,0,0:0:0:0:
380,124,24984,1,8,0:0:0:0:
312,184,25198,1,0,0:0:0:0:
296,96,25412,2,0,L|264:56,1,50
296,96,26055,1,0,0:0:0:0:
296,96,26269,1,2,0:0:0:0:
208,112,26484,2,0,L|168:144,2,50,0|0|8,0:0|0:0|0:0,0:0:0:0:
252,192,26912,1,0,0:0:0:0:
320,248,27127,2,0,L|280:280,2,50
168,256,27555,6,0,L|148:200,1,50,2|0,0:0|0:0,0:0:0:0:
168,72,27769,2,0,L|151:119,1,50
212,164,27984,1,0,0:0:0:0:
256,164,28091,1,0,0:0:0:0:
300,160,28198,1,0,0:0:0:0:
344,160,28305,1,0,0:0:0:0:
388,160,28412,1,8,0:0:0:0:
388,160,28626,1,0,0:0:0:0:
376,272,28841,5,2,0:0:0:0:
136,112,29055,1,2,0:0:0:0:
174,275,29269,2,0,L|216:232,1,50,2|0,0:0|0:0,0:0:0:0:
336,106,29484,2,0,L|296:152,1,50,2|0,0:0|0:0,0:0:0:0:
256,192,29698,1,0,0:0:0:0:
256,192,29912,1,0,0:0:0:0:
256,192,30126,1,8,0:0:0:0:
140,56,30555,2,0,B|153:60|153:60|146:76|146:76|164:72|164:72|157:88|157:88|174:84|174:84|167:100|167:100|184:96|184:96|177:113|177:113|194:109|194:109|187:125|187:125|205:121|205:121|198:137|198:137|215:133|215:133,1,200,0|2,0:0|0:0,0:0:0:0:
256,192,31198,21,0,0:0:0:0:
308,260,31412,2,0,P|248:272|188:248,1,100
172,240,31734,1,0,0:0:0:0:
136,212,31841,2,2,L|68:272,3,50
376,212,32912,1,0,0:0:0:0:
396,172,33019,1,0,0:0:0:0:
408,128,33126,2,0,P|359:35|300:112,1,200,2|8,0:0|0:0,0:0:0:0:
308,164,33769,2,0,P|296:216|256:268,1,100
270,255,34091,1,0,0:0:0:0:
271,254,34198,1,0,0:0:0:0:
172,248,34412,6,0,L|152:192,1,50,2|0,0:0|0:0,0:0:0:0:
172,64,34626,2,0,L|155:111,1,50
216,156,34841,1,0,0:0:0:0:
260,156,34948,1,0,0:0:0:0:
304,152,35055,1,0,0:0:0:0:
348,152,35162,1,0,0:0:0:0:
392,152,35269,1,8,0:0:0:0:
392,152,35483,1,0,0:0:0:0:
160,264,35698,5,2,0:0:0:0:
400,104,35912,1,2,0:0:0:0:
366,266,36126,2,0,L|321:226,1,50,2|0,0:0|0:0,0:0:0:0:
204,97,36341,2,0,L|240:140,1,50,2|0,0:0|0:0,0:0:0:0:
282,184,36555,1,0,0:0:0:0:
282,184,36769,1,0,0:0:0:0:
282,184,36983,1,8,0:0:0:0:
140,328,37412,2,0,B|153:324|153:324|146:308|146:308|164:312|164:312|157:296|157:296|174:300|174:300|167:284|167:284|184:288|184:288|177:271|177:271|194:275|194:275|187:259|187:259|205:263|205:263|198:247|198:247|215:251|215:251,1,200,0|2,0:0|0:0,0:0:0:0:
292,260,38055,22,0,P|352:280|384:248,1,100
377,260,38376,1,0,0:0:0:0:
377,260,38483,1,0,0:0:0:0:
344,176,38698,2,2,P|372:168|412:172,3,50
168,176,39769,1,0,0:0:0:0:
188,136,39876,1,0,0:0:0:0:
232,120,39983,2,0,L|232:48,2,50,2|0|0,0:0|0:0|0:0,0:0:0:0:
236,224,40412,1,8,0:0:0:0:
236,224,40626,1,2,0:0:0:0:
236,312,40840,2,0,L|236:372,2,50
60,56,41269,5,2,0:0:0:0:
88,84,42126,1,2,0:0:0:0:
104,124,42983,1,2,0:0:0:0:
108,168,43840,1,2,0:0:0:0:
444,56,44697,5,2,0:0:0:0:
68,328,45126,1,2,0:0:0:0:
68,56,45554,1,2,0:0:0:0:
444,328,45983,1,2,0:0:0:0:
136,280,46412,1,2,0:0:0:0:
376,116,46626,1,2,0:0:0:0:
376,276,46840,1,2,0:0:0:0:
136,116,47054,1,2,0:0:0:0:
256,196,47269,5,0,0:0:0:0:
256,156,47376,1,0,0:0:0:0:
256,116,47483,1,0,0:0:0:0:
256,80,47590,1,0,0:0:0:0:
256,40,47697,2,0,L|256:4,5,25
72,184,48126,6,2,P|232:80|456:192,1,450.000017166138,4|0,0:0|0:0,0:0:0:0:
376,232,48983,2,0,L|312:168,1,75.0000028610231,8|0,0:0|0:0,0:0:0:0:
328,300,49197,2,0,L|392:364,1,75.0000028610231
184,300,49411,2,0,L|130:353,1,75.0000028610231,8|0,0:0|0:0,0:0:0:0:
136,232,49626,2,0,L|189:178,1,75.0000028610231
124,96,49840,2,2,B|132:84|132:84|140:104|140:104|148:84|148:84|156:104|156:104|164:84|164:84|172:104|172:104|180:84|180:84|188:104|188:104|196:84|196:84|204:104|204:104|212:84|212:84|220:104|220:104|228:84|228:84|236:104|236:104|244:84|244:84,1,300.000011444092,8|0,0:0|0:0,0:0:0:0:
408,152,50697,2,0,L|344:216,1,75.0000028610231,8|0,0:0|0:0,0:0:0:0:
360,84,50911,2,0,L|424:20,1,75.0000028610231
216,84,51126,2,0,L|162:30,1,75.0000028610231,8|0,0:0|0:0,0:0:0:0:
168,152,51340,2,0,L|221:205,1,75.0000028610231
168,308,51554,2,2,B|176:296|176:296|184:316|184:316|192:296|192:296|200:316|200:316|208:296|208:296|216:316|216:316|224:296|224:296|232:316|232:316|240:296|240:296|248:316|248:316|256:296|256:296|264:316|264:316|272:296|272:296|280:316|280:316|288:296|288:296,1,300.000011444092,8|0,0:0|0:0,0:0:0:0:
420,256,52411,6,0,P|456:192|404:128,2,150.000005722046,8|0|0,0:0|0:0|0:0,0:0:0:0:
188,248,53268,2,0,L|228:320,1,75.0000028610231,8|0,0:0|0:0,0:0:0:0:
188,136,53483,2,0,L|224:70,1,75.0000028610231
264,192,53697,2,2,B|272:180|272:180|280:200|280:200|288:180|288:180|296:200|296:200|304:180|304:180|312:200|312:200|320:180|320:180|328:200|328:200|336:180|336:180|344:200|344:200|352:180|352:180|360:200|360:200|368:180|368:180|376:200|376:200|384:180|384:180,1,300.000011444092,8|8,0:0|0:0,0:0:0:0:
378,194,54340,1,0,0:0:0:0:
472,144,54554,2,0,B|484:152|484:152|464:160|464:160|484:168|484:168|464:176|464:176|484:184|484:184|464:192|464:192|484:200|484:200|464:208|464:208|484:216|484:216|464:224|464:224|484:232|484:232|464:240|464:240|484:248|484:248|464:256|464:256|484:264|484:264,1,300.000011444092,0|4,0:0|0:0,0:0:0:0:
192,267,55840,5,8,0:0:0:0:
158,209,55947,1,0,0:0:0:0:
170,142,56054,1,0,0:0:0:0:
222,99,56161,1,0,0:0:0:0:
289,99,56268,1,8,0:0:0:0:
341,142,56375,1,0,0:0:0:0:
353,209,56483,1,0,0:0:0:0:
319,267,56590,1,0,0:0:0:0:
256,290,56697,2,0,L|256:136,2,150.000005722046,8|0|0,0:0|0:0|0:0,0:0:0:0:
452,136,57554,38,0,L|424:64,1,75.0000028610231,8|0,0:0|0:0,0:0:0:0:
452,248,57768,2,0,L|424:317,1,75.0000028610231
348,132,57983,2,0,L|300:72,1,75.0000028610231,8|0,0:0|0:0,0:0:0:0:
348,252,58197,2,0,L|300:312,1,75.0000028610231
128,332,58411,38,2,P|77:210|132:56,3,300.000011444092,8|0|8|0,0:0|0:0|0:0|0:0,0:0:0:0:
260,288,60125,2,2,P|176:233|263:90,1,300.000011444092,8|0,0:0|0:0,0:0:0:0:
344,240,60982,2,0,P|304:168|380:160,1,150.000005722046,8|0,0:0|0:0,0:0:0:0:
440,144,61411,2,0,L|460:72,1,75.0000028610231,8|0,0:0|0:0,0:0:0:0:
440,240,61625,2,0,L|460:312,1,75.0000028610231
368,324,61840,6,2,P|97:295|48:96,1,450.000017166138,4|0,0:0|0:0,0:0:0:0:
184,140,62697,2,0,L|184:232,1,75.0000028610231,8|0,0:0|0:0,0:0:0:0:
226,69,62911,2,0,L|280:16,1,75.0000028610231
264,172,63125,2,0,L|264:264,1,75.0000028610231,8|0,0:0|0:0,0:0:0:0:
307,102,63340,2,0,L|360:48,1,75.0000028610231
408,144,63554,2,2,P|472:244|339:258,1,300.000011444092,8|0,0:0|0:0,0:0:0:0:
152,312,64411,5,8,0:0:0:0:
104,268,64518,1,0,0:0:0:0:
88,204,64625,1,0,0:0:0:0:
96,136,64732,1,0,0:0:0:0:
140,84,64839,1,8,0:0:0:0:
200,52,64947,1,0,0:0:0:0:
268,60,65054,1,0,0:0:0:0:
320,104,65161,1,0,0:0:0:0:
332,172,65268,2,2,P|256:272|224:144,1,300.000011444092,0|0,0:0|0:0,0:0:0:0:
448,264,66125,22,0,P|468:208|444:116,1,150.000005722046,8|0,0:0|0:0,0:0:0:0:
344,192,66554,2,8,B|336:180|336:180|328:200|328:200|320:180|320:180|312:200|312:200|304:180|304:180|296:200|296:200|288:180|288:180|280:200|280:200|272:180|272:180|264:200|264:200|256:180|256:180|248:200|248:200|240:180|240:180|232:200|232:200|224:180|224:180,1,300.000011444092,0|8,0:0|0:0,0:0:0:0:
188,192,67089,1,0,0:0:0:0:
164,160,67197,1,0,0:0:0:0:
164,116,67304,1,0,0:0:0:0:
184,76,67411,2,2,B|192:64|192:64|200:84|200:84|208:64|208:64|216:84|216:84|224:64|224:64|232:84|232:84|240:64|240:64|248:84|248:84|256:64|256:64|264:84|264:84|272:64|272:64|280:84|280:84|288:64|288:64|296:84|296:84|304:64|304:64,1,300.000011444092,2|0,0:0|0:0,0:0:0:0:
298,78,68054,1,0,0:0:0:0:
384,152,68268,2,0,B|396:160|396:160|376:168|376:168|396:176|396:176|376:184|376:184|396:192|396:192|376:200|376:200|396:208|396:208|376:216|376:216|396:224|396:224|376:232|376:232|396:240|396:240|376:248|376:248|396:256|396:256|376:264|376:264|396:272|396:272,1,300.000011444092
320,267,69554,5,8,0:0:0:0:
354,209,69661,1,0,0:0:0:0:
342,142,69768,1,0,0:0:0:0:
290,99,69875,1,0,0:0:0:0:
223,99,69982,1,8,0:0:0:0:
171,142,70089,1,0,0:0:0:0:
159,209,70197,1,0,0:0:0:0:
193,267,70304,1,0,0:0:0:0:
256,290,70411,2,0,L|256:136,2,150.000005722046,8|0|0,0:0|0:0|0:0,0:0:0:0:
60,136,71268,6,0,L|88:64,1,75.0000028610231,8|0,0:0|0:0,0:0:0:0:
60,248,71482,2,0,L|88:317,1,75.0000028610231
164,132,71697,2,0,L|212:72,1,75.0000028610231,8|0,0:0|0:0,0:0:0:0:
164,252,71911,2,0,L|212:312,1,75.0000028610231
384,332,72125,6,2,P|435:210|380:56,3,300.000011444092,8|0|8|0,0:0|0:0|0:0|0:0,0:0:0:0:
252,288,73839,2,2,P|336:233|249:90,1,300.000011444092,8|0,0:0|0:0,0:0:0:0:
168,240,74696,2,0,P|208:168|132:160,1,150.000005722046,8|0,0:0|0:0,0:0:0:0:
72,144,75125,2,0,L|52:72,1,75.0000028610231,8|0,0:0|0:0,0:0:0:0:
72,240,75339,2,0,L|52:312,2,75.0000028610231
128,196,75982,1,0,0:0:0:0:
200,188,76410,1,0,0:0:0:0:
272,200,76839,1,0,0:0:0:0:
336,236,77268,21,0,0:0:0:0:
444,188,77482,1,0,0:0:0:0:
388,80,77696,1,0,0:0:0:0:
276,116,77910,1,0,0:0:0:0:
199,248,78125,1,0,0:0:0:0:
232,268,78232,1,0,0:0:0:0:
264,287,78339,1,0,0:0:0:0:
296,307,78446,1,0,0:0:0:0:
328,324,78553,2,0,L|368:348,5,37.5000014305115
360,188,78982,6,0,L|384:112,2,75.0000028610231,8|0|0,0:0|0:0|0:0,0:0:0:0:
232,152,79410,2,0,L|209:223,2,75.0000028610231,8|0|0,0:0|0:0|0:0,0:0:0:0:
104,108,79839,2,0,L|128:32,1,75.0000028610231,8|0,0:0|0:0,0:0:0:0:
152,256,80267,5,8,0:0:0:0:
180,264,80375,1,0,0:0:0:0:
208,272,80482,1,0,0:0:0:0:
236,280,80589,1,0,0:0:0:0:
264,288,80696,1,8,0:0:0:0:
292,296,80803,1,0,0:0:0:0:
320,304,80910,2,0,L|348:216,1,75.0000028610231
372,244,81125,1,8,0:0:0:0:
400,252,81232,1,0,0:0:0:0:
428,260,81339,2,0,L|456:172,1,75.0000028610231
448,180,81553,5,8,0:0:0:0:
444,172,81660,1,0,0:0:0:0:
440,164,81767,1,0,0:0:0:0:
436,156,81875,1,0,0:0:0:0:
432,148,81982,1,8,0:0:0:0:
428,140,82089,1,0,0:0:0:0:
424,132,82196,1,0,0:0:0:0:
420,124,82303,1,0,0:0:0:0:
416,116,82410,2,0,L|432:32,2,75.0000028610231,8|0|0,0:0|0:0|0:0,0:0:0:0:
280,116,82839,2,0,L|264:212,2,75.0000028610231,8|0|0,0:0|0:0|0:0,0:0:0:0:
144,116,83267,2,0,L|160:24,2,75.0000028610231,8|0|0,0:0|0:0|0:0,0:0:0:0:
148,132,83589,1,0,0:0:0:0:
152,148,83696,1,8,0:0:0:0:
156,164,83803,1,0,0:0:0:0:
340,264,84125,22,0,L|360:184,2,75.0000028610231,8|0|0,0:0|0:0|0:0,0:0:0:0:
204,264,84553,2,0,L|185:336,2,75.0000028610231,8|0|0,0:0|0:0|0:0,0:0:0:0:
68,256,84982,2,0,L|88:176,2,75.0000028610231,8|0|0,0:0|0:0|0:0,0:0:0:0:
64,236,85303,1,0,0:0:0:0:
60,216,85410,1,8,0:0:0:0:
56,196,85517,1,0,0:0:0:0:
52,176,85624,1,0,0:0:0:0:
48,152,85732,1,0,0:0:0:0:
44,132,85839,6,0,L|32:44,2,75.0000028610231,8|0|0,0:0|0:0|0:0,0:0:0:0:
176,112,86267,2,0,L|172:32,2,75.0000028610231,8|0|0,0:0|0:0|0:0,0:0:0:0:
308,132,86696,2,0,L|312:24,2,75.0000028610231,8|0|0,0:0|0:0|0:0,0:0:0:0:
308,160,87017,1,0,0:0:0:0:
308,188,87124,1,8,0:0:0:0:
308,216,87232,1,0,0:0:0:0:
115,189,87553,6,0,P|76:260|79:327,1,150.000005722046,8|0,0:0|0:0,0:0:0:0:
208,288,87981,2,0,B|212:301|212:301|225:284|225:284|228:305|228:305|240:288|240:288|243:309|243:309|256:292|256:292|258:314|258:314|271:296|271:296|274:318|274:318|287:300|287:300|289:322|289:322|302:305|302:305|305:326|305:326|318:309|318:309|320:330|320:330,1,300.000011444092,8|8,0:0|0:0,0:0:0:0:
336,288,88517,1,0,0:0:0:0:
352,264,88624,1,0,0:0:0:0:
368,240,88731,1,0,0:0:0:0:
384,216,88839,1,8,0:0:0:0:
400,192,88946,1,0,0:0:0:0:
416,168,89053,1,0,0:0:0:0:
432,144,89160,1,0,0:0:0:0:
448,120,89267,2,10,P|476:40|328:72,3,300.000011444092,8|8|8|8,0:0|0:0|0:0|0:0,0:0:0:0:
300,260,90981,22,10,P|172:336|44:240,1,300.000011444092,8|8,0:0|0:0,0:0:0:0:
232,224,91839,2,0,P|169:263|114:197,1,150.000005722046,8|0,0:0|0:0,0:0:0:0:
20,112,92267,1,8,0:0:0:0:
52,124,92374,1,0,0:0:0:0:
92,140,92481,1,0,0:0:0:0:
132,156,92588,1,0,0:0:0:0:
176,168,92696,6,0,L|164:84,2,75.0000028610231,8|0|0,0:0|0:0|0:0,0:0:0:0:
272,212,93124,2,0,L|284:296,2,75.0000028610231,8|0|0,0:0|0:0|0:0,0:0:0:0:
336,136,93553,2,0,L|324:52,1,75.0000028610231,8|0,0:0|0:0,0:0:0:0:
420,304,93981,1,8,0:0:0:0:
368,308,94088,1,0,0:0:0:0:
316,312,94196,1,0,0:0:0:0:
264,316,94303,1,0,0:0:0:0:
212,320,94410,2,0,L|204:232,2,75.0000028610231,8|0|0,0:0|0:0|0:0,0:0:0:0:
160,328,94731,1,0,0:0:0:0:
108,332,94838,1,8,0:0:0:0:
56,340,94946,2,0,L|48:252,2,75.0000028610231
124,136,95267,6,0,L|107:208,1,75.0000028610231,8|0,0:0|0:0,0:0:0:0:
167,55,95481,2,0,L|218:0,1,75.0000028610231
210,178,95696,2,0,L|193:250,1,75.0000028610231,8|0,0:0|0:0,0:0:0:0:
254,97,95910,2,0,L|305:42,1,75.0000028610231
312,172,96124,2,0,L|424:140,2,75.0000028610231,8|0|0,0:0|0:0|0:0,0:0:0:0:
268,268,96553,2,0,L|376:280,2,75.0000028610231,8|0|0,0:0|0:0|0:0,0:0:0:0:
192,208,96981,1,8,0:0:0:0:
192,208,97088,1,0,0:0:0:0:
192,208,97195,1,0,0:0:0:0:
192,208,97303,1,0,0:0:0:0:
192,208,97410,1,8,0:0:0:0:
192,208,97517,1,0,0:0:0:0:
452,112,97838,21,8,0:0:0:0:
452,112,97945,1,0,0:0:0:0:
408,112,98053,2,0,P|332:88|268:120,1,150.000005722046,0|8,0:0|0:0,0:0:0:0:
272,160,98374,1,0,0:0:0:0:
272,204,98481,2,0,P|348:228|408:199,1,150.000005722046,0|8,0:0|0:0,0:0:0:0:
404,208,98803,1,0,0:0:0:0:
400,216,98910,1,0,0:0:0:0:
396,224,99017,1,0,0:0:0:0:
392,232,99124,1,8,0:0:0:0:
388,240,99231,1,0,0:0:0:0:
384,248,99338,1,0,0:0:0:0:
380,256,99445,1,0,0:0:0:0:
376,264,99553,5,8,0:0:0:0:
372,272,99660,1,0,0:0:0:0:
368,280,99767,2,0,P|292:304|228:272,1,150.000005722046,0|8,0:0|0:0,0:0:0:0:
232,240,100088,1,0,0:0:0:0:
232,204,100195,2,0,P|156:180|92:212,1,150.000005722046,0|8,0:0|0:0,0:0:0:0:
96,200,100517,1,0,0:0:0:0:
96,192,100624,1,0,0:0:0:0:
96,184,100731,1,0,0:0:0:0:
96,176,100838,1,8,0:0:0:0:
96,168,100945,1,0,0:0:0:0:
396,120,101267,6,0,P|416:184|392:272,1,150.000005722046,8|0,0:0|0:0,0:0:0:0:
284,192,101695,2,0,B|276:180|276:180|268:200|268:200|260:180|260:180|252:200|252:200|244:180|244:180|236:200|236:200|228:180|228:180|220:200|220:200|212:180|212:180|204:200|204:200|196:180|196:180|188:200|188:200|180:180|180:180|172:200|172:200|164:180|164:180,1,300.000011444092,8|8,0:0|0:0,0:0:0:0:
172,188,102231,1,0,0:0:0:0:
176,180,102338,1,0,0:0:0:0:
180,172,102445,1,0,0:0:0:0:
184,164,102552,1,8,0:0:0:0:
188,156,102660,1,0,0:0:0:0:
192,148,102767,1,0,0:0:0:0:
196,140,102874,1,0,0:0:0:0:
200,132,102981,22,0,P|296:64|404:184,3,300.000011444092,8|0|8|0,0:0|0:0|0:0|0:0,0:0:0:0:
216,256,104695,2,0,P|255:165|310:294,1,300.000011444092,8|0,0:0|0:0,0:0:0:0:
252,48,105552,2,0,P|345:70|355:145,1,150.000005722046
192,324,105981,2,0,L|266:313,1,75.0000028610231,8|0,0:0|0:0,0:0:0:0:
116,280,106195,2,0,L|93:208,1,75.0000028610231,0|0,0:0|0:0,0:0:0:0:
212,208,106409,1,4,0:0:0:0:
