osu file format v5

[General]
AudioFilename: 5-13moskau.mp3
AudioLeadIn: 0
PreviewTime: 73253
Countdown: 1
SampleSet: Normal
StackLeniency: 0.7
Mode: 0
LetterboxInBreaks: 1
EditorBookmarks: 22177
EditorDistanceSpacing: 1.39999997615814

[Metadata]
Title:Moskau
Artist:Dschinghis Khan
Creator:RemmyX25
Version:animask style
Source:
Tags:

[Difficulty]
HPDrainRate:6
CircleSize:5
OverallDifficulty:7
SliderMultiplier:1.6
SliderTickRate:2

[Events]
//Background and Video events
0,0,"Animiracle_Klonoa_by_lite_butterflies.jpg"
//Break Periods
2,55749,57163
2,103749,112706
2,170949,184934
2,215292,221506
2,245844,250744
//Storyboard Layer 0 (Background)
//Storyboard Layer 1 (Failing)
//Storyboard Layer 2 (Passing)
//Storyboard Layer 3 (Foreground)
//Storyboard Sound Samples
//Background Colour Transformations
3,100,163,162,255

[TimingPoints]
22159,457.142857142857,4,1,0,70,1,0
185829,-100,4,1,0,100,0,0
222395,-100,4,1,0,100,0,0

[Colours]
Combo1 : 0,128,255
Combo2 : 255,255,0
Combo3 : 255,255,255
Combo4 : 0,0,0

[HitObjects]
224,160,22159,6,0,B|160:104,2,80
304,232,22845,2,0,B|368:176,1,80
312,80,23302,2,0,B|240:16,1,80
136,40,23759,2,0,B|64:112,1,80,0|4
72,208,24216,1,0
176,240,24445,1,0
176,240,24559,1,0
176,240,24674,1,0
176,240,24788,1,0
176,240,24902,1,0
288,240,25131,1,0
400,240,25359,1,0
424,16,25816,5,0
88,40,26502,2,0,B|88:136|208:80|184:16|328:96|168:256|24:88,1,400
32,97,27874,2,0,C|24:184,1,80
256,192,28331,12,0,29474
256,192,29931,5,0
368,192,30159,2,0,B|408:152|352:80|184:128,1,240
0,200,31302,1,0
112,200,31531,1,0
224,200,31759,1,0
264,24,32216,5,0
376,24,32445,1,0
488,24,32674,1,0
488,24,32788,1,0
488,24,32902,1,0
432,120,33131,2,0,B|416:184|336:200|376:296,1,160
480,264,33816,1,0
256,304,34274,5,0
192,216,34502,1,0
264,128,34731,1,0
192,40,34959,1,0
96,240,35416,2,0,B|24:240,2,40
32,144,35874,2,0,B|48:96|128:120,1,80
96,112,36331,2,0,B|71:47|143:39,1,80
116,45,36788,2,0,B|168:16|208:48,1,80
304,48,37245,1,0
416,48,37474,1,0
360,144,37702,5,0
136,144,38159,1,0
352,208,38616,1,0
48,88,39531,5,0
104,184,39759,1,0
160,88,39988,1,0
256,144,40216,1,0
352,88,40445,2,0,B|424:168|344:240,2,160
304,192,41588,1,0
344,296,41816,2,0,B|240:312|96:280|96:136,1,320
208,136,42959,5,0
320,136,43188,2,0,B|200:-40|16:120,1,320
248,192,44559,1,0
248,304,44788,1,0
424,168,45245,2,0,B|368:144|448:88,1,80
423,106,45702,2,0,B|416:64|352:64,1,80
8,136,46845,5,0
72,224,47074,1,0
144,136,47302,1,0
208,224,47531,1,0
280,136,47759,2,0,B|280:240|392:240,1,160
480,240,48445,1,0
272,328,48902,1,0
272,328,49016,1,0
272,328,49131,1,0
272,328,49245,1,0
272,328,49359,1,0
272,328,49474,1,0
272,328,49588,1,0
64,240,50045,1,0
200,56,50502,6,0,B|280:-24|328:72,1,160
256,152,51188,1,0
368,152,51416,2,0,B|448:72|496:168,1,160
432,256,52102,1,0
320,256,52331,1,0
248,344,52559,1,0
248,344,52674,1,0
248,344,52788,1,0
176,256,53016,1,0
64,256,53245,2,0,B|64:184|136:184|112:88|320:112,1,320
424,112,54388,1,0
424,224,54616,1,0
424,224,54845,1,0
424,336,55074,6,0,B|376:336,4,40
48,192,58045,5,0
48,192,58274,1,0
48,192,58502,1,0
160,192,58731,2,0,B|176:104|304:104,1,160
480,192,59645,1,0
368,192,59874,1,0
256,192,60102,1,0
160,256,60331,2,0,B|160:344|288:344,1,160
176,72,61702,6,0,B|176:128,1,40,8|0
232,112,61931,2,0,B|232:160,1,40,8|0
288,152,62159,2,0,B|288:208,2,40
496,72,62845,5,0
496,296,63302,1,0
456,192,63531,1,0
344,224,63759,1,0
232,256,63988,1,0
144,192,64216,5,2
344,96,64674,1,2
16,24,65359,5,0
104,96,65588,1,0
192,24,65816,1,0
304,24,66045,2,0,B|240:96|352:168,1,160
432,104,66731,1,0
448,216,66959,1,0
464,328,67188,1,0
352,312,67416,1,0
240,296,67645,2,0,B|160:296|136:360|80:296,1,160
56,200,68331,5,0
80,88,68559,1,0
192,104,68788,1,0
304,120,69016,1,0
416,136,69245,1,0
352,224,69474,5,0
352,224,69702,2,0,B|352:312,1,80
464,304,70159,1,0
464,192,70388,1,0
352,176,70616,2,0,B|352:72,1,80
432,16,71074,1,0
320,16,71302,1,0
208,16,71531,2,0,B|120:144|216:232|392:144|224:104,2,320
256,144,75188,6,0,B|208:152|248:208,1,80
245,204,75645,2,0,B|264:256|216:280,1,80
245,204,76102,2,0,B|176:208|168:160,1,80
245,204,76559,2,0,B|312:208|328:248,1,80
424,192,77016,1,0
320,56,77359,1,0
320,56,77473,1,0
208,56,77702,1,0
208,56,77931,2,0,B|208:160,2,80
32,192,78845,5,0
200,192,79188,1,0
200,192,79302,1,0
312,192,79531,1,0
312,192,79759,2,0,B|312:144,4,40
496,64,80674,6,0,B|432:64,1,40
400,64,80903,2,0,B|400:120,1,40
400,160,81131,2,0,B|448:160,1,40
496,160,81360,2,0,B|496:112,2,40
432,376,82045,5,2
304,192,82502,6,0,B|304:248|256:256,1,80
304,192,82959,2,0,B|240:192|256:128,1,80
252,146,83416,2,0,B|280:104|328:128,1,80
252,146,83874,2,0,B|216:112|152:136,1,80
80,192,84331,1,0
80,304,84559,1,0
80,304,84674,1,0
80,304,84788,1,0
176,248,85016,1,0
288,248,85245,2,0,L|344:248|344:288,2,80
504,192,86159,5,0
336,192,86502,2,0,L|272:192,1,40
184,192,86845,1,0
184,192,87074,2,0,L|72:192,2,80
32,24,87988,6,0,L|32:80,1,40
32,120,88216,2,0,L|96:120,1,40
128,120,88445,2,0,L|128:64,1,40
128,24,88674,2,0,L|80:24,2,40
272,192,89359,5,2
80,304,89816,6,0,L|168:304,1,80
272,296,90274,1,0
384,288,90502,1,0
392,176,90731,2,0,L|488:176,1,80,0|0
472,64,91188,1,0
288,192,91645,5,0
176,184,91874,1,0
64,176,92102,1,0
72,64,92331,1,0
184,72,92559,2,0,L|184:32,4,40
256,280,93474,5,0
424,280,93816,1,0
424,280,93931,1,0
424,168,94159,1,0
312,168,94388,1,0
368,72,94616,1,0
368,184,94845,1,0
256,376,95302,5,0
256,320,95416,1,0
256,264,95531,1,0
256,208,95645,1,0
256,152,95759,1,0
256,40,95988,1,0
256,40,96216,1,0
480,40,96674,5,2
424,256,97131,6,0,B|480:256|480:192,1,80
478,209,97588,2,0,B|480:144|416:144,1,80
439,146,98045,2,0,B|384:144|384:208,1,80
384,192,98502,2,0,B|384:264|464:256,1,80
312,256,98959,1,0
200,248,99188,1,0
200,248,99302,1,0
200,248,99416,1,0
88,240,99645,1,0
88,128,99874,2,0,B|88:200,2,40
88,16,100331,1,0
304,64,100788,6,0,B|488:64,1,160
384,144,101474,1,0
464,224,101702,2,0,B|264:224,1,160
104,120,102616,1,0
216,120,102845,1,0
328,120,103074,1,0
440,120,103302,1,0
272,360,103531,1,4
40,192,113588,5,0
40,304,113816,1,0
152,304,114045,1,0
256,272,114274,1,0
360,304,114502,1,0
360,80,114959,1,0
256,192,115188,12,0,116331
96,192,117245,6,0,B|144:208|128:256,1,80
224,192,117702,1,0
280,96,117931,1,0
328,192,118159,2,0,B|328:256|376:248,3,80
160,328,119302,5,0
160,328,119416,1,0
160,328,119530,1,0
160,328,119644,1,0
160,328,119759,1,0
160,328,119874,1,0
160,328,119988,1,0
112,72,120902,6,0,B|296:72,1,160
384,72,121588,1,0
384,184,121816,2,2,B|312:184|312:272|408:280|408:368|200:328,1,320,0|0
136,240,122959,1,0
24,232,123188,1,0
32,120,123416,1,0
144,128,123645,1,0
256,136,123874,1,2
368,144,124102,1,2
480,152,124331,1,2
472,264,124559,1,2
360,256,124788,1,2
248,248,125016,1,2
136,240,125245,1,2
136,128,125474,2,4,B|280:136|224:32|136:40|256:176,1,240
464,192,126616,5,0
464,192,126731,1,0
464,192,126845,1,0
464,192,126959,1,0
464,192,127074,1,0
464,192,127188,1,0
464,192,127302,1,0
16,192,128216,5,0
128,192,128559,2,0,B|208:200|224:112,1,120
224,16,129131,1,0
336,16,129359,1,0
448,16,129588,1,0
448,16,129816,1,0
312,192,130274,5,0
312,192,130388,1,0
312,192,130502,1,0
312,192,130731,1,0
312,192,130845,1,0
312,192,130959,1,0
56,160,131874,5,0
56,272,132102,1,0
168,272,132331,1,0
256,208,132559,2,0,B|264:160|168:160,1,80
424,160,133245,1,0
424,160,133474,1,0
248,296,133931,5,0
360,296,134159,1,0
360,184,134388,1,0
248,184,134616,1,0
24,32,135531,5,0
192,32,135874,2,0,B|128:64|200:136,1,120
193,129,136445,2,0,B|16:80|16:360,1,320
376,56,138274,5,0
96,192,139416,5,0
96,304,139645,1,0
208,304,139874,1,0
320,304,140102,2,0,B|400:192|296:192,1,160
96,96,141016,1,0
208,96,141245,1,0
152,192,141474,1,0
152,192,141702,2,0,B|152:280|272:280,1,160
376,280,142388,1,2
224,40,143074,5,0
336,40,143302,1,0
448,40,143531,1,0
392,136,143759,2,0,B|288:136,1,80
312,248,144216,2,0,B|416:248,1,80
312,168,144674,1,0
232,88,144902,1,0
152,168,145131,1,0
232,248,145359,1,0
120,256,145588,5,0
120,32,146045,1,0
448,96,146731,5,0
448,208,146959,1,0
448,320,147188,1,0
352,264,147416,2,0,B|472:264,2,80
240,264,148102,1,0
128,256,148331,1,0
136,144,148559,1,0
248,136,148788,1,0
360,128,149016,1,0
472,128,149245,5,2
472,352,149702,1,2
256,192,151074,12,4,151988
256,192,152445,5,4
256,192,152902,12,2,156559
256,192,157016,6,0,B|352:192,1,80
256,192,157474,2,0,B|256:96,1,80
256,192,157931,2,0,B|168:192,1,80
256,264,158388,1,0
424,264,158730,1,0
424,264,158845,1,0
424,152,159074,1,0
424,40,159302,1,0
424,40,159416,1,0
424,40,159531,1,0
424,40,159645,1,0
424,40,159759,1,0
200,40,160216,6,0,B|304:40,1,80
280,40,160674,2,0,B|280:152,1,80
280,120,161131,2,0,B|176:120,2,80
96,240,162045,1,0
152,240,162159,1,0
208,240,162274,1,0
264,240,162388,1,0
320,240,162502,1,0
416,184,162731,1,0
416,296,162959,1,0
256,136,163416,5,2
56,24,163874,6,0,L|56:352|208:352,1,480
320,352,165474,1,0
432,352,165702,2,0,L|504:352|504:8,1,400
392,24,167074,1,0
168,24,167531,2,0,L|8:24|8:264,1,400
8,376,168902,1,0
136,192,169359,5,0
136,304,169588,1,0
248,304,169816,1,0
248,192,170045,1,0
192,288,170274,1,0
192,64,170673,5,2
72,192,185816,6,0,B|72:336|352:336|352:16,1,480
128,40,187645,2,0,B|16:40|24:152,2,160
240,40,188788,1,0
240,152,189016,2,0,B|272:104|304:152,1,80
240,240,189474,2,0,B|232:360|472:360|472:96|264:96|496:40,1,480
488,152,191074,1,0
488,264,191302,2,0,B|488:360|376:360,1,160
184,264,192216,2,0,B|184:360|296:360,1,160
184,160,193131,2,0,B|184:64|296:64,1,160
400,64,193816,1,0
344,160,194045,2,0,B|440:160|440:272,1,160
184,160,194959,6,0,B|184:64|296:64,2,160
256,192,196331,12,4,197702
256,192,198159,5,0
256,192,198616,1,0
256,192,199074,1,0
256,192,199531,2,0,B|256:24,1,160,0|2
256,192,200445,2,0,B|440:192,1,160,0|2
256,344,201359,6,0,B|168:344,1,80
64,344,201816,1,0
64,120,202274,2,0,B|160:120,1,80
256,120,202731,1,0
464,192,203188,1,0
352,192,203416,2,0,B|352:240,2,40
256,256,203874,1,0
160,192,204102,2,0,B|160:248,2,40
48,192,204559,1,0
176,8,205016,5,0
280,48,205245,1,0
176,80,205474,1,0
280,112,205702,1,0
176,152,205931,1,0
280,176,206159,1,0
176,224,206388,1,0
376,328,206845,6,0,B|480:328,1,80
456,216,207302,2,0,B|360:216,1,80
376,104,207759,2,0,B|480:104,2,80,0|0|2
256,296,208674,5,0
448,192,209131,5,8
256,96,209588,5,0
56,192,210045,5,8
256,192,210502,12,0,213702
256,192,214159,5,0
256,192,214274,1,0
256,192,214388,1,0
256,192,214616,1,0
256,192,214731,1,0
256,192,214845,1,0
256,192,215074,1,0
64,192,222388,6,2,B|256:192,1,160,0|0
448,192,223302,2,2,B|280:192,1,160,0|8
256,80,223988,1,8
256,80,224216,2,0,B|256:128,4,40,8|0|0|0|8
456,344,225359,5,0
456,232,225587,1,0
344,232,225816,1,4
344,120,226044,1,2
120,120,226502,1,2
104,320,226959,5,0
216,304,227188,1,0
328,288,227416,1,0
440,272,227645,2,2,B|496:240|464:136|336:88,1,240,0|8
16,104,229016,5,0
128,104,229244,1,0
128,216,229473,1,0
240,216,229702,1,0
464,216,230159,1,2
328,80,230616,5,0
328,80,230731,1,0
328,80,230845,1,0
216,80,231074,1,0
216,192,231302,1,0
328,192,231531,2,0,B|328:312|456:312,1,160,0|8
64,152,232901,5,0
176,152,233130,2,0,B|136:208|216:232,1,80
400,272,233815,1,0
488,200,234044,1,0
400,120,234273,2,0,B|400:48|264:56,1,160,0|0
168,56,234958,1,0
256,192,235264,12,0,238388
256,192,238845,6,0,B|208:192|208:248,1,80
208,243,239302,2,0,B|208:312|144:312,1,80
152,192,239759,2,0,B|104:192|104:248,1,80
104,243,240216,2,0,B|104:304|40:304,1,80
32,192,240674,1,0
32,80,240902,1,0
144,80,241131,1,0
256,80,241359,1,0
368,80,241588,2,0,B|488:80,2,80
256,272,242501,5,0
256,160,242730,1,0
256,272,242958,1,0
256,160,243187,1,0
256,272,243415,1,0
256,160,243644,1,0
256,272,243873,1,0
48,192,244330,1,0
160,192,244558,1,0
104,96,244787,1,0
216,96,245015,1,0
328,96,245244,1,0
424,296,245644,5,2
96,192,251644,5,0
96,192,251873,1,0
96,192,252101,1,0
96,192,252330,1,0
96,192,252558,1,0
320,192,253016,1,0
160,40,253473,5,0
272,40,253701,1,0
328,40,253816,1,0
384,40,253930,1,0
496,40,254158,1,0
496,152,254387,1,0
496,208,254501,1,0
496,264,254616,1,0
496,376,254844,1,0
272,376,255301,6,0,B|96:376,1,160
112,264,255987,1,0
112,152,256216,2,0,B|312:152,1,160
56,208,257130,1,0
224,56,257587,1,0
448,56,258044,1,0
448,56,258158,1,0
448,56,258273,1,0
448,168,258501,1,0
256,288,258958,6,0,B|256:248,3,26.6666666666667
256,288,259416,2,0,B|256:328,3,26.6666666666667
256,288,259873,1,0
256,120,260273,1,0
24,24,260787,5,0
24,80,260901,1,0
24,136,261016,1,0
24,248,261244,1,0
120,192,261473,1,0
232,192,261701,1,0
288,192,261816,1,0
344,192,261930,1,0
456,192,262158,1,0
400,88,262616,6,0,B|304:88,1,80
208,88,263073,1,0
320,88,263301,2,0,B|424:88,2,80
208,88,263987,1,0
8,192,264444,5,0
120,192,264673,1,0
120,192,264901,1,0
8,192,265130,1,0
120,192,265358,1,0
120,192,265587,1,0
8,192,265816,1,0
256,192,266273,6,0,B|304:192,1,40
256,192,266501,2,0,B|256:144,1,40
256,192,266730,2,0,B|200:192,1,40
256,192,266958,2,0,B|256:248,1,40
256,192,267187,1,0
424,40,267644,5,4
