osu file format v5

[General]
AudioFilename: moskaushort.mp3
AudioLeadIn: 0
PreviewTime: 73253
Countdown: 0
SampleSet: Normal
StackLeniency: 0.2
Mode: 0
LetterboxInBreaks: 1
EditorDistanceSpacing: 2

[Metadata]
Title:Moskau
Artist:Dschinghis Khan
Creator:RemmyX25
Version:WyndII
Source:
Tags:

[Difficulty]
HPDrainRate:7
CircleSize:5
OverallDifficulty:7
SliderMultiplier:1.8
SliderTickRate:2

[Events]
//Background and Video events
0,0,"IdontKnowWhatPicshouldIchoose.jpg"
//Break Periods
2,119812,132119
//Storyboard Layer 0 (Background)
//Storyboard Layer 1 (Failing)
//Storyboard Layer 2 (Passing)
//Storyboard Layer 3 (Foreground)
4,3,1,"Beatmapwynd.png",309,168 F,0,308,4879,0,1 M,0,4879,5336,309,168,305,436 F,0,4879,5336,1,0 S,0,4879,5336,1,0.1
//Storyboard Sound Samples
//Background Colour Transformations
3,100,0,0,0

[TimingPoints]
308,457.108029864391,4,1,0,80,1,0
58132,-50,4,1,0,80,0,0
58360,-100,4,1,0,80,0,0
88072,-50,4,1,0,80,0,0
89444,-100,4,1,0,80,0,0
155039,-50,4,1,0,80,0,0
155267,-100,4,1,0,80,0,0
184979,-50,4,1,0,80,0,0
186350,-100,4,1,0,80,0,0
200473,3000,4,1,0,80,1,0

[Colours]
Combo1 : 255,21,21
Combo2 : 255,255,255
Combo3 : 0,0,160

[HitObjects]
48,40,5793,2,0,B|104:40|104:104,1,90,2|0
104,183,6250,2,0,B|104:240|160:240,1,90,0|2
248,240,6707,2,0,B|248:297|304:297,1,90
391,296,7164,6,0,B|448:297|448:241,1,90
448,152,7621,1,2
448,64,7850,1,0
360,64,8078,5,0
272,64,8307,1,0
184,64,8535,1,2
96,64,8764,5,0
96,152,8993,1,0
184,152,9221,1,0
272,152,9450,5,2
360,152,9678,1,0
448,152,9907,1,0
448,240,10135,5,0
400,240,10250,1,0
352,240,10364,1,2
264,240,10592,5,0
216,240,10707,1,0
168,240,10821,1,0
80,240,11050,6,0,B|80:184,2,45,0|0|2
160,192,11507,2,0,B|160:136,2,45
232,144,11964,2,0,B|232:88,2,45,0|0|2
304,96,12421,6,0,B|304:40,2,45
392,96,12878,2,0,B|392:141,2,45,0|0|2
472,144,13335,2,0,B|472:189,2,45
392,192,13792,6,0,B|392:136,2,45,0|0|2
304,192,14249,2,0,B|304:237,2,45
216,192,14706,1,0
128,192,14935,6,2,B|128:24|320:24,2,270
304,192,16763,2,2,B|512:192,1,180
304,192,17678,1,0
304,192,17792,5,0
304,192,17906,1,2
216,192,18135,1,0
32,200,18592,6,2,B|32:272|96:312|176:280,1,180
232,240,19277,1,0
311,199,19506,2,2,B|373:174|437:214|437:286,1,180
480,200,20192,5,0
480,112,20420,2,2,B|480:40|416:0|336:32,1,180
264,24,21106,1,0
264,24,21220,5,0
264,24,21334,1,0
264,104,21563,2,2,B|264:208,1,90
80,192,22249,5,0
80,192,22363,1,0
80,192,22477,1,0
80,192,22592,5,0
80,192,22706,2,2,B|272:192,3,180
432,192,24534,1,0
344,192,24763,5,0
344,104,24991,1,0
344,104,25106,1,0
344,104,25220,5,0
432,104,25448,1,0
248,104,25906,1,0
64,104,26363,5,0
152,104,26591,1,0
152,104,26705,1,0
152,104,26820,5,0
248,104,27048,1,0
152,104,27277,1,0
64,104,27505,5,0
256,192,27848,12,0,29334
40,88,29562,6,0,B|120:32|232:96,1,180,4|0
256,160,30248,1,0
301,84,30477,2,0,B|392:32|472:88,1,180,0|4
488,128,31048,5,0
488,168,31162,2,0,B|488:224|432:224,1,90,0|10
384,224,31505,1,0
335,224,31619,6,0,B|280:224|280:280,1,90,0|2
256,320,31962,1,0
231,280,32077,2,0,B|231:225|175:224,1,90,0|10
128,224,32419,5,0
80,224,32534,2,0,B|25:224|25:168,3,90,2|2|0|10
112,136,33448,1,0
200,112,33676,6,0,B|256:-32|304:128,2,180,4|8|4
192,200,34819,2,0,B|152:256,2,45,2|0|10
256,136,35276,2,0,B|256:64,2,45,0|0|2
320,200,35733,6,0,B|360:256,2,45,0|0|10
256,264,36190,2,0,B|256:360,2,90,0|2|0
256,176,36876,1,14
320,112,37105,6,0,B|352:72|424:112,1,90,0|2
464,168,37562,1,2
400,232,37790,2,0,B|368:272|296:232,1,90,14|0
256,176,38247,5,0
168,176,38476,1,2
112,104,38705,2,4,B|8:184|128:272,2,180,10|0|10
256,104,39847,5,0
400,104,40076,2,4,B|504:184|384:272,2,180,2|10|2
312,104,41219,2,0,B|312:232,1,90,0|10
224,192,41676,6,2,B|224:320,1,90
312,280,42133,2,2,B|312:184,1,90,0|8
224,192,42590,2,0,B|224:88,1,90,0|2
312,104,43047,6,0,B|208:104,1,90,0|10
224,192,43504,2,2,B|328:192,1,90
256,264,43961,1,2
470,297,44190,6,0,B|392:352|301:300,1,180,0|4
256,224,44876,1,0
210,299,45105,2,0,B|120:352|40:296,1,180,4|0
24,256,45675,5,0
24,208,45789,2,0,L|24:152|80:152,1,90,0|10
104,152,46132,1,0
144,152,46246,6,0,L|199:152|224:104,1,90,0|2
256,96,46589,1,0
288,119,46704,2,0,L|305:151|360:151,1,90,0|2
400,152,47046,5,0
454,152,47161,2,0,L|488:152|488:208,1,90,0|10
400,216,47618,1,0
399,303,47847,6,0,B|360:327|312:303,1,90,2|0
256,232,48304,1,8
199,303,48532,2,0,B|160:327|112:303,1,90,2|0
112,216,48990,6,0,B|112:144,1,45,0|2
152,168,49218,2,0,B|152:112,1,45,8|0
200,120,49447,2,0,B|200:64,1,45,0|2
240,72,49675,6,0,B|240:16,4,45,0|0|0|0|8
328,72,50361,2,0,B|384:72|384:128,1,90,2|0
384,168,50704,1,0
384,208,50818,5,0
384,296,51046,1,8
336,296,51161,1,0
288,296,51275,5,2
200,296,51504,1,0
152,296,51618,1,0
104,296,51732,5,2
104,208,51961,2,8,B|256:-8|408:248,2,360
160,280,54018,1,2
240,320,54246,5,0
320,280,54475,1,2
240,240,54703,2,0,B|240:128,1,90,8|0
240,40,55160,5,4
152,72,55389,2,2,L|112:104|144:144,1,90
224,144,55846,2,0,B|224:200|168:200,1,90,0|10
80,200,56303,6,2,L|40:232|72:272,1,90
151,264,56760,2,0,B|151:320|207:320,1,90,0|10
296,320,57217,2,2,L|336:288|304:248,1,90
224,255,57675,6,0,B|225:200|280:200,1,90,0|10
344,32,58132,2,0,B|464:32|488:168,1,180
296,128,58589,2,0,B|184:128,1,90,0|2
208,312,59046,5,0
24,312,59274,1,2
24,128,59503,1,0
208,128,59732,5,2
208,312,59960,1,0
384,312,60189,1,2
384,128,60417,5,2
384,128,60646,2,0,B|184:128,1,180,8|8
208,216,61331,1,4
208,312,61560,6,8,B|0:312,1,180
32,224,62246,2,0,B|32:96,1,90,0|10
120,136,62703,1,0
208,136,62931,5,10
296,136,63160,2,0,B|296:226,1,90,0|2
384,224,63617,1,10
472,224,63846,5,2
472,136,64074,2,2,B|360:136,1,90
384,48,64531,2,8,B|328:48,1,45,2|0
336,96,64760,6,0,B|280:96,1,45,2|0
296,136,64988,2,0,B|248:136,1,45
248,184,65217,2,0,B|200:184,1,45,2|2
200,224,65445,6,0,B|144:224,1,45
152,272,65674,2,10,B|48:272,1,90
64,184,66131,2,10,B|64:56|208:56,2,180
152,192,67274,6,2,B|256:192,1,90
328,192,67731,2,2,B|328:80,2,90,2|2|0
416,192,68417,2,0,B|416:304,2,90,2|0|2
328,192,69102,6,8,B|432:192,1,90,0|2
416,104,69559,1,8
328,104,69788,1,2
240,104,70016,6,8,B|16:104,1,180
56,152,70588,1,0
56,192,70702,2,8,B|264:192,1,180,10|8
240,240,71274,1,0
240,280,71388,2,2,B|360:280,1,90
256,192,71673,12,0,73445
256,144,73673,5,4
176,192,73902,1,4
256,240,74130,1,4
336,192,74359,5,4
256,144,74588,2,0,B|256:24,3,90,0|2|2|0
296,56,75387,1,0
344,56,75502,5,0
432,56,75730,2,0,B|432:160,1,90,10|0
432,192,76073,1,0
432,232,76187,5,0
432,320,76416,2,2,B|320:320,1,90,2|8
248,320,76873,2,2,B|128:320,1,90
112,320,77216,5,0
64,320,77330,2,0,B|64:200,3,90,0|8|0|0
64,184,78130,1,2
64,136,78244,6,0,B|176:136,1,90,0|8
240,136,78702,1,0
280,136,78816,1,0
320,136,78930,6,2,B|424:136,1,90
408,224,79387,2,0,B|408:336,2,90,8|0|0
360,224,79959,1,2
312,224,80073,5,0
224,224,80301,1,12
136,224,80530,1,0
40,224,80759,2,2,B|40:120,1,90
128,128,81216,6,0,B|264:128,1,90,8|0
304,128,81673,1,4
392,128,81901,2,0,B|504:128,1,90,4|0
480,216,82358,6,2,B|440:256|392:216,1,90,2|0
352,224,82701,1,2
304,224,82815,1,0
256,224,82930,5,8
208,223,83044,2,0,B|168:189|120:224,1,90
80,224,83387,1,2
32,224,83501,5,0
32,136,83730,2,0,B|96:136,1,45
120,136,83958,1,10
208,136,84187,5,0
296,136,84415,2,2,B|480:136,3,180,0|8|0|8
472,224,86015,1,0
472,312,86244,6,2,B|392:384|288:296,1,180,0|8
216,312,86929,1,0
128,312,87158,2,2,B|56:232|144:128,1,180,0|8
216,144,87844,6,0,B|264:144,1,45
312,72,88072,2,2,B|432:144|288:240,4,180,0|0|8|0|0
144,144,89215,1,4
144,144,89444,5,12
320,144,89901,2,2,B|320:32|448:64,1,180,0|8
320,192,90815,2,2,B|321:303|197:272,1,180,0|8
104,272,91501,5,0
104,184,91729,2,0,B|104:112,1,45
104,96,91958,1,0
144,96,92072,5,0
184,96,92186,1,10
224,96,92300,1,0
272,96,92415,5,2
272,136,92529,1,0
272,176,92643,1,2
272,224,92758,6,0,B|272:272,1,45,0|2
312,272,92986,2,0,B|368:272,1,45,0|10
448,272,93329,2,0,B|344:272,1,90,0|2
352,184,93786,6,2,B|352:88,1,90
440,96,94243,2,2,B|440:208,1,90
352,184,94700,2,2,B|456:184,1,90,0|8
264,184,95386,5,6
80,184,95843,1,12
168,184,96072,1,4
80,184,96300,5,6
168,184,96757,1,10
344,184,97214,2,2,B|472:184,2,90,0|0|8
168,184,98129,6,2,B|48:184,2,90,0|0|8
256,40,99043,1,2
256,80,99157,1,0
256,120,99271,5,0
256,208,99500,1,10
256,248,99614,1,0
256,288,99728,5,2
344,288,99957,1,2
384,288,100071,1,0
432,288,100186,6,2,B|432:168,1,90,0|8
432,104,100643,2,0,L|432:64|392:32,1,90,0|2
344,32,100986,1,0
296,32,101100,5,0
248,32,101214,1,0
200,32,101328,2,2,L|144:32|144:96,3,90,10|2|2|2
144,112,102128,5,0
144,160,102243,2,0,L|144:288,1,90,10|0
144,296,102585,1,0
192,296,102700,5,2
232,296,102814,1,0
272,296,102928,2,0,L|328:296,1,45,2|0
360,296,103157,6,0,L|464:296,2,90,10|2|2
360,208,103842,1,8
360,120,104071,1,6
176,112,104528,6,2,B|120:128|56:184|88:272|136:312|192:312|248:280|296:248,2,360
264,112,106585,2,0,B|264:56,2,45,0|10|2
352,112,107042,2,0,B|416:112,2,45,0|2|2
352,200,107499,6,2,B|352:248,2,45,0|0|8
168,200,108185,2,2,B|224:200,2,45,8|0|0
80,200,108642,2,2,B|80:144,2,45,8|0|0
80,288,109099,6,2,B|128:288,2,45,8|0|0
81,200,109556,2,0,B|81:64,1,90,8|0
256,112,110013,1,10
432,112,110242,5,10
432,288,110471,1,2
256,288,110699,1,2
256,200,110928,5,10
72,200,111385,2,12,B|272:200,1,180,12|4
296,200,111956,1,4
336,200,112070,5,4
384,200,112185,1,4
256,192,112299,12,12,113670
56,32,113899,5,0
56,32,114127,2,2,B|-56:336|288:184|408:344,1,540
392,144,115956,1,8
336,72,116184,5,0
280,144,116413,1,2
224,72,116641,1,0
168,144,116870,5,8
168,320,117327,1,0
344,320,117784,1,8
256,320,118013,5,2
256,232,118241,1,0
256,232,118698,2,0,B|256:40,2,180,8|0|8
256,192,132869,6,10,B|184:192|192:48|264:56,1,180
256,192,133783,2,10,B|328:192|320:336|248:328,1,180
136,192,134697,1,10
136,192,134812,5,0
136,192,134926,1,0
136,192,135040,1,0
136,192,135154,5,10
224,192,135383,1,0
312,192,135611,1,2
360,192,135726,5,8
400,192,135840,1,0
440,192,135954,1,0
488,192,136069,5,2
488,144,136183,1,8
456,112,136297,2,0,B|352:56,1,90,0|10
336,48,136640,5,0
240,48,136869,1,2
240,48,136983,1,10
160,88,137211,6,2,B|120:144|104:184|104:208,1,90,0|10
112,216,137554,1,0
112,256,137668,2,0,B|120:304|192:336,1,90,2|10
256,328,138126,6,2,B|320:328|368:328|392:224,1,180
392,192,138697,1,2
392,144,138811,2,0,B|272:144,1,90,10|2
248,144,139154,5,0
200,144,139268,1,10
152,144,139383,1,0
104,144,139497,5,2
104,144,139725,1,10
96,320,140183,2,2,B|152:312|144:248,1,90,8|0
56,239,140640,6,2,B|49:184|105:176,1,90,8|0
208,176,141097,1,14
296,176,141325,2,0,B|392:176,1,90,0|8
256,48,142011,6,10,B|152:80|88:184,1,180
104,192,142582,1,0
72,224,142697,1,0
112,240,142811,5,0
127,279,142925,2,10,B|230:248|270:177,1,180
312,176,143497,1,0
288,136,143611,5,0
328,136,143725,1,0
360,167,143839,2,10,B|392:270|462:310,1,180
464,264,144411,5,0
464,216,144525,2,0,B|464:96,1,90,0|10
464,80,144868,1,0
464,32,144982,6,2,B|336:32,1,90
192,40,145668,2,2,B|120:56|48:136,1,135,8|0
120,112,146125,2,2,B|232:112,3,90,10|2|10|2
256,112,146925,5,0
296,112,147039,1,10
384,112,147268,1,0
384,288,147496,5,2
200,288,147725,1,2
200,112,147953,1,10
16,112,148182,5,2
16,288,148411,1,10
104,288,148639,2,0,B|48:248|128:200,1,90,0|10
104,128,149096,5,0
104,40,149325,2,2,B|144:-16|192:64,1,90,8|0
264,48,149782,1,8
352,48,150010,6,2,B|392:-8|440:72,1,90,0|8
424,136,150467,1,0
423,223,150696,2,2,B|366:256|422:296,1,90,8|0
328,296,151153,5,8
240,295,151382,2,2,B|298:263|242:223,1,90,0|8
248,136,151839,1,0
160,135,152067,6,2,B|128:78|88:134,1,90,8|0
88,216,152524,1,8
88,304,152753,2,2,B|128:248|176:328,1,90
248,304,153210,6,2,B|192:264|272:216,1,90
248,144,153667,1,0
248,56,153896,1,8
336,56,154124,5,0
336,144,154353,1,8
424,144,154581,1,0
424,56,154810,5,0
248,56,155039,2,6,B|136:64|64:144,1,180,0|8
80,216,155496,2,2,B|192:216,1,90,0|8
352,216,155953,5,10
264,64,156181,1,2
168,216,156410,1,0
352,216,156638,5,10
264,64,156867,1,2
168,216,157096,1,10
264,216,157324,6,0,B|392:216,1,90,2|10
440,216,157781,2,0,B|440:112,1,90,0|10
392,128,158124,1,0
344,128,158238,5,0
256,128,158467,2,2,B|216:88|136:88|152:80,1,90,8|0
88,72,158924,2,2,B|56:184,1,90
152,160,159381,6,2,B|264:160,1,90,8|0
328,160,159838,1,10
416,160,160067,1,0
504,160,160295,5,10
464,80,160524,2,2,B|416:56|360:88,1,90,0|8
288,80,160981,2,2,B|240:56|184:88,1,90,0|8
160,80,161324,5,0
112,80,161438,1,0
112,168,161667,1,10
152,168,161781,5,0
192,168,161895,1,0
280,168,162124,2,2,B|248:248|296:272,2,90,8|0|8
368,168,162809,5,2
408,87,163038,2,10,B|488:143|416:255|408:271,3,180,8|8|8|8
328,256,164638,2,2,B|328:152,1,90,0|8
328,120,164981,5,0
328,72,165095,1,0
280,80,165209,1,8
232,72,165323,5,2
232,120,165438,1,0
232,160,165552,2,0,B|232:272,1,90,8|2
184,248,165895,5,0
144,248,166009,2,2,B|40:248,1,90,0|8
56,160,166466,2,0,B|64:56,1,90,0|10
152,64,166923,6,0,B|264:64,1,90,0|2
328,64,167380,2,2,B|448:64,1,90,0|8
416,152,167838,2,0,B|416:256,1,90,0|10
328,240,168295,5,2
264,176,168523,1,10
224,152,168638,1,0
224,104,168752,5,2
264,88,168866,1,0
304,88,168980,1,10
336,120,169095,5,0
344,160,169209,1,2
336,200,169323,1,0
304,232,169437,5,10
256,240,169552,1,0
216,224,169666,1,2
176,200,169780,5,0
152,160,169895,1,10
152,112,170009,1,0
168,72,170123,5,2
200,40,170237,1,0
240,32,170352,1,10
280,32,170466,5,0
320,40,170580,1,2
352,72,170695,1,0
368,112,170809,5,10
376,152,170923,1,0
360,192,171037,1,2
328,224,171152,5,0
280,232,171266,1,10
232,232,171380,1,0
192,216,171494,5,2
160,184,171609,1,0
152,136,171723,1,10
160,88,171837,5,0
192,56,171952,1,2
232,40,172066,1,8
272,40,172180,6,10,B|464:40,1,180
456,88,172752,1,0
456,128,172866,1,0
456,168,172980,5,8
456,208,173094,2,2,B|336:208,1,90,8|0
320,208,173437,1,0
272,208,173551,5,8
192,208,173780,2,2,B|136:184,1,90,0|8
16,208,174237,1,0
48,176,174351,5,0
80,144,174466,1,8
112,120,174580,2,2,B|160:80,1,45
184,72,174808,5,0
224,64,174923,2,10,B|288:56|344:112|232:160|400:64|384:56,1,180
464,64,175608,2,2,B|464:184,1,90,0|8
464,240,176066,6,2,B|352:240,1,90,0|8
280,240,176523,1,0
192,240,176751,1,4
280,240,176980,5,4
192,240,177208,1,4
104,240,177437,1,2
280,240,177665,5,10
280,56,177894,1,2
104,56,178123,1,10
104,240,178351,5,2
280,240,178580,1,10
368,240,178808,2,2,B|368:120,1,90,0|8
368,104,179151,5,8
320,104,179265,2,2,B|200:104,1,90,8|0
136,104,179722,2,2,B|96:120|72:152|72:184,1,90,0|8
168,168,180180,6,2,B|280:168,1,90,0|8
344,160,180637,2,2,B|347:174|323:206|283:222,1,90,0|8
112,280,181322,2,2,B|136:320|232:352|256:352,1,135,8|0
272,344,181779,6,2,B|272:232,1,90,8|0
272,160,182236,2,2,B|272:48,2,90
320,160,182808,1,8
362,160,182922,6,2,B|418:168|442:112,1,90,0|8
440,32,183379,2,2,B|344:32,1,90
304,32,183722,1,0
256,32,183836,6,10,B|200:16|144:32|144:32|208:48|200:96|200:96|128:64|112:120,1,270
136,176,184751,1,0
136,216,184865,1,0
224,216,184979,6,14,B|224:136|336:136|336:232,4,180
400,216,186350,1,4
400,32,186808,2,10,B|216:32,1,180
218,72,187379,5,0
216,120,187493,2,10,B|416:120,1,180
392,168,188065,1,0
392,208,188179,6,0,B|208:208,1,180
120,208,188865,2,0,B|56:208|56:144,1,90,8|0
144,136,189322,2,0,B|144:72|208:72,1,90,0|8
232,151,189779,6,8,B|232:202|296:202,1,90
336,200,190122,1,0
376,200,190236,1,8
464,200,190464,6,8,B|480:128|456:64|384:56,1,180
304,56,191150,2,0,B|184:56,2,90,0|8|0
304,144,191836,2,0,B|304:240,1,90,8|0
120,232,192293,6,0,B|256:232,1,90,8|0
216,48,192750,1,8
392,48,192979,1,0
216,48,193207,5,8
392,48,193436,2,0,B|392:160,1,90,0|8
408,320,194121,1,8
360,320,194236,5,0
312,320,194350,1,0
264,320,194464,1,0
216,320,194578,5,8
264,248,194807,1,0
352,176,195036,1,8
304,176,195151,5,0
256,176,195265,1,0
208,176,195379,1,0
160,176,195493,5,8
72,176,195721,2,0,B|88:88|152:80,1,90,0|8
200,96,196178,2,0,B|328:96,1,90,0|8
376,96,196635,5,0
464,96,196864,1,8
464,184,197093,1,0
376,184,197321,5,8
192,184,197778,2,8,B|8:184,1,180
192,184,198692,2,8,B|224:152|248:152|264:208|264:208|288:168|320:160|336:192,1,180
264,88,199607,5,8
264,88,199835,5,8
264,88,200064,5,8
264,88,200292,5,8
264,88,200473,2,14,L|264:136,1,30
