osu file format v5

[General]
AudioFilename: moskaushort.mp3
AudioLeadIn: 1996
PreviewTime: 73253
Countdown: 1
SampleSet: Normal
StackLeniency: 0.4
Mode: 0
LetterboxInBreaks: 1
EditorBookmarks: 29542,75253

[Metadata]
Title:Moskau
Artist:Dschinghis Khan
Creator:RemmyX25
Version:Utenazord
Source:
Tags:

[Difficulty]
HPDrainRate:7
CircleSize:3
OverallDifficulty:6
SliderMultiplier:1.8
SliderTickRate:2

[Events]
//Background and Video events
1,-128,"dschinghiskhan-moskau(rebuildbyvictormendozaxvid)jj.avi"
//Break Periods
2,118878,131799
2,149048,153969
//Storyboard Layer 0 (Background)
//Storyboard Layer 1 (Failing)
//Storyboard Layer 2 (Passing)
//Storyboard Layer 3 (Foreground)
//Storyboard Sound Samples
//Background Colour Transformations
3,100,0,0,0

[TimingPoints]
288,457.108029864391,4,1,0,100,1,0
40970,-100,4,2,0,100,0,0
45084,-100,4,1,0,100,0,0
55140,-100,4,2,0,100,0,0
58797,-100,4,1,0,100,0,0
186788,-100,4,1,0,100,0,1
193987,-100,4,1,0,100,0,0
194101,-100,4,1,0,100,0,1

[Colours]
Combo1 : 255,150,0
Combo2 : 128,0,255
Combo3 : 208,242,13
Combo4 : 250,219,5
Combo5 : 240,5,5

[HitObjects]
256,192,29542,1,0
352,88,30000,1,0
256,192,30457,1,0
152,296,30914,1,4
256,192,31371,1,4
488,24,32285,5,0
488,24,32514,1,0
488,168,32971,1,0
488,168,33199,1,0
488,312,33656,1,0
488,312,33885,1,0
328,168,34571,1,4
328,168,35028,1,4
64,48,35942,5,0
64,48,36170,1,0
64,192,36628,1,0
64,192,36856,1,0
64,336,37313,1,0
64,336,37542,1,0
224,192,38227,1,4
224,192,38685,1,4
472,48,39599,5,0
360,136,40056,1,0
328,200,40284,1,0
256,200,40513,1,0
160,312,40970,2,2,B|56:312|48:184,1,180
184,232,41884,2,2,B|272:312|368:224,1,180
296,104,42799,2,2,B|416:80|440:192,1,180
320,264,43713,2,2,B|408:344|488:280,2,180
416,160,45084,2,0,B|400:72|272:88|336:192|240:248|120:112,1,360,0|4
432,288,46913,5,0
360,288,47141,1,0
288,160,47598,1,0
216,160,47827,1,0
112,56,48284,1,0
40,56,48512,1,0
256,56,49198,1,4
256,56,49655,1,4
80,288,50569,5,0
152,288,50798,1,0
256,192,51255,1,0
328,192,51484,1,0
368,48,51941,1,0
440,48,52169,1,0
256,168,52855,1,4
256,312,53312,1,4
376,48,54226,6,0,B|176:48,1,180
112,160,55140,2,2,B|336:160,1,180
400,256,56055,2,2,B|400:64,1,180
256,40,56969,2,2,B|256:240,1,180
112,248,57883,2,2,B|112:32,1,180
256,80,58797,5,0
256,224,59254,1,0
256,80,59712,1,0
256,224,60169,1,0
328,224,60397,2,0,B|328:344,2,90,0|0|8
328,152,61083,1,8
256,152,61311,2,0,B|152:152,3,90,8|0|0|0
24,184,62454,5,0
168,184,62911,1,0
312,184,63368,1,0
456,184,63826,1,0
440,48,64283,2,8,B|344:48,1,90
352,120,64740,2,8,B|456:120,1,90
448,264,65425,6,0,B|352:264,1,90
288,264,65883,1,0
288,264,66111,1,0
144,264,66568,1,0
152,120,67025,1,0
8,120,67482,1,0
8,264,67939,6,8,B|120:264,1,90
168,264,68397,1,8
312,264,68854,1,0
456,264,69311,1,0
456,336,69539,1,0
384,336,69768,1,0
240,336,70225,5,0
168,336,70454,2,0,B|168:280,1,45
168,256,70682,2,0,B|168:48,1,180
256,192,71596,1,0
256,192,72053,12,0,74339
200,144,75253,6,2,B|200:304,2,90
312,232,76167,2,2,B|312:72,2,90
256,360,77082,1,0
256,216,77539,1,0
256,72,77996,1,0
112,72,78453,1,0
104,216,78910,6,0,B|8:216,2,90
176,216,79596,1,0
248,216,79824,1,0
248,288,80053,1,0
248,216,80281,1,0
392,216,80739,5,8
416,144,80967,1,8
400,72,81196,1,8
328,48,81424,1,8
256,72,81653,1,8
256,216,82110,1,4
256,360,82567,5,0
256,216,83024,1,0
256,72,83481,1,0
400,72,83938,1,0
400,216,84395,6,0,C|544:216,1,90
488,144,84852,2,0,C|336:144,1,90
392,72,85310,2,0,C|560:72,2,90
248,72,86224,1,0
248,216,86681,1,0
248,288,86909,1,0
248,216,87138,1,0
120,288,87595,1,0
32,168,88052,5,8
16,96,88281,1,8
64,40,88509,1,8
136,40,88738,1,8
200,72,88966,1,8
256,208,89424,1,4
488,32,90338,1,0
256,200,91252,1,0
16,360,92166,1,0
256,200,93080,5,0
400,200,93538,2,0,B|400:88|256:88,1,180
136,88,94452,2,0,B|24:88|24:232,1,180
120,304,95366,1,8
176,256,95595,1,8
120,304,95823,1,8
176,256,96052,1,8
232,208,96280,1,8
256,352,96737,5,4
256,208,97194,1,0
256,208,97652,1,0
256,64,98109,1,0
256,208,98566,1,0
152,304,99023,6,0,B|104:304|80:248,1,90
80,184,99480,2,0,B|184:184,1,90
240,184,99937,2,0,B|288:184|312:240,1,90
328,304,100394,2,0,B|432:304,2,90
256,304,101080,1,0
256,232,101308,1,0
128,304,101765,5,0
40,184,102223,1,0
184,208,102680,1,8
200,136,102908,1,8
264,176,103137,1,8
288,104,103365,1,8
344,152,103594,1,8
256,264,104051,1,4
256,192,104965,12,0,106337
56,320,106794,5,0
160,224,107251,1,0
264,320,107708,1,0
376,224,108165,1,0
464,336,108622,1,0
416,280,108851,1,0
376,224,109079,1,0
256,304,109536,5,0
176,184,109993,2,8,B|56:184,2,90
248,184,110679,2,8,B|352:184,1,90
480,184,111365,1,4
376,288,111822,6,0,B|296:200|200:304,1,180
80,328,112736,6,0,B|-8:248|96:152,1,180
224,176,113650,1,0
368,176,114107,1,0
328,32,114565,2,0,B|240:72,1,90
224,136,115022,2,0,B|304:184,1,90
304,256,115479,2,0,B|232:320,1,90
160,312,115936,1,0
48,224,116393,5,0
184,192,116850,1,0
48,144,117307,2,8,B|48:32,1,90
120,56,117764,1,8
120,128,117993,2,8,B|232:128,1,90
168,120,132849,6,0,B|256:56|344:128,1,180
344,264,133763,6,0,B|256:328|168:256,1,180
256,136,134677,6,0,B|296:136|304:96|256:80|216:88|200:136|232:192|296:200|328:176|336:136|336:80|296:56|232:48|192:64|176:96|168:136|200:192|216:216|264:240|296:248|360:192|360:144|352:112|328:64,1,540
472,56,136506,5,0
472,128,136734,2,0,B|368:104,1,90
384,176,137191,1,0
344,240,137420,2,0,B|240:216,1,90
232,288,137877,2,0,B|336:312,2,90
88,288,138791,5,0
200,200,139248,1,0
88,112,139705,1,0
232,112,140163,2,8,B|312:208,4,90
256,256,141534,1,4
128,192,141991,6,0,B|224:136,1,90
280,144,142448,6,0,B|416:272,1,180
456,216,143134,1,0
464,144,143362,2,0,B|248:144,1,180
152,80,144277,5,0
8,80,144734,1,0
96,192,145191,2,0,B|-16:192,2,90
104,264,145876,2,0,B|200:264,1,90
336,264,146562,1,0
336,120,147019,1,0
192,120,147476,5,8
248,160,147705,1,8
304,208,147933,1,8
248,256,148162,1,8
184,296,148391,1,8
256,56,155247,6,0,B|256:248,1,180
120,272,156161,2,0,B|120:176,1,90
192,184,156618,2,0,B|192:304,1,90
264,280,157076,1,0
336,280,157304,1,0
336,208,157533,1,8
336,64,157990,5,8
200,64,158447,1,0
56,64,158904,1,0
56,136,159133,2,0,B|56:232|184:248,1,180
248,248,159818,1,0
320,248,160047,1,0
392,248,160275,2,0,B|392:344|392:344|232:344,2,180,0|0|8
384,104,161647,6,8,B|312:32,1,90
104,40,162561,1,0
104,184,163018,1,0
104,184,163247,1,0
104,184,163475,1,0
256,184,163932,5,0
400,184,164389,1,0
408,328,164846,2,0,B|184:328,2,180,8|8|0
464,192,166218,6,0,B|464:80|288:80|288:336|160:240,1,360
64,192,167589,6,0,B|64:80|240:80|240:336|368:240,1,360
256,192,168960,12,0,171246
80,80,172160,5,0
224,80,172617,1,0
224,80,172846,1,0
224,80,173074,1,0
224,224,173531,1,0
368,224,173989,1,0
280,336,174446,6,0,B|88:336,1,180
104,192,175360,2,0,B|104:96|224:56,1,180
240,200,176274,2,0,B|360:200|360:320,2,180
88,184,177645,2,8,B|88:80,1,90
160,96,178103,2,8,B|160:200,2,90
304,96,179017,1,4
32,184,179931,5,0
320,192,180845,1,0
64,56,181759,1,0
208,56,182216,1,0
352,56,182674,1,0
496,56,183131,2,0,B|496:264,1,180
376,320,184045,5,0
232,320,184502,1,0
160,192,184959,1,8
232,192,185188,1,8
304,192,185416,1,8
376,192,185645,1,8
448,192,185873,1,8
448,48,186330,1,2
304,48,186788,6,0,B|160:16|104:160,2,180
448,32,188159,5,0
448,104,188387,6,0,B|448:296,1,180
448,352,189073,5,0
376,352,189302,5,0
304,352,189530,6,0,B|304:248,1,90
304,192,189987,5,0
160,160,190444,6,0,B|160:352,1,180
16,304,191359,5,0
16,232,191587,5,0
88,232,191816,5,0
160,232,192044,6,2,B|272:232|272:112,1,180
272,48,192730,5,8
344,48,192959,5,8
344,120,193187,5,8
424,288,193644,5,4
280,288,194101,5,0
136,288,194558,5,0
224,168,195016,5,0
368,168,195473,5,0
288,48,195930,5,0
144,72,196387,5,0
88,112,196615,5,0
80,184,196844,5,0
112,248,197073,5,0
176,280,197301,5,0
256,160,197758,5,0
320,280,198215,5,0
376,240,198443,5,0
384,168,198672,5,0
352,104,198901,5,0
288,72,199129,5,0
256,208,199587,6,0,B|208:208,2,45,8|0|8
256,136,200044,6,0,B|304:136,2,45,8|0|8
256,64,200501,5,8
256,208,200958,5,4
