osu file format v5

[General]
AudioFilename: moskaushort.mp3
AudioLeadIn: 3000
PreviewTime: -1
Countdown: 1
SampleSet: Normal
StackLeniency: 0.7
Mode: 0
LetterboxInBreaks: 1
EditorBookmarks: 288,7602,14916,29545,40746,44174,55146,69546,75261,82575,89890,97204,104518,111833,118690,129205,142005,148634,155034,166463,172177,179492,186806

[Metadata]
Title:Moskau
Artist:Dschinghis Khan
Creator:RemmyX25
Version:Symbolic
Source:
Tags:

[Difficulty]
HPDrainRate:7
CircleSize:4
OverallDifficulty:6
SliderMultiplier:2.6
SliderTickRate:2

[Events]
//Background and Video events
0,0,"background.jpg"
//Break Periods
2,7802,13866
2,44166,54116
2,82338,88860
2,148605,153984
//Storyboard Layer 0 (Background)
//Storyboard Layer 1 (Failing)
//Storyboard Layer 2 (Passing)
//Storyboard Layer 3 (Foreground)
//Storyboard Sound Samples
//Background Colour Transformations
3,100,163,162,255

[TimingPoints]
288,457.153306361288,4,1,0,20,1,0
516,-100,4,1,0,35,0,0
745,-100,4,1,0,50,0,0
1202,-100,4,1,0,75,0,0
1659,-100,4,1,0,86,0,0
2116,-100,4,1,0,100,0,0
75261,-100,4,1,0,100,0,1
82347,-100,4,1,0,100,0,0
89890,-100,4,1,0,100,0,1
97090,-100,4,1,0,100,0,0
97204,-100,4,1,0,100,0,1
104404,-100,4,1,0,100,0,0
104518,-100,4,1,0,100,0,1
111719,-100,4,1,0,100,0,0
111833,-100,4,1,0,100,0,1
118347,-100,4,1,0,100,0,0
134482,-100,4,2,0,90,0,0
135396,-100,4,2,0,75,0,0
136311,-100,4,2,0,90,0,0
154348,-100,4,1,0,100,0,0
172177,-100,4,1,0,100,0,1
179377,-100,4,1,0,100,0,0
179492,-100,4,1,0,100,0,1
186692,-100,4,1,0,100,0,0
186806,-100,4,1,0,100,0,1
198692,-100,4,1,0,90,0,0
198921,-100,4,1,0,80,0,0
199149,-100,4,1,0,70,0,0
199606,-100,4,1,0,60,0,0
200978,-100,4,1,0,100,0,0

[Colours]
Combo1 : 147,132,51
Combo2 : 92,71,88
Combo3 : 74,22,34
Combo4 : 104,145,32

[HitObjects]
128,80,288,1,0
128,208,516,2,0,L|128:352,1,130
256,336,973,1,0
256,208,1202,1,2
256,208,1316,1,2
256,208,1430,1,2
256,80,1659,2,0,L|392:80,1,130,0|4
384,336,2345,6,0,L|384:192,1,130
384,80,2802,1,0
256,80,3030,2,2,L|256:160,1,65
256,208,3259,1,2
256,336,3488,1,0
128,336,3716,1,4
128,80,4173,6,0,L|128:216,1,130
128,336,4630,1,0
256,336,4859,1,2
256,272,4973,1,2
256,208,5088,1,2
256,80,5316,2,0,L|392:80,1,130,0|4
384,336,6002,6,0,L|384:200,1,130
384,80,6459,2,0,L|248:80,1,130,0|2
255,80,6802,1,2
255,80,6916,1,2
255,80,7031,1,2
255,80,7145,1,2
128,80,7373,1,8
128,208,7602,1,4
256,192,14916,12,4,15602
40,344,16059,6,0,L|176:344,1,130
296,344,16516,1,0
296,216,16745,1,0
168,216,16974,6,2,L|168:80,3,130
298,86,17888,5,0
298,86,18116,1,0
298,86,18345,1,0
296,216,18574,6,4,B|48:216|80:72|344:88,1,390
416,320,19717,5,0
416,192,19945,1,0
288,192,20174,2,2,C|216:192,2,65
416,192,20631,5,0
416,64,20859,2,0,C|264:64,1,130,0|2
224,64,21202,1,2
160,64,21317,1,2
32,64,21545,6,0,C|112:168,2,130
32,192,22231,5,4
256,320,22688,5,0
256,192,22917,5,0
256,320,23145,6,2,C|256:48,1,260
480,192,24059,5,0
368,120,24288,6,2,C|256:195,1,130
128,192,24745,5,0
128,64,24974,5,0
128,320,25431,1,4
128,64,25888,6,4,B|128:312|272:280|256:16,1,390
376,112,26802,5,0
480,352,27260,1,0
352,352,27488,6,2,C|352:280,1,65
352,288,27717,5,2
352,160,27945,6,0,C|192:160,1,130
88,160,28402,5,0
88,288,28631,6,2,C|352:288,1,260
472,40,29545,5,4
40,344,30231,1,4
168,344,30460,5,0
424,344,30917,2,2,C|424:208,2,130
296,344,31603,2,8,C|296:272,2,65
168,344,32060,1,4
200,216,32288,5,0
392,216,32631,1,0
296,48,32974,1,0
296,176,33203,1,0
296,176,33660,1,0
296,304,33888,1,0
168,304,34117,5,0
424,304,34574,2,2,C|344:192,2,130
424,176,35260,1,8
424,112,35374,1,8
360,112,35488,1,8
232,112,35717,1,4
232,240,35945,5,0
32,240,36288,1,0
32,40,36631,2,0,C|168:40,1,130
424,40,37317,2,0,C|424:192,1,130
424,296,37774,5,0
88,296,38231,1,0
256,56,38688,2,2,C|32:56|284:265,1,520
448,240,39946,1,0
252,240,40288,2,0,C|122:240,1,130
40,344,40746,6,0,L|184:344,1,130,0|0
296,344,41203,1,0
424,344,41431,1,2
464,296,41546,1,2
464,232,41660,1,2
336,232,41888,2,0,L|232:152,1,130,0|4
472,40,42574,6,0,L|328:40,1,130,0|0
216,40,43031,1,0
88,40,43260,1,2
48,88,43374,1,2
48,152,43488,1,2
176,152,43717,2,0,L|280:232,1,130,0|4
320,192,55146,5,0
192,192,55374,2,0,C|192:328,1,130
320,320,55832,1,0
448,320,56060,1,2
448,320,56174,1,2
448,320,56289,1,2
448,192,56517,2,0,C|312:192,1,130,0|4
56,192,57203,6,2,C|192:192,3,130
312,192,58117,5,0
440,192,58346,1,0
440,320,58575,1,0
312,320,58803,6,4,C|32:320,1,260
152,80,59717,5,2
152,80,59832,1,2
152,80,59946,1,2
152,80,60060,1,2
152,80,60175,1,2
280,80,60403,1,0
280,208,60632,5,8
56,336,61089,5,12
248,336,61432,1,4
248,336,61546,1,4
376,336,61775,6,0,C|376:200,1,130
376,72,62232,2,0,C|232:72,1,130
56,256,62918,5,0
312,256,63375,5,2
312,256,63489,1,2
312,256,63603,1,2
312,256,63718,1,2
312,256,63832,1,2
440,256,64060,1,0
440,128,64289,6,8,C|160:128,1,260,8|12
88,296,65089,1,4
152,296,65203,1,4
280,296,65432,6,2,C|416:296,3,130
344,40,66575,1,0
80,40,67032,5,0
80,40,67146,1,0
80,40,67260,1,0
80,40,67375,1,0
80,40,67489,1,0
80,168,67718,1,0
80,296,67946,5,8
336,296,68403,5,12
336,96,68746,2,4,C|336:168,1,65
336,296,69089,5,0
336,296,69318,1,0
208,296,69546,6,4,C|208:152,1,130
456,232,70232,2,2,C|320:232,2,130
192,232,71146,1,0
192,232,71375,1,0
256,192,71603,12,12,73432
136,192,73889,6,2,C|400:192,2,260
384,128,75261,6,2,C|296:32|208:136,3,260
88,64,77089,5,0
88,256,77432,1,8
88,320,77546,1,8
216,320,77775,1,0
216,192,78004,1,0
304,96,78232,1,0
432,64,78461,1,4
432,320,78918,5,0
432,128,79261,1,8
432,64,79375,1,8
304,64,79604,1,0
304,192,79832,1,0
216,288,80061,1,0
88,320,80289,1,4
88,56,80746,6,2,C|88:192,2,130
216,56,81432,2,2,C|216:192,1,130
440,56,82118,5,4
440,311,89890,6,2,C|384:199|322:313,1,260,2|2
64,311,90804,2,2,C|121:199|182:313,1,260,2|2
440,312,91718,5,0
240,312,92061,1,8
240,248,92175,1,8
240,120,92404,1,0
352,176,92632,1,0
456,120,92861,1,0
352,64,93090,1,4
88,72,93547,5,0
288,72,93890,1,8
288,136,94004,1,8
288,264,94233,1,0
176,208,94461,1,0
72,264,94690,1,0
176,320,94918,1,4
344,120,95375,6,2,C|440:240,4,130
80,120,96747,5,4
256,312,97204,6,2,C|256:48,1,260
26,175,98118,2,2,C|266:47,1,260
488,176,99033,6,2,C|248:48,1,260
256,184,99718,1,0
256,312,99947,1,8
256,184,100175,1,0
256,312,100404,1,4
26,175,100861,6,2,C|266:47,1,260
256,184,101547,1,0
256,312,101776,1,8
256,184,102004,1,0
256,312,102233,1,4
400,96,102690,6,2,C|400:232,4,130
144,160,104061,5,4
400,160,104518,5,2
256,192,104976,12,2,105890
40,344,106347,5,0
232,344,106690,1,8
296,344,106804,1,8
424,344,107033,2,0,C|480:216,1,130
328,224,107490,1,0
232,136,107719,1,4
472,40,108176,5,0
280,40,108519,1,8
216,40,108633,1,8
88,40,108861,2,0,C|32:168,1,130
184,160,109319,1,0
280,248,109547,1,4
40,344,110004,6,2,C|40:208,1,130
40,80,110461,2,2,C|176:80,1,130
296,80,110919,2,2,C|296:344,1,260,2|4
40,344,111833,5,2
256,192,112290,12,2,113204
472,40,113662,5,0
280,40,114004,1,8
216,40,114119,1,8
88,40,114347,2,0,C|32:168,1,130
184,160,114804,1,0
280,248,115033,1,4
40,344,115490,5,0
232,344,115833,1,8
296,344,115947,1,8
424,344,116176,2,0,C|480:216,1,130
328,224,116633,1,0
232,136,116862,1,4
472,40,117319,6,2,C|472:176,1,130
472,296,117776,2,2,C|342:296,1,130
208,296,118233,1,4
80,296,118462,6,0,C|80:160,1,130,0|0
80,40,118919,1,0
208,40,119147,1,2
208,104,119262,1,2
208,168,119376,1,2
336,168,119605,1,0
464,168,119833,1,4
464,40,120062,5,0
464,168,120290,2,0,C|464:304,1,130,0|0
336,296,120747,1,0
336,168,120976,1,2
336,168,121090,1,2
336,168,121205,1,2
208,168,121433,1,0
80,168,121662,1,4
80,296,121890,5,0
80,168,122119,2,0,C|240:168,2,130,0|0|0
80,40,122805,1,2
144,40,122919,1,2
208,40,123033,1,2
208,104,123147,1,2
208,168,123262,1,2
336,168,123490,1,0
464,168,123719,1,4
464,40,123947,5,0
336,40,124176,2,0,C|200:40,1,130,0|0
208,168,124633,1,2
272,168,124747,1,2
336,168,124862,1,2
336,296,125090,2,0,C|200:296,1,130,0|4
80,296,125548,5,0
206,296,125776,2,0,C|336:296,1,130,0|0
448,232,126233,1,0
336,168,126462,1,2
272,168,126576,1,2
208,168,126690,1,2
208,40,126919,2,0,C|344:40,1,130,0|4
464,40,127376,5,0
338,40,127605,2,0,C|208:40,2,130,0|0|0
400,152,128290,1,2
400,216,128405,1,2
400,280,128519,1,2
400,344,128633,1,2
336,344,128748,1,2
208,344,128976,1,4
80,296,129205,5,0
80,40,129662,1,0
80,168,129890,1,2
144,168,130005,1,2
208,168,130119,1,2
336,168,130348,1,0
112,40,130805,2,4,C|272:40,1,130
464,168,131490,5,2
464,232,131605,1,2
424,280,131719,1,2
368,304,131833,1,2
304,304,131948,1,2
184,256,132176,1,0
184,128,132405,1,0
72,192,132633,1,0
72,64,132862,5,2
440,64,133319,1,2
440,320,133776,5,2
72,320,134233,1,2
72,64,134691,5,2
440,64,135148,1,2
440,320,135605,5,2
72,320,136062,1,2
72,64,136519,5,0
264,64,136862,2,8,C|264:136,1,65
264,256,137205,1,0
264,256,137433,1,0
264,128,137662,1,0
376,72,137891,1,4
440,320,138348,5,0
248,320,138691,2,8,C|248:248,1,65
248,128,139034,1,0
248,128,139262,1,0
248,256,139491,1,0
136,312,139720,1,4
64,64,140176,6,2,C|208:64,2,130
64,192,140862,2,2,C|200:192,1,130
416,64,141548,5,4
448,320,142005,5,2
64,320,142462,1,2
64,64,142919,5,2
448,64,143376,1,2
216,192,143834,5,0
408,192,144177,1,8
344,192,144291,1,8
216,192,144519,1,0
216,192,144748,2,0,C|64:192,1,130
87,192,145205,1,4
344,192,145662,5,0
152,192,146005,1,8
216,192,146119,1,8
344,192,146347,1,0
344,192,146576,2,0,C|496:192,1,130
473,192,147033,1,4
256,48,147491,5,2
256,176,147719,1,2
256,304,147948,1,2
256,176,148177,1,2
256,48,148405,1,2
48,64,155034,5,0
48,192,155263,1,0
48,320,155491,1,0
176,320,155720,6,2,C|176:56,1,260
432,64,156634,5,0
432,128,156749,1,0
432,192,156863,1,0
432,256,156977,1,0
432,320,157091,2,0,L|302:320,1,130,0|0
304,192,157548,5,4
80,320,158006,5,2
272,320,158348,2,8,L|376:320,1,65,8|8
464,320,158691,5,0
464,192,158920,1,0
464,64,159148,1,0
336,64,159377,6,2,C|336:328,1,260
80,320,160291,5,0
80,256,160406,1,0
80,192,160520,1,0
80,128,160634,1,0
80,64,160748,2,0,L|210:64,1,130,0|0
208,192,161205,6,2,C|448:56,1,260,2|2
240,64,162005,2,4,L|136:64,1,65,8|8
192,192,162349,6,2,C|328:192,3,130,2|2|2|2
322,192,163492,1,4
96,64,163948,6,0,L|176:64,1,65
224,64,164177,2,0,L|256:128,1,65
256,184,164406,1,0
256,312,164635,1,0
384,312,164863,5,4
464,64,165320,5,2
464,256,165663,5,8
464,256,165777,1,8
336,256,166006,6,0,L|192:256,1,130
72,256,166463,6,2,C|72:112,1,130
328,126,167149,2,2,C|458:126,2,130
72,126,168063,2,2,L|72:294,1,130
256,192,168520,12,4,170349
128,184,170806,6,2,C|392:184,2,260
472,40,172177,5,2
344,40,172406,1,8
280,40,172520,1,8
216,40,172634,1,8
40,344,173091,5,2
168,344,173320,1,8
232,344,173435,1,8
296,344,173549,1,8
472,40,174006,5,0
344,40,174234,2,0,L|272:40,1,65
216,40,174463,2,0,L|128:40,1,65
88,40,174691,2,0,L|16:40,1,65
24,104,174920,1,0
152,104,175149,2,2,L|304:104,1,130
40,344,175834,5,0
168,344,176063,2,0,L|248:344,1,65
296,344,176292,2,0,L|376:344,1,65
424,344,176520,2,0,L|496:344,1,65
488,280,176749,1,0
360,280,176977,2,2,L|224:280,1,130
256,16,177663,5,2
256,192,177892,1,2
432,192,178120,1,2
256,192,178349,1,2
80,192,178577,1,2
256,192,178806,5,4
256,368,179034,5,4
440,73,179492,6,2,C|384:185|322:71,1,260,2|2
64,73,180406,2,2,C|121:185|182:71,1,260,2|2
440,72,181320,5,0
240,72,181663,1,8
240,136,181777,1,8
240,264,182006,1,0
360,208,182234,1,0
472,264,182463,1,8
416,296,182577,1,8
360,328,182692,1,12
72,312,183149,5,0
272,312,183492,1,8
272,248,183606,1,8
272,120,183835,1,0
152,176,184063,1,0
40,120,184292,1,8
96,88,184406,1,8
152,56,184521,1,12
432,64,184977,5,2
432,192,185206,2,8,L|432:264,1,65
432,322,185435,1,10
304,322,185663,2,2,L|304:192,1,130
80,64,186349,5,4
80,320,186806,5,2
80,192,187035,2,8,L|176:192,1,65
208,192,187263,1,8
432,64,187720,5,2
432,192,187949,2,8,L|352:192,1,65
304,192,188178,1,8
80,64,188635,5,2
208,64,188863,1,0
272,72,188978,1,0
328,104,189092,1,0
368,152,189206,1,0
392,208,189320,1,0
400,272,189435,1,0
384,336,189549,1,0
256,336,189778,2,2,L|184:208,1,130
432,320,190463,5,2
304,320,190691,1,0
240,312,190806,1,0
184,280,190920,1,0
144,232,191034,1,0
120,176,191148,1,0
112,112,191263,1,0
128,48,191377,1,0
256,48,191606,2,2,L|264:192,1,130
480,32,192292,5,2
256,32,192521,1,2
32,32,192749,1,2
256,192,192978,1,2
480,352,193206,1,2
256,352,193435,5,4
32,352,193663,5,4
48,48,194121,5,2
104,80,194235,1,0
160,112,194349,1,0
216,144,194463,1,0
272,176,194578,1,2
472,344,195035,5,2
416,312,195149,1,0
360,280,195263,1,0
304,248,195378,1,0
248,216,195492,1,2
48,48,195949,6,2,B|48:192,1,130
48,304,196406,1,0
176,304,196635,1,0
176,176,196863,2,8,B|176:104,1,65
176,48,197092,2,2,B|304:104,1,130
448,312,197778,6,2,B|448:176,1,130
448,48,198235,1,0
320,48,198464,1,0
320,176,198692,2,8,B|320:248,1,65
320,304,198921,2,2,B|192:248,1,130,10|2
40,40,199606,5,2
256,40,199835,1,2
472,40,200063,1,2
472,256,200292,1,2
256,256,200521,1,2
72,72,200978,5,6
