osu file format v5

[General]
AudioFilename: moskaushort.mp3
AudioLeadIn: 982
PreviewTime: 73253
Countdown: 1
SampleSet: Normal
StackLeniency: 0.7
Mode: 0
LetterboxInBreaks: 1
EditorBookmarks: 18365,58137,73452,82595,104542,105914

[Metadata]
Title:Moskau
Artist:Dschinghis Khan
Creator:RemmyX25
Version:Skyripper
Source:
Tags:collab

[Difficulty]
HPDrainRate:7
CircleSize:5
OverallDifficulty:8
SliderMultiplier:1.6
SliderTickRate:2

[Events]
//Background and Video events
0,0,"lartoBG.jpg"
1,0,"dschinghiskhan-moskau(rebuildbyvictormendozaxvid)jj.avi"
//Break Periods
2,55366,56937
2,75023,81395
2,118457,128329
//Storyboard Layer 0 (Background)
//Storyboard Layer 1 (Failing)
//Storyboard Layer 2 (Passing)
//Storyboard Layer 3 (Foreground)
//Storyboard Sound Samples
//Background Colour Transformations
3,100,163,162,255

[TimingPoints]
288,457.153306361288,4,1,0,12,1,0
765,-100,4,1,0,28,0,0
1222,-100,4,1,0,38,0,0
1679,-100,4,1,0,56,0,0

[HitObjects]
256,152,288,5,0
256,224,516,1,0
328,224,745,1,0
328,152,973,1,0
400,152,1202,2,0,B|400:56,1,80
480,72,1659,2,0,B|392:72,1,80,0|0
328,72,2116,5,0
328,152,2345,1,0
256,152,2573,1,0
256,224,2802,1,0
328,224,3030,1,0
400,224,3259,2,0,B|400:320,1,80
480,304,3716,2,0,B|384:304,1,80
328,304,4173,5,0
288,304,4288,1,0
248,304,4402,1,0
176,304,4630,1,0
104,304,4859,1,0
32,304,5088,1,0
32,264,5202,1,0
32,224,5316,1,0
32,152,5545,1,0
32,224,5773,5,0
104,224,6002,1,0
144,224,6116,1,0
184,224,6230,1,0
256,224,6459,2,0,B|256:280,4,40
256,152,7145,1,0
328,152,7373,2,0,B|328:40,1,80
400,72,7831,5,0
328,72,8059,2,0,B|224:72,1,80
176,72,8516,1,0
136,72,8631,1,0
96,72,8745,2,0,B|96:160,1,80
96,224,9202,1,0
96,152,9431,2,0,B|200:152,1,80
248,152,9888,2,0,B|248:240,1,80
320,232,10345,1,0
360,232,10459,1,0
400,232,10573,1,0
320,232,10802,6,0,B|208:232,1,80
160,232,11259,2,0,B|248:232,1,80
240,312,11716,2,0,B|240:224,1,80
240,152,12173,2,0,B|240:248,1,80
312,232,12631,1,0
384,232,12859,1,0
347,169,13088,2,0,B|347:64,2,80
272,168,13774,5,0
232,168,13888,1,0
192,168,14002,1,0
120,168,14231,2,0,B|56:168,2,40
192,168,14688,1,0
272,168,14916,6,0,B|272:32|272:32|320:32,1,160
368,32,15602,2,0,B|368:208|368:216|368:216|424:160|456:168|488:200|496:216|496:232|496:272|480:304|464:328|424:352|384:360|344:320|336:296|320:248|288:232|256:248|232:296|240:352|232:368|200:368|152:336|136:320|96:320|80:344|40:288|16:296|16:240|24:144|56:144,1,960
107,169,18574,6,0,B|277:169,1,160
269,240,19259,1,0
344,240,19488,1,0
344,312,19717,1,0
344,240,19945,1,0
416,240,20174,5,0
381,239,20288,1,0
344,240,20402,1,0
344,312,20631,1,0
272,312,20859,1,0
200,312,21088,1,0
128,312,21317,5,2
104,280,21431,1,2
128,248,21545,1,2
104,216,21659,1,2
128,184,21774,1,2
128,40,22231,6,0,B|304:40,1,160
360,40,22917,2,0,B|456:88|440:152|344:240|248:264,1,320
192,272,24059,2,0,B|128:320|216:360|288:360,1,160
336,352,24745,2,0,B|416:320|448:224|440:120,1,240
368,152,25660,5,0
296,152,25888,1,0
224,152,26117,1,0
224,224,26345,1,0
224,152,26574,1,0
224,80,26802,1,0
152,80,27031,1,0
112,80,27145,1,0
72,80,27260,1,0
72,152,27488,1,0
72,224,27717,1,0
144,224,27945,1,0
72,224,28174,1,0
72,296,28402,1,0
144,296,28631,6,2,B|208:296,4,40
256,200,29545,5,0
256,56,30002,1,0
328,56,30231,2,0,B|456:288,1,240
371,266,31145,1,0
408,328,31374,1,0
152,192,32288,5,0
152,296,32631,1,0
152,192,32974,1,0
152,120,33203,2,0,L|216:80|272:152,1,160
304,208,33888,2,0,L|496:24,1,240
479,186,35031,1,0
232,344,35945,5,0
120,344,36288,1,0
232,344,36631,1,0
304,344,36860,2,0,L|360:280|288:224,1,160
229,236,37545,2,0,L|97:236|97:102,1,240
240,128,38688,1,0
56,344,39603,5,0
160,344,39946,1,0
56,344,40288,1,0
56,272,40517,6,0,L|56:176,1,80
128,192,40974,2,0,L|224:192,1,80
280,192,41431,1,0
280,120,41660,1,0
352,120,41888,1,0
392,120,42003,1,0
432,120,42117,1,0
432,192,42346,5,0
432,120,42574,1,0
432,48,42803,1,0
392,48,42917,1,0
352,48,43031,1,0
280,48,43260,2,0,L|280:0,2,40
208,48,43717,1,0
208,88,43831,1,0
208,128,43946,1,0
208,200,44174,6,0,L|208:376,1,160
280,360,44860,2,0,B|448:360|448:192,1,240
448,80,46003,1,0
152,80,46917,5,0
152,184,47260,1,0
256,184,47603,1,0
328,184,47831,2,0,B|328:352,1,160
400,344,48517,2,0,B|400:80,1,240
256,104,49660,1,0
120,272,50346,5,0
160,272,50460,1,0
200,272,50574,1,0
304,272,50917,1,0
304,160,51260,1,0
376,160,51489,1,0
376,304,51946,1,0
448,304,52174,1,0
448,232,52403,6,0,B|448:120,1,80
448,80,52860,2,0,B|336:80,1,80
296,80,53317,6,0,B|96:80|96:288,1,320
204,277,54574,1,0
312,277,54917,1,0
384,278,55146,1,0
448,56,58117,5,0
448,128,58346,1,0
448,200,58575,1,0
448,272,58803,1,0
304,272,59260,1,0
160,272,59717,1,0
160,200,59946,1,0
160,160,60060,1,0
160,120,60175,1,0
160,48,60403,1,0
232,48,60632,5,2
232,352,61089,5,2
40,352,61775,5,0
40,280,62003,1,0
112,280,62232,1,0
40,280,62460,1,0
40,136,62918,2,0,B|120:80|216:152,1,160
192,208,63603,1,0
264,208,63832,2,0,B|264:304,1,80
264,360,64289,5,2
264,72,64746,5,2
440,192,65432,5,0
440,264,65660,1,0
368,264,65889,1,0
440,264,66118,1,0
296,264,66575,2,0,B|112:264,1,160
136,192,67260,1,0
136,152,67375,1,0
136,112,67489,1,0
208,112,67718,1,0
208,40,67946,5,2
208,328,68403,5,2
424,328,69089,5,0
424,256,69318,1,0
424,328,69546,1,0
352,328,69775,2,0,B|264:328|264:192,1,160
336,216,70461,1,0
336,144,70689,2,0,B|336:64|216:64,1,160
152,64,71375,1,0
80,64,71603,2,0,C|32:192|264:360|408:224,1,640,0|2
256,0,73889,5,2
472,192,74346,5,2
256,384,74803,5,6
56,192,82575,5,0
56,264,82804,1,0
56,192,83032,1,8
200,192,83489,1,0
200,120,83718,1,0
200,192,83947,1,8
344,192,84404,2,0,B|344:304,2,80,0|0|8
344,120,85089,1,0
416,120,85318,1,0
416,192,85547,1,0
416,120,85775,1,8
416,264,86232,5,0
416,336,86461,1,0
344,336,86689,1,8
272,336,86918,1,0
272,264,87147,2,0,B|176:264,2,80,0|0|8
272,120,88061,5,0
200,120,88290,1,0
128,120,88518,1,8
128,192,88747,1,0
128,264,88975,1,0
416,264,89432,5,10
256,24,89890,6,0,B|256:216,1,160,0|2
256,344,90804,6,0,B|256:168,1,160,0|2
112,184,91718,5,0
184,184,91947,2,0,B|184:120,2,40
256,184,92404,1,0
328,184,92632,1,0
400,184,92861,2,0,B|400:240,2,40
400,328,93547,5,0
400,216,93890,1,0
400,184,94004,1,0
400,112,94233,1,0
328,112,94461,1,0
256,112,94690,1,0
216,112,94804,1,0
176,112,94918,1,0
176,256,95375,5,0
176,184,95604,2,0,C|288:184,1,80
328,184,96061,1,0
328,256,96290,1,0
40,256,96747,5,2
40,112,97204,6,0,B|112:64|208:120,1,160,0|2
136,240,98118,2,0,B|208:288|304:232,1,160,0|2
288,96,99033,5,0
392,96,99375,1,0
424,120,99490,1,2
440,192,99718,1,0
440,264,99947,1,0
424,336,100175,1,0
392,360,100290,1,0
352,368,100404,1,2
264,256,100861,5,0
168,312,101204,1,0
136,328,101318,1,2
112,256,101547,1,0
96,184,101776,1,0
160,152,102004,1,0
224,120,102233,1,2
360,72,102690,6,0,B|424:152,1,80
360,184,103147,2,0,B|424:264,1,80,2|0
360,304,103604,1,0
96,192,104061,5,2
240,192,104518,5,0
240,48,104976,2,0,B|376:208|228:344,1,320
240,192,106347,6,0,B|384:192,1,120
392,192,106804,1,0
392,264,107033,1,0
392,192,107261,1,0
392,120,107490,1,0
455,156,107719,1,0
456,304,108176,6,0,B|456:160,1,120
455,156,108633,1,0
456,83,108861,1,0
456,8,109090,1,0
395,47,109319,1,0
320,48,109547,1,0
176,50,110004,5,0
176,120,110233,1,0
176,192,110461,1,0
176,120,110690,1,0
104,120,110919,1,0
392,120,111376,5,2
264,192,111833,5,0
264,48,112290,2,0,B|128:208|276:344,1,320
264,192,113662,6,0,B|120:192,1,120
112,192,114119,1,0
112,120,114347,1,0
184,120,114576,2,0,B|272:120,1,80
336,120,115033,1,0
336,272,115490,6,0,B|336:144,1,120
336,120,115947,1,0
408,120,116176,1,0
408,192,116404,1,0
480,192,116633,1,0
480,120,116862,1,0
336,120,117319,5,0
336,192,117547,1,0
336,264,117776,1,0
336,336,118004,1,0
264,336,118233,1,4
256,192,129205,12,0,132862
256,192,133319,5,4
400,192,133776,1,0
400,336,134233,1,4
256,336,134691,6,4,B|88:336,1,160,0|4
96,192,135605,2,4,B|272:192,1,160,0|4
256,48,136519,6,0,B|400:48,1,120
408,48,136976,1,0
408,120,137205,1,0
408,192,137433,1,0
408,120,137662,1,0
336,120,137891,1,0
336,272,138348,6,0,B|336:136,1,120
336,117,138805,1,0
263,118,139034,1,0
191,118,139262,1,0
191,190,139491,1,0
119,190,139719,1,0
120,336,140176,5,0
192,336,140405,1,0
264,336,140634,1,0
264,264,140862,1,0
192,264,141091,1,0
336,264,141548,5,2
264,144,142005,6,0,L|104:144,1,160
264,144,142919,2,0,L|456:144,1,160
424,296,143834,6,0,L|424:168,1,120
424,144,144291,1,0
352,144,144519,1,0
280,144,144748,1,0
208,144,144977,1,0
280,144,145205,1,0
208,296,145662,6,0,L|208:176,1,120
208,144,146119,1,0
208,72,146348,1,0
280,72,146577,1,0
352,72,146805,1,0
280,72,147034,1,0
280,216,147491,5,2
136,216,147719,1,8
136,72,147948,1,2
280,72,148177,1,8
208,144,148405,5,4
176,136,200978,5,4
