osu file format v5

[General]
AudioFilename: 5-13moskau.mp3
AudioLeadIn: 0
PreviewTime: 73253
Countdown: 0
SampleSet: Soft
StackLeniency: 0.2
Mode: 0
LetterboxInBreaks: 1
EditorBookmarks: 28463,103549,110863,114063,139377,141492,141949,156234,170749,178520,185263,199549,215549,221720,225149,228806,232463,238863,246177,253492,260806
EditorDistanceSpacing: 2

[Metadata]
Title:Moskau
Artist:Dschinghis Khan
Creator:RemmyX25
Version:Shinxyn/Nexy
Source:
Tags:

[Difficulty]
HPDrainRate:7
CircleSize:5
OverallDifficulty:8
SliderMultiplier:2
SliderTickRate:2

[Events]
//Background and Video events
0,0,"NexyShinxyn's bg.png"
//Break Periods
2,103749,109963
2,185120,198649
2,215234,220503
//Storyboard Layer 0 (Background)
//Storyboard Layer 1 (Failing)
//Storyboard Layer 2 (Passing)
//Storyboard Layer 3 (Foreground)
4,3,1,"Nexy.png",320,96 M,0,110863,110977,322,100,320,96 R,0,110863,112234,-0.02048035,-0.1433904 S,0,110977,111092,0.7644799,0.9897599 S,0,111092,111206,0.9897599,0.8156798 S,0,111206,111320,0.8156798,0.9795197 S,0,111320,111434,0.9795197,0.8054397 S,0,111434,111549,0.8054397,0.9487996 S,0,111549,111663,0.9487996,0.8156797 S,0,111663,111777,0.8156797,0.9999998 S,0,111777,111892,0.9999998,0.8566398 S,0,111892,112006,0.8566398,1.02048 S,0,112006,112120,1.02048,0.8156798 S,0,112120,112234,0.8156798,0.9692798 S,0,112234,112349,0.9692798,0.7747198 R,0,112234,113606,-0.1433904,0.1433594 S,0,112349,112463,0.7747198,0.9283198 S,0,112463,112577,0.9283198,0.7542399 S,0,112577,112692,0.7542399,0.9692798 S,0,112692,112806,0.9692798,0.8156797 S,0,112806,112920,0.8156797,0.9999997 S,0,112920,113034,0.9999997,0.8361596 S,0,113034,113149,0.8361596,0.9897596 S,0,113149,113263,0.9897596,0.7644796 S,0,113263,113377,0.7644796,0.9795196 S,0,113377,113492,0.9795196,0.7849595 S,0,113492,113606,0.7849595,0.9283195 S,0,113606,113720,0.9283195,0.7439995 R,0,113606,114063,0.1433594,-0.2252806 S,0,113720,113834,0.7439995,0.9283195 S,0,113834,113949,0.9283195,0.7644794 S,0,113949,114063,0.7644794,0.8873594 F,0,114063,114063,1,1 S,0,114063,114177,0.8873594,0.6108794 R,0,114063,114177,-0.2252806,-0.2252806 S,0,114177,114292,0.6108794,0.4367994 R,0,114177,114292,-0.2252806,0.2047994 S,0,114292,114406,0.4367994,0.2831994 R,0,114292,114406,0.2047994,-0.1638406 S,0,114406,114520,0.2831994,0.1 R,0,114406,114520,-0.1638406,0.2662393
4,3,1,"Shinxyn.png",322,49 F,0,29492,29949,0,1 S,0,29492,29949,0.8054401,0.7747201 F,0,29949,33606,1,1 S,0,29949,30406,0.7747201,0.8361601 R,0,29949,30406,-0.06144005,0.04096001 S,0,30406,30863,0.8361601,0.7952 R,0,30406,30863,0.04096001,-0.1024 S,0,30863,31320,0.7952,0.8464 R,0,30863,31320,-0.1024,0.02047996 S,0,31320,31777,0.8464,0.8054401 R,0,31320,31777,0.02047996,-0.08192001 S,0,31777,32234,0.8054401,0.85664 R,0,31777,32234,-0.08192001,0.04096001 S,0,32234,32692,0.85664,0.7952 R,0,32234,32692,0.04096001,-0.06144005 S,0,32692,33149,0.7952,0.82592 R,0,32692,33149,-0.06144005,0.06143997 S,0,33149,33606,0.82592,0.7337601 R,0,33149,33606,0.06143997,-0.02048004 F,0,33606,34063,1,0 S,0,33606,34063,0.7337601,0.1 R,0,33606,34063,-0.02048004,0.2252799
4,3,1,"Shinxyn.png",317,60 F,0,221492,221720,0,1 M,0,221720,221720,317,60,317,60 F,0,221720,225149,1,1 S,0,221720,221949,1.01024,1.0512 S,0,221949,222177,1.0512,1 S,0,222177,222406,1,1.23552 S,0,222406,222634,1.23552,1.04096 S,0,222634,222863,1.04096,1.2944 S,0,222863,223092,1.2944,1.11008 S,0,223092,223320,1.11008,1.25344 S,0,223320,223549,1.25344,1.13056 S,0,223549,223777,1.13056,0.994058 S,0,223777,224006,0.994058,0.9018294 S,0,224006,224234,0.9018294,0.8453403 S,0,224234,224463,0.8453403,0.9016926 S,0,224463,224692,0.9016926,0.7596496 S,0,224692,224920,0.7596496,0.8628238 R,0,224692,224920,-0.02047978,12.53376 S,0,224920,225034,0.8628238,0.1 R,0,224920,225149,12.53376,12.61568 S,0,225034,225149,0.1,0.1 F,0,225149,225377,1,0
4,3,1,"Nexy.png",323,60 M,0,225149,225149,323,60,323,60 F,0,225149,225377,0,1 S,0,225149,225606,0.1,1.03184 R,0,225149,225377,0.04095993,5.3248 F,0,225377,228349,1,1 F,0,225377,225377,1,1 R,0,225377,225606,5.3248,19.43552 S,0,225606,225834,1.03184,0.8934319 R,0,225606,225834,19.43552,18.86208 S,0,225834,226063,0.8934319,1.39024 R,0,225834,227434,18.86208,18.86208 S,0,226063,226292,1.39024,0.9294399 S,0,226292,226520,0.9294399,1.3288 S,0,226520,226749,1.3288,0.8168001 S,0,226749,226977,0.8168001,1.2776 S,0,226977,227206,1.2776,1.08304 S,0,227206,227434,1.08304,1.21616 S,0,227434,227663,1.21616,1.13424 R,0,227434,227663,18.86208,18.61632 S,0,227663,227892,1.13424,1.52336 R,0,227663,227892,18.61632,19.00544 S,0,227892,227892,1.52336,1.52336 S,0,227892,228120,1.52336,1.04208 R,0,227892,228006,19.00544,18.8416 S,0,228120,228349,1.04208,4.18576 F,0,228349,228463,1,0 F,0,228349,228349,1,1
4,3,1,"Shinxyn.png",328,58 F,0,228577,228806,0,1 S,0,228577,228806,4.01056,0.1 F,0,228806,229034,1,1 S,0,228806,229034,0.1,1.01136 M,0,229034,232006,318,60,328,58 F,0,229034,232006,1,1 S,0,229034,229263,1.01136,0.9396799 S,0,229263,229492,0.9396799,0.9806399 R,0,229263,229492,0.1228799,-0.04096001 S,0,229492,229720,0.9806399,0.9089599 R,0,229492,229720,-0.04096001,0.06143997 S,0,229720,229949,0.9089599,0.9396799 R,0,229720,229949,0.06143997,-0.1024001 S,0,229949,230177,0.9396799,0.8884799 R,0,229949,230177,-0.1024001,0.06144012 S,0,230177,230406,0.8884799,0.9191999 R,0,230177,230406,0.06144012,-0.04095993 S,0,230406,230634,0.9191999,0.8884799 R,0,230406,230634,-0.04095993,0.08192009 S,0,230634,230863,0.8884799,0.9499199 R,0,230634,230863,0.08192009,-0.06143998 S,0,230863,231092,0.9499199,0.8987199 R,0,230863,231092,-0.06143998,0.04096008 S,0,231092,231320,0.8987199,0.9601599 R,0,231092,231320,0.04096008,-0.08192002 S,0,231320,231549,0.9601599,0.8884799 R,0,231320,231549,-0.08192002,0.04096008 S,0,231549,231777,0.8884799,0.9601599 R,0,231549,231777,0.04096008,-0.1023999 S,0,231777,232006,0.9601599,0.8679999 R,0,231777,232006,-0.1023999,-0.02047989 F,0,232006,232349,1,0 F,0,232349,232463,0,0
4,3,1,"Nexy.png",333,60 M,0,232006,232006,333,60,333,60 F,0,232006,232463,0,1 S,0,232006,232234,0.93856,0.8976 R,0,232006,232234,-0.04095993,-0.02047997 S,0,232234,232463,0.8976,0.92832 R,0,232234,232463,-0.02047997,-0.04096001 S,0,232463,232692,0.92832,0.88736 R,0,232463,232692,-0.04096001,0.04096 S,0,232692,232920,0.88736,0.93856 R,0,232692,232920,0.04096,0.1843201 S,0,232920,233149,0.93856,0.8976 R,0,232920,233149,0.1843201,-0.08191995 S,0,233149,233377,0.8976,0.92832 R,0,233149,233377,-0.08191995,0.14336 S,0,233377,233606,0.92832,0.87712 R,0,233377,233606,0.14336,-0.04096002 S,0,233606,233834,0.87712,0.9692799 R,0,233606,233834,-0.04096002,0.1024 S,0,233834,234063,0.9692799,0.90784 R,0,233834,234063,0.1024,-0.08191995 S,0,234063,234292,0.90784,0.9385599 R,0,234063,234292,-0.08191995,0.02047996 S,0,234292,234520,0.9385599,0.8976 R,0,234292,234520,0.02047996,-0.12288 S,0,234520,234749,0.8976,0.9385599
4,3,1,"Nexy.png",328,306 M,0,245720,245720,329,123,329,123 M,0,245720,260349,329,123,328,349 F,0,245720,245949,0,1 S,0,245720,252806,0.9859195,1.026831 F,0,245949,245949,1,1 R,0,245949,251206,0,0.01884206 R,0,251206,251434,0.01884206,0.3670018 R,0,251434,251663,0.3670018,-0.1859581 R,0,251663,251892,-0.1859581,0.1826818 R,0,251892,252120,0.1826818,-0.2678782 R,0,252120,252349,-0.2678782,0.141722 R,0,252349,252577,0.141722,-0.2269182 R,0,252577,252806,-0.2269182,0.01884173 S,0,252806,252920,1.026831,1.980467 R,0,252806,253034,0.01884173,-0.02211836 S,0,252920,253034,1.980467,1.980467 F,0,253034,253149,1,0 S,0,253034,253263,1.980467,1.029469 R,0,253034,266063,-0.02211836,-0.02211836 F,0,253149,253263,0,0 F,0,253263,260234,0,0 F,0,253263,253263,0,0 S,0,253263,267206,1.029469,0.967482 F,0,260234,260463,0,1 M,0,260349,267663,328,349,331,437 F,0,260463,267206,1,1 R,0,266063,266292,-0.02211836,-0.288358 R,0,266292,266520,-0.288358,0.2236422 R,0,266520,266749,0.2236422,-0.1859581 R,0,266749,266977,-0.1859581,0.1826821 R,0,266977,267092,0.1826821,0.1826821 R,0,267092,267206,0.1826821,-0.2269181 F,0,267206,267434,1,1 S,0,267206,267434,0.967482,0.7913595 R,0,267206,267320,-0.2269181,-0.329318 F,0,267434,267663,1,0.02720002 S,0,267434,267663,0.7913595,5
4,3,1,"Shinxyn.png",318,50 M,0,172577,172577,318,50,318,50 F,0,172577,173034,0,1 S,0,172577,172806,0.88736,0.78496 R,0,172577,172806,-0.1638399,0.02048004 S,0,172806,173034,0.78496,0.88736 R,0,172806,173034,0.02048004,-0.1433599 F,0,173034,173949,1,1 S,0,173034,173263,0.88736,0.7952 R,0,173034,173263,-0.1433599,0.08192009 S,0,173263,173492,0.7952,0.9385599 R,0,173263,173492,0.08192009,-0.04095993 S,0,173492,173720,0.9385599,0.78496 R,0,173492,173720,-0.04095993,0.2252801 S,0,173720,173949,0.78496,0.90784 R,0,173720,173949,0.2252801,-0.18432 F,0,173949,174406,1,0 S,0,173949,174177,0.90784,0.7951999 R,0,173949,174177,-0.18432,0.14336 S,0,174177,174406,0.7951999,0.9283199 R,0,174177,174406,0.14336,-0.36864
4,3,1,"Shinxyn.png",322,49 F,0,29492,29949,0,1 S,0,29492,29949,0.8054401,0.7747201 F,0,29949,33606,1,1 S,0,29949,30406,0.7747201,0.8361601 R,0,29949,30406,-0.06144005,0.04096001 S,0,30406,30863,0.8361601,0.7952 R,0,30406,30863,0.04096001,-0.1024 S,0,30863,31320,0.7952,0.8464 R,0,30863,31320,-0.1024,0.02047996 S,0,31320,31777,0.8464,0.8054401 R,0,31320,31777,0.02047996,-0.08192001 S,0,31777,32234,0.8054401,0.85664 R,0,31777,32234,-0.08192001,0.04096001 S,0,32234,32692,0.85664,0.7952 R,0,32234,32692,0.04096001,-0.06144005 S,0,32692,33149,0.7952,0.82592 R,0,32692,33149,-0.06144005,0.06143997 S,0,33149,33606,0.82592,0.7337601 R,0,33149,33606,0.06143997,-0.02048004 F,0,33606,34063,1,0 S,0,33606,34063,0.7337601,0.1 R,0,33606,34063,-0.02048004,0.2252799
4,3,1,"Nexy.png",324,55 F,0,178292,178520,0.05791998,1 S,0,178292,178520,1.08192,0.95904 F,0,178520,179892,1,1 S,0,178520,178749,0.95904,1.0512 R,0,178520,178749,12.36992,12.73856 S,0,178749,178977,1.0512,0.93856 R,0,178749,178977,12.73856,12.47232 M,0,178840,178840,324,55,324,55 S,0,178977,179206,0.93856,1.0512 R,0,178977,179206,12.47232,12.71808 S,0,179206,179434,1.0512,0.91808 R,0,179206,179434,12.71808,12.47232 S,0,179434,179663,0.91808,1.0512 R,0,179434,179663,12.47232,12.63616 S,0,179663,179892,1.0512,0.95904 R,0,179663,179892,12.63616,12.3904 F,0,179892,180349,1,0 S,0,179892,180120,0.95904,1.02048 R,0,179892,180120,12.3904,12.67712 S,0,180120,180349,1.02048,0.91808 R,0,180120,180349,12.67712,12.43136
4,3,1,"Shinxyn.png",323,303 F,0,238634,238863,0,1 M,0,238863,260806,329,18,322,353 F,0,238863,245720,1,1 R,0,238863,244120,0,0 R,0,244120,244349,0,-0.22528 R,0,244349,244577,-0.22528,0.45056 R,0,244577,244806,0.45056,-0.14336 R,0,244806,245034,-0.14336,0.2048 R,0,245034,245263,0.2048,-0.1843201 R,0,245263,245492,-0.1843201,-0.02047988 S,0,245492,245720,1,1.89088 R,0,245492,258749,-0.02047988,-0.02047988 F,0,245720,245949,1,0 S,0,245720,245949,1.89088,1.12288 F,0,245949,245949,0,0 F,0,245949,253034,0,0 F,0,245949,245949,0,0 S,0,245949,260120,1.02048,1.02048 F,0,253034,253263,0,1 F,0,253263,260349,1,1 R,0,258749,258977,-0.02047988,-0.1433595 R,0,258977,259206,-0.1433595,0.2457598 R,0,259206,259434,0.2457598,-0.1433607 R,0,259434,259663,-0.1433607,0.2252794 R,0,259663,259892,0.2252794,-0.1638411 R,0,259892,260120,-0.1638411,-1.361966E-06 S,0,260120,260120,1.02048,1.02048 S,0,260120,260234,1.02048,2.9968 S,0,260234,260349,2.9968,0.9385601 F,0,260349,260463,1,0.001600037 F,0,260349,260349,1,1 F,0,260463,260577,0.001600037,0.001600037 M,0,260806,260806,322,353,322,353
//Storyboard Sound Samples
//Background Colour Transformations
3,100,163,162,255

[TimingPoints]
235,457.142857142857,4,2,0,80,1,0
57949,-100,4,1,0,80,0,0
74749,-100,4,2,0,80,0,0
81949,-100,4,1,0,50,0,0
82177,-100,4,2,0,80,0,0
89263,-100,4,1,0,50,0,0
89492,-100,4,2,0,100,0,0
96577,-100,4,1,0,50,0,0
96806,-100,4,2,0,100,0,0
137263,-100,4,2,0,90,0,0
138177,-100,4,2,0,100,0,0
139320,-100,4,1,0,80,0,0
170977,-100,4,2,0,100,0,0
177949,-100,4,1,0,50,0,0
178177,-100,4,2,0,100,0,0
221720,-100,4,1,0,50,0,0
238977,-100,4,1,0,60,0,0
253720,-100,4,2,0,70,0,0
255206,-100,4,1,0,70,0,0
256806,-100,4,2,0,70,0,0
258749,-100,4,1,0,70,0,0
260806,-100,4,1,0,70,0,0

[Colours]
Combo1 : 0,64,128
Combo2 : 0,128,255
Combo3 : 255,255,255

[HitObjects]
256,192,28463,12,4,29492
136,192,30177,5,0
168,120,30406,1,2
200,192,30634,1,2
168,120,30863,2,0,L|224:120|280:168,1,100
320,112,31320,1,2
384,160,31549,5,0
320,208,31777,1,0
400,208,32006,1,2
320,208,32234,6,0,L|344:248|408:272,1,100
320,208,32692,1,0
256,272,32920,1,2
192,208,33149,2,0,L|168:248|104:272,1,100,0|0
192,208,33606,1,2
256,144,33835,6,0,L|296:104|256:64|216:104|256:144,1,200
256,144,34520,1,0
256,184,34635,1,2
256,224,34749,1,2
256,264,34863,1,0
256,304,34977,1,2
256,144,35434,5,0
256,304,35892,2,0,L|312:296|368:240,1,100
342,265,36349,1,2
342,265,36577,2,0,L|380:224|380:143,3,100,0|0|2|0
380,179,37492,1,2
380,179,37720,6,0,L|272:179,1,100
281,279,38177,2,0,L|281:163,1,100
281,80,38634,2,0,L|281:192,1,100,0|0
281,180,39092,1,0
241,181,39206,1,0
201,181,39320,1,2
120,184,39549,6,0,L|120:75,2,100
120,184,40234,1,0
120,184,40463,5,2
160,256,40692,1,2
160,256,40920,2,0,L|264:256,1,100
260,256,41377,1,2
260,256,41606,1,2
260,256,41834,2,0,L|360:192,1,100
344,202,42292,1,2
344,202,42520,5,2
344,202,42749,2,0,L|248:264,1,100
259,256,43206,1,2
259,256,43320,1,2
259,256,43434,1,2
259,175,43663,1,2
259,135,43777,1,0
259,94,43892,1,0
257,16,44120,5,0
328,56,44349,1,0
258,94,44577,1,0
336,120,44806,2,0,L|258:185,1,100,0|0
256,264,45263,2,0,L|357:182,1,100
400,152,45720,2,0,L|400:24,1,100,0|0
48,344,46863,6,0,L|132:233,1,100
152,200,47320,2,0,L|224:312,1,100
256,344,47777,2,0,L|152:344,1,100
206,284,48234,5,0
256,224,48463,1,0
256,144,48692,1,0
464,344,49149,5,2
48,344,49606,1,0
256,96,50063,1,2
256,256,50520,6,0,L|216:216|200:136,1,100
176,96,50977,2,0,L|240:64|296:64|368:104,1,200,0|0
328,175,51663,2,0,L|320:218|280:258,1,100
264,176,52120,6,0,B|264:120|200:112,1,100
120,104,52577,2,0,B|48:104|40:184,1,100
40,240,53034,2,0,B|48:312|104:312,1,100
176,312,53492,1,0
256,312,53720,1,2
176,312,53949,1,0
216,240,54178,1,2
256,168,54406,5,0
256,168,54520,1,0
256,168,54634,1,2
336,168,54863,1,0
416,168,55092,5,2
416,168,55206,1,0
416,168,55320,1,2
456,248,55549,1,0
416,248,55663,1,0
376,248,55777,1,2
376,328,56006,1,2
416,328,56120,1,0
456,328,56234,1,2
416,248,56463,5,2
416,168,56692,1,2
416,88,56920,5,2
376,80,57034,1,0
336,88,57149,1,2
264,128,57377,1,0
224,136,57492,1,0
184,128,57606,1,2
112,88,57834,1,2
32,88,58063,5,0
32,168,58292,1,0
88,224,58520,1,0
160,264,58749,1,0
480,264,59206,1,0
160,264,59663,5,0
240,264,59892,1,0
279,264,60006,1,0
318,264,60120,1,0
352,192,60349,1,0
352,112,60577,1,0
288,144,60806,1,0
296,64,61034,2,0,B|232:120|184:152,1,100
218,127,61377,1,0
218,127,61492,1,0
218,127,61720,1,0
218,127,61949,1,4
216,208,62177,5,0
216,288,62406,1,0
456,80,62863,1,0
216,288,63320,2,0,L|256:320|320:296,1,100
376,272,63777,2,0,L|344:232|264:232,1,100
216,232,64234,2,0,L|160:232|104:160,2,100
216,232,64920,6,0,B|168:168|272:112|208:40,1,200,0|4
211,43,65606,1,0
320,152,66063,2,0,L|360:192|360:256,1,100
440,236,66520,1,0
280,232,66977,2,0,L|280:189|323:148,1,100
240,152,67434,1,0
224,232,67663,1,0
248,304,67892,2,0,L|280:232|232:232,1,100
240,152,68349,1,4
240,72,68577,5,0
272,88,68692,1,0
304,104,68806,1,0
376,136,69034,1,0
376,136,69263,1,4
416,344,69720,5,0
96,344,70177,1,0
96,24,70634,1,0
408,24,71092,1,0
256,192,71549,12,4,75206
256,104,75663,5,2
256,192,75892,1,0
256,272,76120,1,2
256,272,76577,1,0
256,192,76806,1,2
192,160,77034,5,2
224,136,77149,1,2
256,112,77263,1,2
288,136,77377,1,0
320,160,77492,1,2
256,112,77720,1,0
256,192,77949,1,2
296,256,78177,1,2
256,272,78292,1,2
216,256,78406,1,2
56,256,78863,5,0
88,184,79092,2,0,L|40:160,2,50,0|2|0
120,112,79549,1,0
152,184,79777,2,0,L|216:152,2,50,0|2|2
184,256,80234,1,0
344,256,80692,6,0,L|424:176,1,100
415,86,81149,2,0,L|415:210,1,100
486,256,81606,2,0,L|398:168,1,100,0|0
415,185,82063,1,0
256,192,82520,5,0
200,136,82749,1,0
200,136,82863,1,0
200,136,82977,1,2
48,192,83434,1,0
104,248,83663,1,0
104,248,83777,1,0
104,248,83892,1,2
256,192,84349,5,0
312,136,84577,1,0
312,136,84692,1,0
312,136,84806,1,2
392,136,85034,1,0
448,192,85263,1,2
392,248,85492,1,0
312,248,85720,1,2
312,248,85949,1,0
232,248,86177,6,0,B|192:280|120:240,1,100
64,224,86634,1,2
64,224,86863,1,0
136,198,87092,2,0,B|176:168|256:208,1,100,0|0
304,224,87549,1,2
304,224,87777,1,0
248,168,88006,6,2,B|288:120,2,50
328,168,88463,2,2,B|384:168,2,50
376,224,88920,2,2,B|496:304,1,100
376,224,89377,1,0
240,208,89834,5,0
96,136,90292,2,2,B|56:112,4,25
168,176,90749,1,0
312,240,91206,2,2,B|352:264,4,25
240,272,91663,6,0,L|196:300|128:256,1,100
72,280,92120,2,0,L|112:248|168:280,1,100
154,272,92577,2,0,L|184:224|248:240,2,100,2|0|2
152,112,93492,5,2
152,112,93720,1,0
216,160,93949,1,2
216,160,94177,1,0
280,112,94406,1,2
280,112,94520,1,0
280,112,94634,1,2
280,112,94863,1,2
432,152,95320,6,0,B|472:216|408:272,1,100
432,245,95777,2,0,B|392:296|328:256,1,100
360,184,96234,1,0
360,184,96692,1,0
232,88,97149,6,0,B|120:88,1,100
184,152,97606,1,0
344,152,98063,2,0,B|344:32,1,100
280,104,98520,1,0
280,264,98977,6,0,B|168:264,1,100
136,264,99320,1,0
96,264,99434,1,2
96,184,99663,1,0
176,184,99892,1,2
256,184,100120,1,2
336,184,100349,1,2
464,272,100806,5,0
152,360,101263,1,0
424,192,101720,1,0
112,280,102177,1,0
392,120,102634,5,2
232,80,102863,1,0
128,200,103092,1,2
224,320,103320,1,0
376,280,103549,1,2
160,104,110863,6,2,B|256:40|352:112,2,200,2|10|2
104,160,112006,1,0
160,104,112235,1,2
216,160,112463,1,0
160,216,112692,1,2
104,160,112920,2,0,B|32:232,1,100,0|10
88,288,113377,2,0,B|160:216,1,100,0|2
158,217,113835,5,0
158,217,114063,1,2
224,264,114292,1,0
224,264,114520,1,2
304,264,114749,1,0
304,264,114977,1,10
368,216,115206,1,0
368,216,115435,1,4
368,216,115663,6,0,B|440:144,1,100,0|2
488,80,116120,1,0
408,64,116349,2,0,B|312:112|312:112|312:104,1,100,2|0
256,56,116806,1,10
192,104,117035,6,0,B|80:48,2,100,0|2|0
168,176,117720,1,2
168,176,117949,1,0
224,232,118177,1,2
224,232,118406,1,0
304,232,118635,1,10
304,232,118863,1,0
360,176,119092,1,2
360,176,119320,1,0
432,104,119549,6,8,B|256:0|29:104,1,400
40,352,120920,5,4
256,16,121377,1,4
472,352,121835,1,4
416,296,122063,5,8
456,224,122292,1,2
408,160,122520,1,8
440,88,122749,1,2
376,40,122977,1,8
304,80,123206,1,2
232,40,123434,1,8
168,88,123663,1,2
104,40,123892,5,8
48,88,124120,1,10
80,160,124349,1,8
32,224,124577,1,10
72,296,124806,1,8
136,336,125034,1,10
208,304,125263,1,8
280,336,125492,6,0,B|408:328|408:184,2,200,2|2|2
280,336,126634,2,0,B|176:336|208:248,1,100,2|8
200,208,127092,2,0,B|200:96|64:168,2,100,2|0|2
280,208,127777,2,0,B|280:104|416:160|416:160|408:160,1,100,8|2
360,224,128234,5,0
440,224,128463,2,0,B|440:336|328:288,1,100,2|8
360,224,128920,1,2
360,224,129149,2,0,B|248:224|320:344,1,100,0|2
216,280,129606,1,8
216,280,129834,2,0,B|192:184|88:264,1,100,2|0
152,152,130292,1,2
152,152,130520,2,0,B|168:56|264:112,1,100,8|2
296,96,130977,1,0
296,96,131206,2,0,B|408:96|336:216,2,100,2|8|2
216,96,131892,5,0
216,176,132120,1,2
296,176,132349,1,8
296,96,132577,1,2
216,96,132806,2,0,B|112:96,1,100,0|2
115,176,133263,1,8
116,96,133492,1,2
115,176,133720,1,0
116,96,134177,1,8
472,352,135549,5,4
256,16,136006,1,4
40,352,136463,1,4
80,288,136692,5,8
160,288,136920,1,2
160,208,137149,1,8
160,128,137377,1,2
176,48,137606,1,8
256,48,137834,1,2
256,128,138063,1,8
256,48,138292,1,2
336,48,138520,1,8
336,128,138749,1,2
336,208,138978,1,8
336,288,139206,1,2
416,288,139434,5,0
416,288,139663,1,8
336,152,140120,2,0,B|256:80,1,100,8|2
176,232,140577,2,0,B|256:304,1,100,8|2
256,216,141034,2,2,B|256:112,1,100
256,116,141492,1,8
256,216,141720,1,0
256,320,141949,1,8
256,216,142177,1,0
256,116,142406,2,0,B|256:224,1,100,10|2
256,216,142863,1,8
256,320,143092,5,0
256,320,143320,1,8
176,296,143549,1,0
176,296,143777,1,8
112,248,144006,1,0
112,248,144234,1,8
56,192,144463,1,0
56,192,144692,1,8
56,112,144920,1,0
56,112,145149,2,2,B|160:112,1,100,10|2
456,112,145606,6,2,B|352:112,1,100,10|2
56,112,146063,2,2,B|160:112,1,100,10|2
256,96,146749,6,8,B|256:200,1,100
256,196,147206,1,0
256,296,147434,2,0,B|256:192,1,100,8|0
256,196,147892,1,8
155,196,148349,6,0,B|275:196,1,100,8|0
255,196,148806,1,8
357,196,149034,2,0,B|237:196,1,100,0|8
255,196,149492,1,2
255,196,149720,1,6
408,104,150634,6,2,B|464:192|400:296,1,200
256,192,151549,1,8
112,296,152006,2,2,B|42:205|106:101,1,200
256,192,152920,12,4,154749
256,192,155206,5,2
256,192,155663,1,2
256,192,156120,1,2
376,88,156577,6,0,B|464:168,1,100,8|0
392,208,157034,1,2
392,208,157263,2,0,B|304:128,1,100,0|8
272,72,157720,1,0
272,72,157949,2,0,B|168:104,1,100,2|0
176,184,158406,2,0,B|176:288,1,100,8|0
176,284,158863,1,0
256,280,159092,2,0,B|256:176,1,100,0|8
256,180,159549,1,0
336,184,159777,2,0,B|336:288|336:288|336:280,1,100,0|0
336,284,160234,5,8
336,184,160463,1,0
336,88,160692,1,0
336,184,160920,1,0
336,184,161149,2,2,B|224:184,1,100,10|2
152,184,161606,1,0
256,64,162063,5,8
408,192,162292,1,8
256,320,162520,1,8
96,192,162749,1,8
256,64,162977,1,8
256,192,163434,5,6
96,192,163892,6,2,B|176:272|176:272|176:264,1,100
96,192,164349,1,8
416,192,164806,2,2,B|336:272|336:272|336:264,1,100
416,192,165263,1,8
256,152,165720,5,8
320,192,165949,1,0
256,232,166177,1,8
184,192,166406,1,0
256,152,166634,1,8
320,192,166863,1,0
256,232,167092,1,8
96,192,167549,5,2
256,72,167777,1,0
416,192,168006,1,2
256,312,168234,1,0
96,192,168463,1,2
256,72,168692,1,0
416,192,168920,1,2
88,336,169377,5,12
424,48,169606,1,12
424,336,169834,1,12
88,48,170063,1,12
256,192,170292,1,12
256,192,170749,5,6
256,192,171206,6,0,B|256:88,1,100,2|0
256,192,171663,12,4,172577
144,240,173034,6,0,B|104:176|128:128,1,100,2|0
121,145,173377,1,2
121,145,173492,2,0,B|136:80|216:64,1,100,2|8
240,128,173949,1,2
232,168,174063,1,2
224,208,174177,1,10
296,184,174406,1,2
368,240,174863,6,2,B|408:176|384:128,1,100
391,145,175206,1,2
391,145,175321,2,2,B|376:80|296:64,1,100,2|8
272,128,175778,1,2
280,168,175892,1,2
288,208,176006,1,10
216,184,176235,1,2
256,336,176692,6,0,B|256:200,1,100,8|0
192,192,177149,2,0,L|216:144|272:104,1,100,8|0
316,192,177606,2,0,L|292:144|236:104,1,100,8|0
254,117,178063,1,0
254,117,178292,6,0,L|256:64,2,50
254,267,178749,6,0,L|256:320,2,50
181,194,179206,6,0,L|128:192,2,50
331,194,179663,6,0,L|384:192,2,50
392,280,180349,6,0,B|448:232|440:184,1,100,2|8
440,195,180806,1,2
440,195,181034,1,8
440,195,181263,1,2
440,195,181492,2,0,B|424:96|336:120,1,100,8|2
256,192,181949,5,8
120,280,182177,6,0,B|64:232|72:184,1,100,2|8
71,196,182634,1,2
71,196,182863,1,8
71,196,183092,1,2
72,195,183320,2,0,B|88:96|176:120,1,100,8|8
256,272,184006,5,4
440,192,184234,1,4
256,104,184463,1,4
71,195,184692,1,4
256,192,184920,1,4
256,64,199549,5,0
256,320,200006,1,8
128,192,200463,5,0
384,192,200920,1,8
208,88,201377,6,0,B|128:104|104:192,1,100,0|2
126,141,201834,1,8
120,192,202063,1,2
128,240,202292,2,2,B|176:296|232:296,1,100
210,293,202749,1,8
408,288,203206,6,0,B|440:224|440:176,1,100
392,128,203663,1,0
440,192,203892,1,0
392,128,204120,1,0
312,128,204349,1,2
232,128,204577,1,8
72,128,205034,6,0,B|32:232|88:256,1,100
128,264,205492,1,0
59,226,205720,1,0
128,264,205949,1,0
208,264,206177,1,0
288,264,206406,1,8
256,104,206863,5,8
128,264,207092,1,8
256,104,207320,1,8
384,264,207549,1,8
256,104,207777,1,8
256,192,208234,5,4
384,264,208692,2,0,B|464:224|440:184,1,100,0|2
384,264,209149,1,8
128,264,209606,2,0,B|48:224|72:184,1,100,0|2
128,264,210063,1,8
256,192,210520,5,0
376,96,210749,1,2
256,192,210977,1,0
256,40,211206,1,2
256,192,211434,1,8
136,96,211663,1,2
256,192,211892,1,0
256,192,212349,5,8
376,288,212577,1,2
256,192,212806,1,0
256,344,213034,1,2
256,192,213263,1,8
136,288,213492,1,2
256,192,213720,1,0
376,56,214177,6,4,B|448:88|448:144,1,100
136,328,214634,6,4,B|64:296|64:240,1,100
256,192,215092,5,4
216,176,221720,6,0,L|280:176,2,50,0|0|8
216,176,222177,1,0
136,176,222406,2,0,L|111:220|136:264,1,100
216,264,222863,2,0,L|261:239|312:272,1,100,8|0
381,268,223320,2,0,L|402:222|371:162,1,100
360,144,223663,1,0
336,112,223777,1,8
256,112,224006,5,0
176,128,224234,2,0,L|80:80,1,100,0|8
86,83,224577,1,8
86,83,224692,1,8
88,160,224920,1,0
122,179,225034,1,8
156,200,225149,1,8
304,200,225377,5,0
336,176,225492,1,0
368,160,225606,1,0
368,240,225834,5,8
368,240,226063,2,0,B|336:320|272:288,1,100
216,296,226520,2,0,B|112:288|160:208,1,100,8|0
145,244,226977,1,8
144,160,227206,1,0
144,160,227434,2,8,B|152:64|264:120,1,100
288,96,227892,6,8,B|392:96|344:200,1,100,0|8
316,158,228234,1,0
272,168,228349,2,8,B|280:272|368:232,1,100,0|8
184,168,229035,5,0
216,96,229263,1,0
248,24,229492,2,0,L|328:112,1,100,0|8
314,98,229834,1,8
314,98,229949,2,0,L|239:177,1,100,8|8
248,248,230406,1,0
248,288,230520,1,0
248,328,230634,1,8
248,248,230863,5,8
248,168,231092,1,8
248,88,231320,1,0
312,128,231549,2,0,L|352:160|352:224,1,100,0|8
432,224,232006,2,0,L|472:256|472:320,1,100,8|0
472,304,232349,1,8
472,304,232463,1,8
432,224,232920,5,0
432,224,233034,1,0
256,320,233377,1,0
256,320,233492,1,0
80,224,233834,1,0
80,224,233948,1,0
256,136,234292,2,0,B|256:168,11,25,0|0|0|0|0|0|0|0|0|4|4|4
256,192,234977,12,4,237263
256,104,237492,5,4
104,312,237949,1,4
408,312,238406,1,4
80,136,238863,5,0
176,136,239092,6,0,L|248:136,2,50,0|0|4
176,296,239777,1,0
256,296,240006,2,0,L|256:368,2,50,0|0|4
256,136,240692,5,0
256,136,240806,1,0
257,136,240920,1,8
336,136,241149,2,0,L|378:168|328:192,1,100,8|0
336,264,241606,1,0
304,240,241720,1,0
271,262,241834,2,0,L|229:237|271:206,1,100,8|8
264,128,242292,5,0
216,64,242520,1,8
176,72,242634,1,0
136,88,242749,1,0
112,120,242863,1,0
96,152,242977,1,4
136,216,243206,1,0
216,192,243434,1,8
264,128,243663,1,0
216,192,243892,1,8
488,352,244349,5,8
456,192,244577,1,8
336,296,244806,1,8
296,136,245034,1,8
184,248,245263,1,8
160,88,245492,5,4
160,88,245606,1,4
160,88,245720,1,4
296,136,246177,6,0,B|336:176,3,50
368,208,246634,1,12
200,312,247092,6,0,B|160:272,3,50
128,240,247549,1,12
304,144,248006,5,0
240,96,248234,1,8
168,136,248463,1,0
176,216,248692,1,8
248,256,248920,1,0
240,176,249149,1,8
240,176,249263,1,0
240,176,249377,2,8,B|328:208|312:272,1,100
248,256,249834,5,0
176,216,250063,1,8
168,136,250292,1,0
240,96,250520,1,8
304,144,250749,1,0
240,176,250977,1,8
240,176,251091,1,0
240,176,251205,2,8,B|328:208|312:272,1,100
240,176,251663,5,4
416,80,251892,1,4
240,176,252120,1,4
96,304,252349,1,4
240,176,252577,1,4
144,112,253034,5,2
144,112,253492,5,0
304,120,253949,2,0,L|360:120,2,50
296,176,254406,2,2,L|360:192,2,50
264,216,254863,2,2,L|304:248,2,50
104,256,255320,5,8
256,272,255549,1,0
264,216,255663,1,0
240,168,255777,1,8
104,256,256006,1,0
264,216,256234,1,8
104,256,256463,1,0
240,168,256692,1,8
64,112,256920,6,2,L|112:88,2,50
128,168,257377,2,2,L|56:208,2,50
112,264,257834,1,10
272,264,258063,1,2
272,208,258177,1,2
320,232,258292,1,2
272,264,258406,1,0
272,208,258520,1,10
118,327,258977,6,8,L|176:344|208:304,1,100
264,272,259434,2,8,L|305:306|256:352,1,100
352,352,259892,2,8,B|448:368|504:256|456:192,1,200,8|0
440,72,260806,5,0
384,128,261034,2,0,B|336:176,4,50,8|0|8|0|8
72,72,261720,5,0
128,128,261948,2,0,B|176:176,4,50,8|0|8|0|8
440,312,262634,5,0
296,264,262863,1,0
432,200,263092,1,8
296,144,263320,1,0
432,80,263549,1,8
296,152,263777,2,0,B|296:280,1,100,0|8
72,72,264463,5,8
216,120,264692,1,0
80,184,264921,1,8
216,240,265149,1,0
80,304,265377,1,8
216,232,265606,2,0,B|216:104,1,100
456,264,266177,6,2,B|448:368|344:328,1,100,2|8
56,120,266634,6,2,B|64:16|168:56,1,100,8|2
456,120,267091,6,2,B|448:16|344:56,1,100,10|2
256,192,267549,5,4
