osu file format v5

[General]
AudioFilename: moskaushort.mp3
AudioLeadIn: 0
PreviewTime: 73439
Countdown: 1
SampleSet: Soft
StackLeniency: 0.7
Mode: 0
LetterboxInBreaks: 0
EditorBookmarks: 29555,55088,58126,58811,118250,132877,155046,155731,200974
EditorDistanceSpacing: 0.699999988079071

[Metadata]
Title:Moskau
Artist:Dschinghis Khan
Creator:RemmyX25
Version:MetalMario
Source:
Tags:

[Difficulty]
HPDrainRate:6
CircleSize:4
OverallDifficulty:6
SliderMultiplier:2
SliderTickRate:2

[Events]
//Background and Video events
1,-128,"dschinghiskhan-moskau(rebuildbyvictormendozaxvid)jj.avi"
//Break Periods
2,55354,57076
2,118440,131817
2,148618,153992
//Storyboard Layer 0 (Background)
//Storyboard Layer 1 (Failing)
//Storyboard Layer 2 (Passing)
//Storyboard Layer 3 (Foreground)
//Storyboard Sound Samples
//Background Colour Transformations
3,100,163,162,255

[TimingPoints]
300,457.124994895548,4,2,0,100,1,0
29557,-200,4,2,0,100,0,0
32814,-200,4,2,0,70,0,0
33100,-200,4,2,0,100,0,0
34242,-200,4,2,0,50,0,0
35728,-200,4,2,0,100,0,0
36473,-200,4,2,0,70,0,0
36756,-200,4,2,0,100,0,0
37671,-200,4,2,0,50,0,0
39385,-200,4,2,0,100,0,0
43956,-200,4,2,1,70,0,0
44527,-200,4,2,0,100,0,0
47441,-200,4,2,0,70,0,0
47727,-200,4,2,0,100,0,0
48870,-200,4,2,0,50,0,0
50241,-200,4,2,0,100,0,0
51098,-200,4,2,0,70,0,0
51384,-200,4,2,0,100,0,0
52298,-200,4,2,0,50,0,0
54013,-200,4,2,0,100,0,0
54927,-200,4,2,0,70,0,0
55041,-200,4,2,1,70,0,0
56984,-100,4,1,1,60,0,0
58698,-100,4,1,1,80,0,0
59726,-100,4,1,1,80,0,0
60526,-100,4,1,0,80,0,0
61269,-100,4,1,0,50,0,0
61498,-100,4,1,0,80,0,0
62126,-100,4,1,0,50,0,0
62355,-100,4,1,0,80,0,0
63383,-100,4,1,1,80,0,0
64183,-100,4,1,0,80,0,0
64926,-100,4,1,0,50,0,0
65155,-100,4,1,0,80,0,0
65783,-100,4,1,0,50,0,0
66012,-100,4,1,1,80,0,0
67955,-100,4,1,0,80,0,0
71383,-100,4,1,1,80,0,0
74583,-100,4,1,1,100,0,0
75040,-100,4,1,1,80,0,0
76868,-100,4,1,0,80,0,0
77439,-100,4,1,0,50,0,0
77497,-100,4,1,0,80,0,0
77668,-100,4,1,0,50,0,0
77897,-100,4,1,0,80,0,0
79267,-100,4,1,0,50,0,0
79325,-100,4,1,0,80,0,0
79497,-100,4,1,0,50,0,0
79725,-100,4,1,0,80,0,0
81897,-100,4,1,1,100,0,0
82354,-100,4,1,0,80,0,0
84182,-100,4,1,0,80,0,0
84753,-100,4,1,0,50,0,0
84811,-100,4,1,0,80,0,0
84982,-100,4,1,0,50,0,0
85211,-100,4,1,0,80,0,0
86581,-100,4,1,0,50,0,0
86639,-100,4,1,0,80,0,0
86811,-100,4,1,0,50,0,0
87039,-100,4,1,0,80,0,0
89210,-100,4,1,1,100,0,0
89667,-100,4,1,1,80,0,0
92066,-100,4,1,0,50,0,0
92124,-100,4,1,0,80,0,0
92296,-100,4,1,0,50,0,0
92524,-100,4,1,0,80,0,0
93895,-100,4,1,0,50,0,0
93953,-100,4,1,0,80,0,0
94124,-100,4,1,0,50,0,0
94353,-100,4,1,0,80,0,0
96524,-100,4,1,1,100,0,0
96981,-100,4,1,1,80,0,0
99380,-100,4,1,0,50,0,0
99438,-100,4,1,0,80,0,0
99610,-100,4,1,0,50,0,0
99838,-100,4,1,0,80,0,0
101209,-100,4,1,0,50,0,0
101267,-100,4,1,0,80,0,0
101438,-100,4,1,0,50,0,0
101667,-100,4,1,0,80,0,0
103838,-100,4,1,1,100,0,0
104531,457.124994895548,4,1,0,80,1,0
106701,-100,4,1,0,60,0,0
106759,-100,4,1,0,90,0,0
106930,-100,4,1,0,60,0,0
107159,-100,4,1,0,90,0,0
108529,-100,4,1,0,60,0,0
108587,-100,4,1,0,90,0,0
108759,-100,4,1,0,60,0,0
108987,-100,4,1,0,90,0,0
111159,-100,4,1,1,100,0,0
111844,-100,4,1,0,90,0,0
114015,-100,4,1,0,60,0,0
114073,-100,4,1,0,90,0,0
114244,-100,4,1,0,60,0,0
114473,-100,4,1,0,90,0,0
115843,-100,4,1,0,60,0,0
115901,-100,4,1,0,90,0,0
116073,-100,4,1,0,60,0,0
116301,-100,4,1,0,90,0,0
118137,-100,4,1,1,100,0,0
118240,457.124994895548,4,1,1,90,1,0
129222,-100,4,2,0,80,0,0
134467,-100,4,1,0,70,0,0
141324,-100,4,1,1,90,0,0
141781,-100,4,1,0,70,0,0
148295,-100,4,1,1,90,0,0
148414,457.124994895548,4,1,1,90,1,0
152070,-100,4,1,1,60,0,0
155613,-100,4,1,1,80,0,0
157442,-100,4,1,0,80,0,0
158185,-100,4,1,0,50,0,0
158413,-100,4,1,0,80,0,0
159042,-100,4,1,0,50,0,0
159270,-100,4,1,1,80,0,0
161099,-100,4,1,0,80,0,0
161842,-100,4,1,0,50,0,0
162070,-100,4,1,0,80,0,0
162699,-100,4,1,0,50,0,0
162927,-100,4,1,1,80,0,0
164870,-100,4,1,0,80,0,0
166682,457.124994895548,4,1,1,80,1,0
171481,-100,4,1,1,100,0,0
171938,-100,4,1,1,80,0,0
174337,-100,4,1,0,50,0,0
174395,-100,4,1,0,80,0,0
174567,-100,4,1,0,50,0,0
174795,-100,4,1,0,80,0,0
176166,-100,4,1,0,50,0,0
176224,-100,4,1,0,80,0,0
176395,-100,4,1,0,50,0,0
176624,-100,4,1,0,80,0,0
178795,-100,4,1,1,100,0,0
179252,-100,4,1,0,80,0,0
181651,-100,4,1,0,50,0,0
181709,-100,4,1,0,80,0,0
181881,-100,4,1,0,50,0,0
182109,-100,4,1,0,80,0,0
183480,-100,4,1,0,50,0,0
183538,-100,4,1,0,80,0,0
183709,-100,4,1,0,50,0,0
183938,-100,4,1,0,80,0,0
186109,-100,4,1,1,100,0,0
186566,-100,4,1,1,80,0,0
186802,456.794822992006,4,1,1,80,1,0
188629,-100,4,1,0,80,0,0
188971,-100,4,1,0,50,0,0
189028,-100,4,1,0,80,0,0
189200,-100,4,1,0,50,0,0
189428,-100,4,1,0,80,0,0
190798,-100,4,1,0,50,0,0
190856,-100,4,1,0,80,0,0
191027,-100,4,1,0,50,0,0
191255,-100,4,1,0,80,0,0
193425,-100,4,1,1,100,0,0
193882,-100,4,1,1,80,0,0
196280,-100,4,1,0,50,0,0
196337,-100,4,1,0,80,0,0
196508,-100,4,1,0,50,0,0
196737,-100,4,1,0,80,0,0
198107,-100,4,1,0,50,0,0
198164,-100,4,1,0,80,0,0
198336,-100,4,1,0,50,0,0
198564,-100,4,1,0,80,0,0
199363,-100,4,1,0,90,0,0
199706,-100,4,1,0,70,0,0
199934,-100,4,1,0,80,0,0
200391,-100,4,1,1,100,0,0
200962,-100,4,1,1,100,0,1

[HitObjects]
256,248,29555,5,0
416,96,30241,2,0,B|328:14|184:14|95:97,1,350,2|0
160,228,32298,5,2
256,276,32641,1,0
352,228,32984,1,2
352,156,33212,1,2
256,108,33555,1,0
160,156,33898,1,2
344,80,34584,5,8
256,192,35041,1,8
168,304,35498,1,8
160,156,35955,5,2
256,108,36298,1,0
352,156,36641,1,2
352,228,36869,1,2
256,276,37212,1,0
160,228,37555,1,2
88,240,37784,6,2,B|64:192|89:143,1,100,8|8
424,144,38698,2,2,B|448:192|423:241,1,100,8|8
200,64,39612,5,2
256,152,39955,1,2
312,240,40298,1,0
384,264,40526,6,2,B|320:354|192:354|127:263,1,300,2|0
128,120,42355,2,2,B|192:30|320:30|385:121,1,300,2|0
256,136,44183,5,12
416,288,44869,2,0,B|328:370|184:370|95:287,1,350,2|0
56,144,46926,5,2
160,104,47269,1,0
220,192,47612,1,2
292,192,47840,1,2
348,280,48183,1,0
456,240,48526,1,2
256,336,49212,5,8
256,192,49669,1,8
256,48,50126,1,8
456,144,50583,5,2
348,104,50926,1,0
292,192,51269,1,2
220,192,51497,1,2
144,280,51840,1,0
256,296,52183,1,2
304,352,52412,6,2,B|256:377|206:351,2,100,8|8|8
256,216,53783,1,8
220,80,54240,2,2,B|256:60|293:81,2,75,2|0|2
256,144,55154,1,12
192,56,58126,5,4
256,24,58354,1,4
320,56,58583,1,0
256,96,58811,5,6
256,232,59269,1,6
256,368,59726,2,0,B|201:371|167:327,1,100,6|0
120,272,60183,1,12
112,200,60411,1,0
184,200,60640,6,2,B|210:152|270:160,1,100
328,200,61097,1,8
376,280,61440,1,0
376,280,61554,1,0
320,328,61783,1,8
256,360,62011,1,8
192,328,62240,1,0
256,288,62468,5,6
256,152,62926,1,6
256,16,63383,2,0,B|311:13|345:57,1,100,6|0
392,112,63840,1,12
400,184,64068,1,0
328,184,64297,6,2,B|302:232|242:224,1,100
184,184,64754,1,8
216,80,65097,1,0
216,80,65211,1,0
156,40,65440,1,8
88,64,65668,1,8
40,120,65897,1,0
48,192,66125,5,14
256,320,66583,1,14
464,192,67040,2,0,B|444:142|391:128,1,100,6|0
320,120,67497,1,12
256,160,67725,1,0
320,196,67954,5,2
256,232,68183,1,0
192,196,68411,2,2,B|171:247|197:301|258:304,1,150,10|0
256,304,68868,1,2
320,336,69097,1,8
384,304,69325,1,8
422,242,69554,1,0
368,192,69782,6,0,B|365:117|307:71|231:80,1,200,4|0
168,120,70468,1,0
144,192,70697,2,0,B|147:267|205:313|281:304,1,200,4|0
344,264,71382,1,0
368,192,71611,2,6,B|400:80|256:0|112:72|145:194,2,400,14|6|14
256,192,73897,5,12
256,192,74354,1,12
256,192,74811,1,12
152,96,75268,6,2,B|106:184|198:200|151:289,1,200,2|6
360,96,76182,2,2,B|314:184|406:200|359:289,1,200,2|6
232,344,77096,6,0,B|152:355|95:295,1,150
96,296,77554,1,0
128,232,77782,1,0
96,168,78011,1,0
128,104,78239,1,8
200,104,78468,1,8
280,344,78925,6,0,B|360:355|417:295,1,150
416,296,79382,1,0
384,232,79611,1,0
416,168,79839,1,0
384,104,80068,1,8
312,104,80296,1,8
120,64,80753,5,4
152,128,80982,1,0
184,192,81211,1,4
216,256,81439,1,4
248,320,81668,1,4
256,192,82125,5,12
360,288,82582,6,2,B|406:200|314:184|361:95,1,200,2|6
152,288,83496,2,2,B|198:200|106:184|153:95,1,200,2|6
280,40,84410,6,0,B|360:29|417:89,1,150
416,88,84868,1,0
384,152,85096,1,0
416,216,85325,1,0
384,280,85553,1,8
312,280,85782,1,8
232,40,86239,6,0,B|152:29|95:89,1,150
96,88,86696,1,0
128,152,86925,1,0
96,216,87153,1,0
128,280,87382,1,8
200,280,87610,1,8
392,64,88067,5,4
360,128,88296,1,0
328,192,88525,1,4
296,256,88753,1,4
264,320,88982,1,4
256,192,89439,5,12
120,232,89896,6,2,B|64:264|2:192|64:120|122:153,1,200,2|14
392,152,90810,2,2,B|448:120|510:192|448:264|390:231,1,200,2|14
224,32,91724,6,0,B|133:32|112:115,1,150
112,112,92182,1,0
184,128,92410,1,0
136,184,92639,1,0
100,248,92867,1,8
172,248,93096,1,8
288,352,93553,6,0,B|379:352|400:269,1,150
400,272,94010,1,0
328,256,94239,1,0
376,200,94468,1,0
412,136,94696,1,8
340,136,94925,1,8
224,64,95381,5,4
272,120,95610,1,0
256,192,95839,1,4
240,264,96067,1,4
288,320,96296,1,4
184,192,96753,5,12
392,152,97210,6,2,B|448:120|510:192|448:264|390:231,1,200,2|14
120,232,98124,2,2,B|64:264|2:192|64:120|122:153,1,200,2|14
288,352,99038,6,0,B|379:352|400:269,1,150
400,272,99496,1,0
328,256,99724,1,0
376,200,99953,1,0
412,136,100181,1,8
340,136,100410,1,8
224,32,100867,6,0,B|133:32|112:115,1,150
112,112,101324,1,0
184,128,101553,1,0
136,184,101782,1,0
100,248,102010,1,8
172,248,102239,1,8
288,64,102695,5,4
240,120,102924,1,0
256,192,103153,1,4
272,264,103381,1,4
224,320,103610,1,4
328,192,104067,5,12
256,192,104531,12,12,105902
96,232,106359,6,0,B|104:272|152:288|200:272|208:231,1,150
208,232,106816,1,0
152,184,107045,1,0
220,160,107273,1,0
164,112,107502,1,8
232,88,107730,1,8
416,232,108187,6,0,B|408:272|360:288|312:272|304:231,1,150
304,232,108645,1,0
360,184,108873,1,0
292,160,109102,1,0
348,112,109330,1,8
280,88,109559,1,8
220,215,110016,5,4
197,285,110245,1,0
256,328,110473,1,4
315,285,110702,1,4
292,215,110930,1,4
256,80,111387,5,12
256,192,111844,12,12,113216
416,152,113673,6,0,B|408:112|360:96|312:112|304:153,1,150
304,152,114130,1,0
360,200,114359,1,0
292,224,114587,1,0
348,272,114816,1,8
280,296,115044,1,8
96,152,115501,6,0,B|104:112|152:96|200:112|208:153,1,150
208,152,115959,1,0
152,200,116187,1,0
220,224,116416,1,0
164,272,116644,1,8
232,296,116873,1,8
292,169,117330,5,4
315,99,117559,1,0
256,56,117787,1,4
197,99,118016,1,4
220,169,118240,1,12
176,120,132867,6,2,B|208:52|304:52|337:121,1,200,8|8
336,256,133782,2,2,B|304:324|208:324|175:255,1,200,8|8
28,184,134696,6,0,B|100:234|140:150|222:185,1,200,0|6
484,200,135610,2,0,B|412:150|372:234|290:199,1,200,0|6
400,112,136524,5,0
304,56,136867,1,0
304,56,136982,1,2
256,112,137210,1,0
210,168,137439,2,0,B|256:202|303:167,2,100,4|8|8
112,272,138353,5,0
208,328,138696,1,0
208,328,138811,1,2
256,272,139039,1,0
302,216,139268,2,0,B|256:182|209:217,2,100,4|8|8
384,104,140181,5,4
328,56,140410,1,0
256,40,140639,1,4
184,56,140867,1,4
128,104,141096,1,4
272,132,141553,5,12
484,200,142010,6,0,B|412:150|372:234|290:199,1,200,0|6
28,184,142924,2,0,B|100:234|140:150|222:185,1,200,0|6
112,272,143838,5,0
208,328,144181,1,0
208,328,144296,1,2
256,272,144524,1,0
302,216,144753,2,0,B|256:182|209:217,2,100,4|8|8
400,112,145667,5,0
304,56,146010,1,0
304,56,146125,1,2
256,112,146353,1,0
210,168,146582,2,0,B|256:202|303:167,2,100,4|8|8
128,280,147495,5,4
184,328,147724,1,0
256,344,147953,1,4
328,328,148181,1,4
384,280,148418,1,12
320,56,155042,5,4
256,24,155270,1,4
192,56,155499,1,0
256,96,155727,5,6
256,232,156185,1,6
256,368,156642,2,0,B|311:371|345:327,1,100,6|0
392,272,157099,1,12
400,200,157327,1,0
328,200,157556,6,2,B|302:152|242:160,1,100
184,200,158013,1,8
136,280,158356,1,0
136,280,158470,1,0
192,328,158699,1,8
256,360,158927,1,8
320,328,159156,1,0
256,288,159384,5,6
256,152,159842,1,6
256,16,160299,2,0,B|201:13|167:57,1,100,6|0
120,112,160756,1,12
112,184,160984,1,0
184,184,161213,6,2,B|210:232|270:224,1,100
328,184,161670,1,8
296,80,162013,1,0
296,80,162127,1,0
356,40,162356,1,8
424,64,162584,1,8
472,120,162813,1,0
464,192,163041,5,14
256,320,163499,1,14
48,192,163956,2,0,B|68:142|121:128,1,100,6|0
192,120,164413,1,12
256,160,164641,1,0
192,196,164870,5,2
256,232,165099,1,0
320,196,165327,2,2,B|341:247|315:301|254:304,1,150,10|0
256,304,165784,1,2
192,336,166013,1,8
128,304,166241,1,8
90,242,166470,1,0
144,192,166682,6,0,B|147:117|205:71|281:80,1,200,4|0
344,120,167367,1,0
368,192,167596,2,0,B|365:267|307:313|231:304,1,200,4|0
168,264,168281,1,0
144,192,168510,2,6,B|112:80|256:0|400:72|367:194,2,400,14|6|14
408,296,170796,5,12
104,296,171253,1,12
256,192,171710,1,12
184,104,172167,6,2,B|130:152|130:232|186:282,1,200,2|6
328,280,173081,2,2,B|382:232|382:152|326:102,1,200,2|6
208,32,173995,6,0,B|123:29|98:67|96:105,1,150
96,104,174453,1,0
168,120,174681,1,0
184,192,174910,1,0
112,176,175138,1,8
128,248,175367,1,8
304,352,175824,6,0,B|389:355|414:317|416:279,1,150
416,280,176282,1,0
344,264,176510,1,0
328,192,176739,1,0
400,208,176967,1,8
384,136,177196,1,8
168,80,177652,5,4
112,128,177881,1,0
144,192,178110,1,4
112,256,178338,1,4
168,304,178567,1,4
256,192,179024,5,12
328,280,179481,6,2,B|382:232|382:152|326:102,1,200,2|6
184,104,180395,2,2,B|130:152|130:232|186:282,1,200,2|6
304,352,181309,6,0,B|389:355|414:317|416:279,1,150
416,280,181767,1,0
344,264,181995,1,0
328,192,182224,1,0
400,208,182452,1,8
384,136,182681,1,8
208,32,183138,6,0,B|123:29|98:67|96:105,1,150
96,104,183596,1,0
168,120,183824,1,0
184,192,184053,1,0
112,176,184281,1,8
128,248,184510,1,8
344,304,184966,5,4
400,256,185195,1,0
368,192,185424,1,4
400,128,185652,1,4
344,80,185881,1,4
256,192,186338,5,14
160,280,186802,6,2,B|248:232|264:312|354:263,1,200,2|14
351,104,187715,2,2,B|263:153|247:73|159:121,1,200,2|14
40,192,188629,6,0,B|34:256|54:301|98:321,1,150
96,320,189085,1,0
164,344,189314,1,0
224,304,189542,1,4
284,344,189771,1,8
328,288,189999,1,8
472,192,190456,6,0,B|478:128|458:83|414:63,1,150
416,64,190913,1,0
348,40,191141,1,0
288,80,191369,1,4
228,40,191598,1,8
184,96,191826,1,8
144,224,192283,5,4
184,288,192511,1,0
256,272,192740,1,4
328,256,192968,1,4
368,320,193197,1,4
256,192,193653,5,12
352,104,194110,6,2,B|264:152|248:72|158:121,1,200,2|14
160,279,195024,2,2,B|249:231|265:311|353:263,1,200,2|14
472,192,195937,6,0,B|478:128|458:83|414:63,1,150
416,64,196394,1,0
348,40,196623,1,0
288,80,196851,1,4
228,40,197079,1,8
184,96,197308,1,8
40,192,197765,6,0,B|34:256|54:301|98:321,1,150
96,320,198221,1,0
164,344,198450,1,0
224,304,198678,1,4
284,344,198907,1,8
328,288,199135,1,8
199,231,199592,5,4
163,124,199820,1,4
256,56,200049,1,4
348,124,200277,1,4
312,232,200505,1,4
256,152,200962,5,12
