osu file format v5

[General]
AudioFilename: 5-13moskau.mp3
AudioLeadIn: 0
PreviewTime: 73253
Countdown: 1
SampleSet: Normal
StackLeniency: 0.7
Mode: 0
LetterboxInBreaks: 1
StoryFireInFront: 0
EditorBookmarks: 28576,110856,238849,246162,253476,260790
EditorDistanceSpacing: 1

[Metadata]
Title:Moskau
Artist:Dschinghis Khan
Creator:RemmyX25
Version:Lesjuh/Happy30
Source:
Tags:

[Difficulty]
HPDrainRate:7
CircleSize:4
OverallDifficulty:7
SliderMultiplier:2
SliderTickRate:2

[Events]
//Background and Video events
0,0,"BG_Happy30Lesjuh.PNG"
//Break Periods
2,103742,109956
2,185109,198180
2,215279,220807
//Storyboard Layer 0 (Background)
//Storyboard Layer 1 (Fail)
//Storyboard Layer 2 (Pass)
//Storyboard Layer 3 (Foreground)
Sprite,Foreground,Centre,"lesjuh.png",323,100 F,0,29480,29937,0,1 F,0,29937,103532,1 F,0,103532,103990,1,0 M,0,29480,110846,323,128,323,100 F,0,103990,201355,0 F,0,201355,202269,0,1 F,0,238381,,0 F,0,245238,,1 F,0,252552,,0 F,0,260323,267637,1
Sprite,Foreground,Centre,"happy30.png",318,394 M,0,110846,,318,394 F,0,110846,112218,0,1 F,0,112218,184899,1 F,0,184899,185356,1,0 F,0,238381,,1 F,0,245695,,0 F,0,253009,260094,1
//Storyboard Sound Samples
//Background Colour Transformations
3,100,0,0,0

[TimingPoints]
225,457.114994895549,4,1,0,100,1,0
28576,-100,4,2,0,100,0,0
58631,-100,4,2,0,100,0,0
110618,-200,4,2,0,100,0,0
121827,-100,4,2,0,100,0,0
198622,-200,4,2,0,100,0,0
201137,-200,4,2,0,40,0,0
221478,-100,4,2,0,100,0,0
237020,-100,4,2,0,100,0,1
238734,-100,4,2,0,100,0,0
238849,-100,4,2,0,100,0,1
245924,-100,4,2,0,100,0,0
246038,-100,4,2,0,100,0,1
253238,-100,4,2,0,100,0,0
253352,-100,4,2,0,100,0,1
260551,-100,4,2,0,100,0,0
260666,-100,4,2,0,100,0,1
267237,-100,4,2,0,100,0,0
267294,-100,4,2,0,100,0,1

[Colours]
Combo1 : 255,255,98
Combo2 : 255,255,255
Combo3 : 255,255,168

[HitObjects]
416,56,29480,2,0,B|512:136|424:248,1,200,0|2
96,336,30166,2,0,B|0:256|88:144,1,200,0|0
136,80,30851,1,2
256,328,31308,2,0,B|360:352|472:320,2,200,0|2|0
256,176,32565,1,0
368,72,32908,1,0
456,112,33137,6,0,B|456:240|312:272,1,200,0|2
176,72,33822,2,0,B|48:72|16:216,1,200,0|0
25,181,34508,1,2
152,336,34965,2,0,B|360:336,2,200,0|2|0
256,224,36222,1,0
376,136,36565,1,0
456,192,36794,6,0,B|472:318|340:338,1,200,0|2
456,192,37479,2,0,B|472:318|340:338,1,200
352,232,38165,1,2
184,48,38622,2,0,B|64:64|48:192,2,200,0|2|0
336,56,39879,1,0
440,160,40222,1,0
176,176,40451,5,0
248,136,40679,1,2
296,200,40908,1,8
224,240,41136,1,2
144,168,41365,5,0
256,104,41593,1,2
328,208,41822,1,8
216,272,42051,1,2
104,160,42279,5,0
264,64,42508,1,2
368,216,42736,1,8
208,312,42965,1,2
64,152,43193,5,0
272,24,43422,1,10
408,224,43650,1,8
200,352,43879,1,2
64,152,44108,6,0,B|96:40|224:48,1,200,0|2
352,248,44793,2,0,B|320:360|192:352,1,200
336,120,45479,1,2
160,224,45936,2,0,B|160:360|40:208|40:360,2,200,0|2|0
256,104,47193,1,0
344,224,47536,1,0
152,320,47764,6,0,B|256:360|376:312,1,200,0|2
352,64,48450,2,0,B|256:24|128:72,1,200,0|2
464,192,49136,1,0
264,192,49593,2,0,B|200:112|160:296|80:176,2,200,0|2|0
392,272,50850,1,0
384,120,51193,1,0
56,96,51421,6,0,B|8:200|72:320,1,200,0|2
456,288,52107,2,0,B|504:184|440:64,1,200,0|2
256,192,52793,1,0
352,336,53250,2,0,B|248:376|128:328,2,200
336,240,54393,2,0,B|216:240|168:128,1,200
256,80,55078,5,0
176,80,55307,1,2
256,80,55535,5,8
184,152,55764,1,2
256,80,55993,5,0
240,200,56221,1,2
256,80,56450,5,8
312,208,56678,1,2
256,80,56907,5,0
376,184,57135,1,2
256,80,57364,5,8
424,136,57592,1,2
256,80,57821,1,0
456,72,58050,5,8
256,80,58278,1,8
56,72,58507,1,8
56,168,58735,6,0,B|80:272|200:232,1,150,4|0
208,216,59192,2,0,B|232:320|352:280,1,150,10|0
368,272,59649,2,0,B|376:336|448:344,1,100,10|0
464,248,60107,1,2
408,160,60335,1,0
352,72,60564,2,0,B|248:24|152:72,1,200,6|4
256,184,61364,1,8
256,232,61478,1,2
328,344,61706,5,8
256,56,61935,1,8
184,344,62164,1,8
56,200,62392,6,0,B|80:96|200:136,1,150,8|0
208,152,62849,2,0,B|232:48|352:88,1,150,10|0
368,96,63306,2,0,B|376:32|448:24,1,100,10|0
464,120,63763,1,2
408,208,63992,1,0
352,296,64221,2,0,B|248:344|152:288,1,200,6|6
256,184,65021,1,8
256,136,65135,1,2
40,192,65363,5,8
256,40,65592,1,8
464,192,65821,1,8
256,184,66049,6,0,B|304:264|408:224,1,150,4|0
256,248,66506,2,0,B|208:328|104:288,1,150,10|0
256,312,66963,2,0,B|280:368|368:352,1,100,10|0
400,280,67420,1,2
464,192,67649,1,0
160,208,67878,2,0,B|264:160|360:208,1,200,4|4
256,312,68677,1,8
256,360,68792,1,2
88,248,69020,1,8
256,136,69249,1,8
424,248,69477,5,2
464,160,69706,2,0,B|432:48|296:64,1,200,4|0
344,160,70392,1,2
296,248,70620,2,0,B|160:264|112:144,1,200,6|0
160,80,71306,1,2
256,96,71534,1,4
256,192,71649,12,4,73363
256,192,73477,12,4,73820
256,192,73934,12,4,74277
256,192,74391,12,4,74734
40,48,75191,6,4,B|112:16|192:48,1,150,8|2
120,192,75648,2,4,B|192:224|272:192,1,150,8|2
248,48,76106,2,4,B|320:16|400:48,1,150,8|2
328,192,76563,2,4,B|392:216|464:176,1,100,8|0
344,272,77020,6,0,B|336:376|216:360,1,150,2|2
272,264,77477,2,0,B|264:184|168:184,1,100,8|10
80,336,77934,2,0,B|128:384|192:344,1,100,2|0
64,176,78391,1,8
128,80,78848,6,8,B|176:8|280:40,1,150,2|2
216,152,79305,2,0,B|160:176|168:248,1,100,10|8
416,112,79763,2,0,B|408:184|320:200,1,100,2|0
256,288,80220,1,8
416,48,80677,5,8
96,128,80905,1,8
416,192,81134,1,8
96,272,81362,1,8
416,344,81591,1,8
256,192,81705,12,4,82048
40,48,82505,6,4,B|112:16|192:48,1,150,8|2
120,224,82962,2,4,B|192:256|272:224,1,150,8|2
248,48,83419,2,4,B|320:16|400:48,1,150,8|2
328,224,83877,2,4,B|384:248|464:208,1,100,8|0
392,48,84334,6,0,B|384:144|280:144,1,150,2|2
168,104,84791,2,0,B|136:48|56:80,1,100,8|10
24,256,85248,2,0,B|56:312|136:280,1,100,2|0
304,200,85705,1,8
56,120,86162,6,8,B|88:216|216:184,1,150,2|2
280,112,86619,2,0,B|240:40|336:8,1,100,8|10
464,200,87076,2,0,B|392:240|360:144,1,100,2|0
192,320,87533,1,8
416,88,87991,5,8
96,144,88219,1,8
416,192,88448,1,8
96,240,88676,1,8
416,296,88905,1,8
256,192,89019,12,4,89362
40,48,89819,6,4,B|112:16|192:48,1,150,8|2
120,272,90276,2,4,B|192:304|272:272,1,150,8|2
248,48,90733,2,4,B|320:16|400:48,1,150,8|2
328,272,91190,2,4,B|384:304|464:256,1,100,8|0
320,160,91647,6,0,B|256:96|168:144,1,150,2|2
248,248,92105,2,0,B|280:304|240:344,1,100,8|10
40,336,92562,2,0,B|8:280|48:240,1,100,2|2
160,48,93019,1,8
160,48,93476,6,0,B|96:112|152:184,1,150,2|2
296,144,93933,2,0,B|320:80|400:88,1,100,8|8
448,256,94390,2,0,B|480:304|440:352,1,100,2|0
256,264,94847,1,8
96,56,95304,5,8
416,56,95533,1,8
96,200,95762,1,8
416,352,95990,1,8
96,352,96219,1,8
256,192,96333,12,4,96676
40,48,97133,6,4,B|112:16|192:48,1,150,8|2
120,304,97590,2,4,B|192:336|272:304,1,150,8|2
248,48,98047,2,4,B|320:16|400:48,1,150,8|2
328,304,98504,2,4,B|384:336|464:288,1,100,8|0
248,240,98961,6,0,B|176:184|224:96,1,150,2|2
376,96,99418,2,0,B|416:136|400:192,1,100,8|10
72,280,99876,2,0,B|48:224|64:176,1,100,2|0
304,120,100333,1,8
80,136,100790,6,0,B|32:208|80:296,1,150,2|0
432,280,101247,2,0,B|472:232|432:176,1,100,8|10
80,136,101704,2,0,B|40:192|64:248,1,100,2|2
256,192,102161,1,8
48,48,102618,5,8
464,128,102847,1,8
48,192,103075,1,8
464,272,103304,1,8
48,344,103532,1,8
368,328,110846,6,0,B|440:320|432:256,1,100,2|0
152,40,111532,2,0,B|40:56|8:128|64:232,1,250,2|2
424,48,113589,6,0,B|344:112|264:40,1,150,2|2
88,336,114503,2,0,B|168:272|248:344,1,150,2|0
264,232,115417,1,0
160,176,115646,1,0
216,72,115875,1,2
320,128,116103,1,0
104,272,116332,2,0,B|40:192|104:80,1,200,0|2
408,112,117474,6,0,B|472:192|424:280,1,150,2|0
248,328,118617,1,0
280,232,118846,2,0,B|328:136|280:32,1,200,2|0
283,38,119989,1,4
232,344,120446,1,0
96,192,120903,6,0,B|168:232|200:160|248:192,1,150,2|0
328,232,121817,5,8
392,152,122046,1,0
320,264,122274,1,2
400,120,122503,1,10
344,288,122731,1,8
376,96,122960,1,0
384,296,123188,1,2
336,88,123417,1,10
424,280,123646,1,8
296,104,123874,1,0
424,280,124103,6,0,B|328:328,2,100,4|0|0
296,104,124788,2,0,B|392:56,2,100,0|4|0
104,104,125474,6,0,B|40:192|104:296,1,200,8|0
152,192,126160,2,0,B|240:224|264:152|352:192,1,200,10|8
424,128,126845,2,0,B|504:200|424:312,1,200,8|2
328,296,127531,2,0,B|224:240|144:344,1,200
72,48,128217,6,0,B|144:112|280:48,1,200,10|0
312,144,128902,1,8
400,96,129131,2,0,B|464:200|336:264,1,200,10|0
56,160,129817,2,0,B|24:280|144:320,1,200,10|8
400,96,130502,2,0,B|464:200|400:288,1,200,8|2
184,160,131188,5,8
256,88,131417,1,10
320,160,131645,1,0
256,240,131874,2,0,B|184:336|128:328|96:240,1,200,10|0
88,160,132559,1,8
112,64,132788,2,0,B|136:-3|192:-11|264:85,1,200,10|0
290,271,133474,2,0,B|360:364|416:356|439:288,1,200,10|0
448,40,134159,6,0,B|320:40|320:176,1,200,8|2
64,168,134845,1,8
168,128,135073,1,10
208,232,135302,1,0
104,272,135531,2,0,B|168:368|288:328,1,200,8|8
376,344,136216,1,8
424,256,136445,6,0,B|312:256,1,100,4|8
88,256,136902,2,0,B|200:256,1,100,2|0
448,176,137359,2,0,B|336:176,1,100,0|8
64,176,137816,2,0,B|176:176,1,100,8|8
472,96,138273,2,0,B|360:96,1,100,4|0
40,96,138730,2,0,B|152:96,1,100,0|8
396,16,139187,2,0,B|496:16,1,100,0|8
116,16,139645,2,8,B|16:16,1,100
216,24,140102,6,0,B|240:144|248:144|280:96,1,150,4|2
296,144,140559,2,0,B|272:264|264:264|232:216,1,150,8|2
216,264,141016,2,0,B|232:344|248:344|272:304,1,100,8|0
360,312,141473,1,0
416,64,141702,2,0,B|448:112|424:160,1,100,2|4
96,64,142159,2,0,B|64:112|88:160,1,100,2|4
256,344,142730,1,2
256,296,142844,1,8
208,32,143073,1,8
304,32,143301,1,8
256,112,143530,1,8
216,360,143759,6,0,B|240:240|248:240|280:288,1,150,4|2
296,240,144216,2,0,B|272:120|264:120|232:168,1,150,8|2
216,120,144673,2,0,B|232:40|248:40|272:80,1,100,8|0
360,72,145130,1,0
416,320,145359,2,0,B|448:272|424:224,1,100,2|8
96,320,145816,2,0,B|64:272|88:224,1,100,2|8
256,40,146387,1,2
256,88,146501,1,8
208,352,146730,1,8
304,352,146958,1,8
256,192,147187,1,8
320,120,147416,6,0,B|384:80|432:176|328:192,1,150,4|2
328,232,147873,2,0,B|368:296|272:344|256:240,1,150,8|2
200,264,148330,2,0,B|136:304|88:208|192:192,1,150,8|2
184,152,148787,2,0,B|144:88|240:40|256:144,1,150,8|0
256,168,149244,5,8
256,352,149701,1,8
256,40,150044,1,2
256,88,150158,1,8
208,280,150387,1,8
304,280,150615,1,8
368,200,150844,5,2
368,96,151072,1,4
56,48,151530,1,2
56,144,151758,1,0
144,192,151987,1,4
456,336,152444,1,2
456,240,152672,1,0
368,192,152901,1,4
256,48,153129,5,0
256,48,153244,1,0
256,48,153358,1,2
256,144,153587,1,8
256,144,153815,1,8
256,144,154501,5,0
256,144,154615,1,0
256,144,154729,1,8
168,192,154958,2,0,B|112:280,1,100,2|8
344,192,155415,2,0,B|400:280,1,100,2|8
152,272,155872,2,0,B|96:360,1,100,8|8
360,272,156329,1,8
416,360,156558,6,0,B|496:296|432:216,1,150,4|2
288,231,157015,6,0,B|234:298|314:362,1,150,8|2
360,272,157472,6,0,B|440:208|376:128,1,150,4|2
152,39,157929,6,0,B|98:106|178:170,1,150,8|2
272,160,158386,1,8
384,64,158729,1,2
384,64,158843,2,0,B|448:104|408:168,1,100,8|2
376,240,159301,1,2
424,328,159529,1,10
376,240,159758,1,10
240,224,160215,1,8
128,320,160558,1,2
128,320,160672,2,0,B|64:280|104:216,1,100,8|2
136,144,161130,1,2
88,56,161358,1,10
136,144,161587,1,10
364,40,162043,6,0,B|364:96,1,50,8|0
288,72,162272,2,0,B|288:128,1,50,8|0
216,104,162500,2,0,B|216:160,1,50,8|0
144,136,162729,2,0,B|144:192,1,50,8|0
144,232,162957,1,4
256,32,163415,1,8
256,296,163872,6,0,B|168:360|112:256,1,150,4|2
176,192,164329,2,0,B|192:88|88:80,1,150,8|2
32,192,164786,2,0,B|16:296|120:304,1,150,8|2
144,136,165243,2,0,B|192:48|280:112,1,150,8|2
360,72,165700,2,0,B|376:240,1,150,4|2
272,232,166157,2,0,B|168:256,1,100,8|0
80,40,166614,2,0,B|184:64,1,100,8|8
40,288,167071,1,8
144,136,167529,6,0,B|128:304,1,150,4|2
232,296,167986,2,0,B|336:320,1,100,8|2
424,104,168443,2,0,B|320:128,1,100,8|10
464,352,168900,1,8
320,56,169357,5,8
280,344,169586,1,8
240,40,169814,1,8
208,344,170043,1,2
168,56,170271,1,8
256,192,170728,5,4
256,192,171186,12,4,172557
360,336,173014,6,0,B|472:328|456:224,1,150,8|2
360,64,173471,2,0,B|280:88|304:152,1,100,8|2
256,328,173928,1,2
256,224,174157,1,8
256,120,174385,1,8
152,48,174842,6,0,B|40:56|56:160,1,150,8|2
152,320,175300,2,0,B|232:296|208:232,1,100,8|2
256,56,175757,1,2
256,160,175985,1,8
256,264,176214,1,8
356,40,176671,6,0,B|356:96,1,50,8|0
304,136,176899,2,0,B|304:48,1,50,8|0
256,32,177128,2,0,B|256:88,1,50,8|0
200,136,177357,2,0,B|200:80,1,50,8|0
168,48,177585,1,4
152,256,178042,5,8
152,256,178499,2,8,B|336:368|464:256|480:112|408:8|184:-48|40:184|288:192,1,750,4|2
320,112,180328,6,0,B|328:216|424:192,1,150,8|2
464,104,180785,2,0,B|472:40|408:32,1,100,8|2
208,32,181242,1,2
104,32,181471,1,8
0,32,181699,1,8
192,272,182156,6,0,B|184:168|88:192,1,150,8|2
48,280,182613,2,0,B|40:344|104:352,1,100,8|2
304,352,183070,1,2
408,352,183299,1,8
512,352,183528,1,8
336,56,183985,5,8
296,344,184213,1,8
256,40,184442,1,8
224,344,184670,1,2
184,56,184899,1,4
256,192,198841,12,4,199527
256,192,199641,12,4,199984
256,192,200098,12,4,200441
256,192,200555,12,4,200898
56,152,201355,6,0,B|24:208|64:264,1,100,0|8
456,248,202269,2,0,B|488:200|448:136,1,100,0|8
80,296,203184,6,8,B|104:336|160:336,1,75,0|8
192,336,203641,2,0,B|224:336|248:304,1,50,8|8
168,256,204098,1,0
168,256,204326,1,8
168,256,204555,1,8
456,88,205012,6,8,B|433:50|395:51,1,75,0|8
344,49,205469,2,0,B|313:49|300:68,1,50,8|8
376,128,205926,1,0
376,128,206155,1,8
376,128,206383,1,8
256,48,206840,6,0,B|272:80,1,25
264,96,207069,2,0,B|248:128,1,25,0|0
256,144,207298,2,0,B|272:176,1,25
264,192,207526,2,0,B|248:224,1,25,0|0
256,240,207755,1,0
256,240,208212,5,4
456,152,208669,6,0,B|488:208|448:264,1,100,0|8
56,248,209583,2,0,B|24:200|64:136,1,100,0|8
432,296,210497,6,8,B|408:336|352:336,1,75,0|8
320,336,210955,2,0,B|288:336|264:304,1,50,8|8
344,256,211412,1,0
344,256,211640,1,0
344,256,211869,1,8
56,88,212326,6,8,B|80:50|117:51,1,75,0|8
167,49,212783,2,0,B|199:49|211:68,1,50,8|8
136,128,213240,1,0
136,128,213469,1,8
136,128,213697,1,8
256,48,214154,6,0,B|240:80,1,25
248,96,214383,2,0,B|264:128,1,25,0|0
256,144,214611,2,0,B|240:176,1,25
248,192,214840,2,0,B|264:224,1,25,0|0
256,240,215069,1,4
432,336,221697,5,8
256,48,221925,1,8
80,336,222154,1,8
96,80,222382,6,0,B|120:184|240:144,1,150,4|0
88,216,222840,2,0,B|112:320|232:280,1,150,10|0
304,224,223297,2,0,B|312:288|384:288,1,100,10|0
464,248,223754,1,2
408,160,223982,1,0
352,72,224211,2,0,B|248:24|152:72,1,200,6|4
256,184,225011,1,8
256,232,225125,1,2
40,232,225354,5,8
472,232,225582,1,8
256,352,225811,1,8
48,112,226039,6,0,B|72:8|192:48,1,150,8|0
256,184,226496,2,0,B|280:80|400:120,1,150,10|0
360,344,226954,2,0,B|368:280|440:272,1,100,10|0
472,184,227411,1,2
456,88,227639,1,0
360,56,227868,2,0,B|256:8|160:64,1,200,6|6
256,184,228668,1,8
256,232,228782,1,2
256,352,229011,5,8
256,40,229239,1,8
256,352,229468,1,8
320,104,229696,6,0,B|368:184|472:144,1,150,4|0
184,184,230153,2,0,B|136:264|32:224,1,150,10|0
320,288,230610,2,0,B|344:344|432:328,1,100,10|0
464,256,231068,1,2
416,168,231296,1,0
360,80,231525,2,0,B|256:32|160:80,1,200,4|4
256,304,232325,1,8
256,352,232439,1,2
64,304,232667,1,8
256,40,232896,1,8
448,304,233125,5,2
464,208,233353,2,0,B|440:96|304:112,1,200,4|0
256,312,234039,1,2
40,208,234267,2,0,B|72:96|208:112,1,200,4|0
112,312,234953,1,2
392,312,235182,1,4
256,192,235296,12,4,237010
256,192,237124,12,4,237467
256,192,237581,12,4,237924
256,192,238039,12,4,238381
424,296,238839,6,0,B|336:360|280:256,1,150,8|2
152,136,239296,2,0,B|168:32|64:24,1,150,8|2
40,224,239753,2,0,B|24:328|128:336,1,150,8|2
255,191,240210,2,0,B|297:111|385:175,1,150,8|0
104,56,240667,6,0,B|88:224,1,150,2|2
256,320,241124,2,0,B|360:344,1,100,8|0
448,48,241581,2,0,B|344:72,1,100,8|8
464,360,242038,1,8
104,328,242495,6,0,B|88:160,1,150,2|2
256,64,242953,2,0,B|360:40,1,100,8|0
448,336,243410,2,0,B|344:312,1,100,8|8
464,24,243867,1,8
48,48,244324,5,8
464,128,244553,1,8
48,192,244781,1,8
464,272,245010,1,8
48,344,245238,1,8
256,192,245352,12,4,245695
80,104,246152,6,4,B|104:-40|128:120,1,150,8|2
184,280,246609,2,4,B|208:424|232:264,1,150,8|2
280,104,247067,2,4,B|304:-40|328:120,1,150,8|2
352,280,247524,2,4,B|408:304|488:264,1,100,8|0
48,64,247981,6,0,B|56:160|160:160,1,150,2|2
424,72,248438,2,0,B|480:104|448:184,1,100,8|2
104,344,248895,2,0,B|48:312|80:232,1,100,2|0
456,240,249352,1,8
72,256,249809,6,8,B|104:352|232:320,1,150,2|2
376,56,250266,2,0,B|448:16|480:112,1,100,8|2
136,72,250724,2,0,B|64:112|32:16,1,100,2|0
256,328,251181,1,8
224,32,251638,6,8,B|192:112,1,50,8|0
288,128,251866,2,8,B|320:208,1,50,8|0
224,216,252095,2,8,B|192:296,1,50,8|0
288,312,252323,2,8,B|320:392,1,50,8|0
306,358,252552,1,8
256,192,252666,12,4,253009
48,344,253466,6,0,B|200:344,1,150,8|2
464,40,253923,2,0,B|312:40,1,150,8|2
48,40,254380,2,0,B|48:152|128:176,1,150,8|2
464,344,254838,2,0,B|464:232|384:208,1,150,8|2
108,168,255295,6,8,B|44:240|124:304,1,150,8|2
400,216,255752,2,0,B|424:160|400:112,1,100,8|8
48,40,256209,2,0,B|0:80|48:176,1,100,2|8
96,320,256666,1,8
404,168,257123,6,8,B|468:240|388:304,1,150,8|2
112,216,257580,2,0,B|88:160|112:112,1,100,8|8
464,40,258037,2,0,B|512:80|464:176,1,100,2|8
416,320,258494,1,8
16,48,258952,5,8
496,128,259181,1,8
16,192,259409,1,8
496,272,259638,1,8
16,344,259866,1,8
256,192,259980,12,4,260323
232,96,260780,6,4,B|256:-48|280:112,1,150,8|2
232,296,261237,2,4,B|256:440|280:280,1,150,8|2
96,168,261694,2,4,B|-48:192|112:216,1,150,8|2
440,168,262151,2,4,B|528:192|432:224,1,100,8|0
48,256,262609,6,0,B|56:352|160:352,1,150,10|2
256,112,263066,2,0,B|312:80|280:0,1,100,8|10
464,264,263523,2,0,B|408:296|440:376,1,100,2|8
96,48,263980,1,8
392,48,264437,6,8,B|488:80|456:208,1,150,10|10
120,336,264894,2,0,B|48:376|16:280,1,100,8|10
392,336,265351,2,0,B|464:376|496:280,1,100,0|10
256,328,265808,1,8
152,32,266265,6,8,B|120:112,1,50,8|0
352,128,266494,2,8,B|384:208,1,50,8|0
152,216,266723,2,8,B|120:296,1,50,8|0
368,312,266951,2,8,B|400:392,1,50,8|0
386,358,267180,1,8
256,192,267294,12,4,267637
