osu file format v5

[General]
AudioFilename: 5-13moskau.mp3
AudioLeadIn: 0
PreviewTime: 73253
Countdown: 1
SampleSet: Normal
StackLeniency: 0.7
Mode: 0
LetterboxInBreaks: 1
EditorBookmarks: 28463,103549,110863,139377,156234,170749,178520,185263,199549,215549,221720,225149,228806,232463,238863,246177,253492,260806
EditorDistanceSpacing: 1

[Metadata]
Title:Moskau
Artist:Dschinghis Khan
Creator:RemmyX25
Version:Jeffro/Zerostarry
Source:
Tags:

[Difficulty]
HPDrainRate:5
CircleSize:5
OverallDifficulty:5
SliderMultiplier:1.6
SliderTickRate:2

[Events]
//Background and Video events
0,0,"lartoBG.jpg"
//Break Periods
2,103749,109663
2,185063,198292
2,215292,220520
//Storyboard Layer 0 (Background)
//Storyboard Layer 1 (Failing)
//Storyboard Layer 2 (Passing)
//Storyboard Layer 3 (Foreground)
//Storyboard Sound Samples
//Background Colour Transformations
3,100,163,162,255

[TimingPoints]
235,457.142857142857,4,1,0,100,1,0
40577,-100,4,2,0,100,0,0
44006,-100,4,1,0,100,0,0
55206,-100,4,2,0,100,0,0
58177,-50,4,1,0,100,0,0
75092,-50,4,1,0,100,0,1
103606,-100,4,1,0,100,0,0
170977,-200,4,1,0,100,0,0
172806,-100,4,1,0,100,0,0
221606,-50,4,1,0,100,0,0
225377,-100,4,1,0,100,0,0
228577,-50,4,1,0,100,0,0
232692,-100,4,1,0,100,0,0
237034,-50,4,1,0,100,0,0
238749,-50,4,1,0,100,0,1
245949,-100,4,1,0,100,0,0

[HitObjects]
256,192,29492,5,0
256,192,30177,2,0,B|256:24,1,160,0|0
256,32,30863,1,0
256,32,31092,1,0
256,32,31320,1,0
368,192,32235,5,0
368,192,32577,1,0
368,192,32920,1,0
320,192,33149,1,0
256,264,33606,1,0
256,264,33834,2,0,B|128:136,1,160
142,150,34520,1,0
142,150,34749,1,0
112,112,34977,1,0
144,192,35892,5,0
144,192,36234,1,0
144,192,36577,1,0
192,192,36806,1,0
256,264,37263,1,0
256,264,37491,2,0,B|384:136,1,160
370,150,38177,1,0
370,150,38406,1,0
400,112,38634,1,0
256,192,39549,5,0
256,192,39892,1,0
256,192,40235,2,0,B|256:288,1,80
176,328,40692,5,2
336,328,40920,1,2
184,280,41149,1,2
328,280,41377,1,2
192,232,41606,1,2
320,232,41835,1,2
208,184,42063,1,2
304,184,42292,1,2
208,184,42520,5,2
320,232,42749,1,2
192,232,42977,1,2
328,280,43206,1,2
184,280,43435,1,2
336,328,43663,1,2
176,328,43892,1,2
256,192,44120,5,0
256,192,44806,2,0,B|376:72,1,160
369,78,45492,1,0
369,78,45720,1,0
369,78,45949,1,0
152,80,46863,5,0
152,80,47206,1,0
152,80,47549,1,0
184,120,47777,1,0
264,200,48234,1,0
264,200,48463,2,0,B|384:320,1,160
377,313,49149,1,0
377,313,49377,1,0
377,313,49606,1,0
360,80,50520,5,0
360,80,50863,1,0
360,80,51206,1,0
328,120,51434,1,0
248,200,51891,1,0
248,200,52120,2,0,B|128:320,1,160
135,313,52806,1,0
135,313,53034,1,0
135,313,53263,1,0
256,160,54177,5,0
256,160,54520,1,0
256,160,54863,2,0,B|256:256,1,80
160,112,55320,5,2
160,272,55549,1,2
200,120,55777,1,2
200,264,56006,1,2
240,128,56234,1,2
240,256,56463,1,2
280,136,56692,1,2
280,248,56920,1,2
432,192,57149,5,2
272,192,57377,1,2
112,192,57606,1,2
272,192,57834,1,2
432,192,58063,1,6
432,192,58292,5,4
432,192,58520,5,2
432,192,58749,1,4
368,120,58977,6,8,L|328:48|296:128,1,160
272,216,59434,6,8,L|232:288|200:208,1,160
192,120,59892,6,8,L|152:48|120:128,1,160
104,216,60349,6,0,L|64:288|32:208|64:136|104:208|144:136|184:216,1,480,8|2
174,196,61378,1,8
174,196,61492,1,8
174,196,61720,1,8
174,196,61949,1,8
184,288,62177,6,8,B|256:360|328:288,1,160
384,368,62634,6,8,B|456:296|384:224,1,160
456,160,63092,6,8,B|384:88|312:160,1,160
384,224,63549,5,8
384,224,63777,1,8
384,224,64006,2,8,B|312:376|240:224|152:56|16:328,1,480,8|2
19,320,65034,1,8
19,320,65149,1,8
19,320,65377,1,8
19,320,65606,1,8
19,320,65834,1,8
96,256,66063,6,8,C|64:224|88:200|112:224|80:256,1,160
176,256,66520,6,8,C|208:288|184:312|160:288|192:256,1,160
280,256,66977,6,8,C|248:224|272:200|296:224|264:256,1,160
360,256,67434,6,8,C|392:288|368:312|344:288|376:256,4,160
360,256,68692,1,8
360,256,68806,1,8
360,256,69034,1,8
360,160,69263,5,0
360,160,69492,1,8
360,160,69720,2,2,L|336:136|312:160|288:136|264:160|240:136,1,160
246,142,70177,1,0
246,142,70406,1,8
247,142,70634,2,2,L|223:166|247:190|223:214|247:238|223:262,1,160,0|0
229,255,71092,1,8
229,255,71320,1,2
256,192,71549,12,0,72920
96,240,73377,6,0,L|216:360,1,160
304,352,73834,6,0,L|432:224,1,160
416,144,74292,6,0,L|296:24,1,160
208,32,74749,6,0,L|80:160,1,160
256,192,75206,5,2
256,272,75434,2,0,L|256:192,1,80
256,192,75663,1,0
256,192,75892,1,0
256,192,76120,5,0
176,192,76349,2,0,L|256:192,1,80
256,192,76577,1,0
256,192,76806,1,0
32,64,77034,5,0
32,320,77263,1,0
32,320,77378,1,0
32,320,77492,1,0
256,192,77720,1,0
480,320,77949,1,0
256,192,78177,1,0
480,64,78406,1,0
256,64,78863,5,0
256,208,79206,1,0
256,208,79320,1,0
304,128,79549,1,0
208,128,79777,1,0
256,48,80006,1,0
256,144,80234,1,0
416,240,80692,6,0,L|288:368,1,160
208,352,81149,6,0,L|80:224,1,160,0|0
176,192,81606,6,0,L|352:192,1,160
256,136,82063,5,0
256,192,82292,12,0,82977
256,192,83206,12,0,83892
256,192,84349,5,0
112,192,84692,2,0,L|112:104,1,80
152,152,85034,1,0
256,152,85263,1,0
360,152,85492,1,0
400,192,85606,2,0,L|400:96,1,80
256,232,86177,5,0
176,96,86406,1,0
336,96,86634,1,0
256,232,86863,1,0
256,72,87092,1,0
256,72,87320,1,0
256,72,87549,1,0
96,144,88006,6,0,L|224:16,1,160
304,32,88463,6,0,L|432:160,1,160
336,192,88920,6,0,L|176:192,1,160
256,240,89377,5,0
48,48,89834,5,0
464,48,90292,1,0
464,336,90749,5,0
48,344,91206,1,0
256,192,91663,5,0
112,192,92006,2,0,L|112:104,1,80
208,112,92349,1,0
304,112,92577,1,0
256,192,92806,1,0
256,288,93034,1,0
256,96,93492,5,0
256,240,93834,1,0
256,240,93949,1,0
208,320,94177,1,0
304,320,94406,1,0
256,240,94634,1,0
256,240,94863,1,0
416,144,95320,6,0,L|296:24,1,160
208,32,95777,6,0,L|72:168,1,160
176,192,96234,6,0,L|360:192,1,160
256,136,96692,5,0
256,192,96920,12,0,97606
256,192,97834,12,0,98520
256,192,98977,5,0
256,192,99320,1,0
256,192,99434,1,0
256,192,99663,1,0
256,192,99892,1,0
256,192,100120,1,0
256,192,100349,1,0
256,0,100806,5,0
256,144,101149,1,0
256,144,101263,1,0
304,224,101492,1,0
208,224,101720,1,0
256,144,101949,1,0
256,48,102177,1,0
256,192,102634,5,0
256,192,102862,1,0
256,192,103091,1,0
256,192,103320,1,0
256,192,103549,1,0
256,328,110863,6,0,B|328:376|424:320,1,160
408,248,111549,2,0,B|480:176|384:72,1,160
409,103,112120,1,0
409,103,112234,1,0
328,104,112463,1,0
328,104,112692,1,0
120,64,113606,5,0
200,200,113949,1,0
40,200,114292,1,0
120,200,114520,2,0,B|120:368,1,160
120,360,115206,1,0
120,360,115663,1,0
120,360,115892,1,0
120,360,116120,1,0
120,360,116234,1,0
120,360,116349,1,0
392,64,117263,5,0
312,200,117606,1,0
472,200,117949,1,0
392,200,118177,2,0,B|392:368,1,160
392,360,118863,1,0
392,360,119320,1,0
392,360,119549,1,0
392,360,119777,1,0
392,360,119891,1,0
392,360,120006,1,0
256,192,120920,12,0,121834
256,56,122063,5,0
192,112,122292,1,0
256,152,122520,1,0
328,192,122749,1,0
256,232,122977,1,0
184,272,123206,1,0
256,320,123434,1,0
256,320,123663,1,0
256,192,123892,12,0,125492
144,192,126177,6,0,B|136:320|368:344|336:168,1,320
344,112,127320,1,0
344,112,127549,1,0
344,112,127777,1,0
344,112,128006,1,0
256,112,128234,1,0
136,112,128577,1,0
200,216,128920,1,0
200,296,129149,2,0,B|272:360|360:288,1,160
345,298,129834,1,0
345,298,130292,1,0
345,298,130520,1,0
345,298,130749,1,0
345,298,130863,1,0
345,298,130977,1,0
352,80,131892,6,0,B|280:16|184:88,1,160
136,120,132577,1,0
72,168,132806,2,0,B|0:240|80:320,1,160
136,352,133492,1,0
136,352,133949,1,0
136,352,134177,1,0
136,352,134406,1,0
136,352,134520,1,0
136,352,134634,1,0
160,80,135549,6,0,B|232:16|328:88,1,160
376,120,136234,1,0
440,168,136463,2,0,B|512:240|432:320,1,160
376,256,137149,1,0
328,320,137377,1,0
280,256,137606,1,0
240,320,137834,1,0
192,256,138063,1,0
152,320,138292,1,0
256,192,138520,12,0,139663
176,64,140120,6,0,B|360:64,4,160
256,200,142406,1,0
256,200,142863,1,0
256,200,143320,1,0
176,320,143777,2,0,B|360:320,4,160
256,184,146063,1,0
256,184,146520,1,0
256,184,146977,1,0
32,192,147434,5,0
32,112,147663,1,0
112,112,147892,1,0
112,192,148120,1,0
112,272,148349,1,0
112,352,148577,1,0
192,352,148806,1,0
192,272,149034,1,0
192,192,149263,2,0,B|368:192,3,160
256,192,151092,12,0,156120
56,112,156577,6,0,B|56:288,1,160
136,192,157263,1,0
216,112,157492,2,0,B|216:296,1,160
376,272,158406,1,0
456,272,158634,1,0
456,272,158749,1,0
456,272,158863,1,0
456,192,159092,1,0
376,192,159320,1,0
376,112,159549,1,0
456,112,159777,1,0
136,272,160234,5,0
56,272,160462,1,0
56,272,160577,1,0
56,272,160691,1,0
56,192,160920,1,0
136,192,161148,1,0
136,112,161377,1,0
56,112,161605,1,0
256,192,162063,12,0,163434
184,312,163892,6,0,B|256:368|368:304,1,160
408,288,164577,1,0
472,240,164806,2,0,B|400:176|304:240,1,160
256,80,165720,1,0
192,128,165949,1,0
192,128,166063,1,0
192,128,166177,1,0
256,176,166406,1,0
320,128,166634,1,0
256,80,166863,1,0
192,128,167092,1,0
256,336,167549,5,0
192,288,167778,1,0
192,288,167892,1,0
192,288,168006,1,0
256,240,168235,1,0
320,288,168463,1,0
256,336,168692,1,0
192,288,168921,1,0
256,192,169377,12,0,170292
256,192,170749,5,0
256,192,171206,1,0
256,192,171663,2,0,L|256:32,1,160
352,40,173034,1,0
352,184,173377,2,0,L|352:240,1,40
352,320,173720,1,0
256,320,173949,1,0
160,320,174177,1,0
160,224,174406,1,0
256,56,174863,6,0,L|256:112,1,40
256,96,175206,1,0
256,96,175320,1,0
256,192,175549,1,0
256,288,175777,1,0
160,288,176006,1,0
160,192,176234,1,0
336,120,176692,6,0,L|408:48,1,80
176,120,177149,6,0,L|112:56,1,80
256,264,177606,6,0,L|256:352,1,80
256,192,178063,5,0
176,344,178520,6,0,B|368:344,4,160
96,344,180577,1,0
96,344,180692,1,0
96,344,180806,1,0
96,264,181034,1,0
176,264,181263,1,0
176,184,181492,1,0
96,184,181720,1,0
256,184,182177,5,0
336,184,182406,1,0
336,184,182520,1,0
336,184,182634,1,0
336,264,182863,1,0
256,264,183092,1,0
256,344,183320,1,0
336,344,183549,1,0
256,192,184006,12,0,184920
48,112,199549,6,0,B|48:304,1,160
208,272,200463,2,0,B|208:96,1,160
360,56,201377,6,0,B|456:56,1,80
440,136,201834,1,0
440,296,202292,2,0,B|352:296,1,80
360,216,202749,1,0
256,336,203206,5,0
176,336,203434,1,0
176,336,203549,1,0
176,336,203663,1,0
96,336,203892,1,0
96,256,204120,1,0
176,256,204349,1,0
136,184,204577,1,0
256,48,205034,5,0
336,48,205262,1,0
336,48,205377,1,0
336,48,205491,1,0
416,48,205720,1,0
416,128,205948,1,0
336,128,206177,1,0
376,200,206405,1,0
256,192,206863,12,0,208234
176,336,208692,6,0,B|360:336,1,160
384,272,209377,1,0
336,208,209606,2,0,B|152:208,1,160
72,80,210520,1,0
72,160,210749,1,0
72,160,210863,1,0
72,160,210977,1,0
144,120,211206,1,0
224,120,211434,1,0
304,120,211663,1,0
384,120,211892,1,0
440,304,212349,1,0
440,224,212578,1,0
440,224,212692,1,0
440,224,212806,1,0
368,264,213035,1,0
288,264,213263,1,0
208,264,213492,1,0
128,264,213721,1,0
256,192,214177,12,0,215092
256,192,221720,5,0
256,192,221949,1,2
256,192,222177,1,0
416,144,222406,6,8,L|272:0,1,160,8|8
208,32,222863,6,8,L|72:168,1,160
96,240,223320,6,8,L|224:368,1,160
304,352,223777,6,8,L|432:224,1,160
352,192,224234,1,8
256,192,224463,1,8
160,192,224692,1,8
256,192,225034,2,8,L|256:112,1,80
256,32,225377,5,0
176,32,225606,1,0
96,32,225834,1,0
96,112,226063,2,0,B|96:296,3,160
256,296,227892,5,0
320,240,228349,1,0
192,240,228806,1,0
256,192,229034,5,8
304,112,229263,1,8
208,112,229492,1,8
256,192,229720,6,8,B|336:272,2,80
256,192,230177,6,8,B|192:256,2,80
256,192,230634,6,8,B|256:96,2,80
256,192,231092,5,8
256,192,231320,1,8
256,192,231434,1,8
256,192,231549,1,8
256,192,231777,1,8
256,96,232006,1,8
152,192,232349,1,8
152,192,232463,1,8
152,272,232692,5,0
232,272,232920,1,0
312,272,233149,1,0
312,272,233377,2,0,B|480:272,1,160
432,200,234063,1,0
376,136,234292,2,0,B|184:136,1,160
176,200,234977,1,0
256,200,235206,2,0,B|256:304,6,80
176,80,237034,2,0,B|376:80,7,160
256,192,238863,5,0
256,96,239092,1,8
256,96,239206,1,8
256,96,239320,2,8,B|136:216,1,160
256,192,239777,5,0
256,288,240006,1,8
256,288,240120,1,8
256,288,240234,2,8,B|376:168,1,160
256,192,240692,5,0
144,152,241035,1,8
184,120,241149,1,8
256,56,241377,1,0
328,112,241606,1,0
376,192,241834,1,0
280,192,242063,1,0
256,384,242520,5,0
0,184,242749,1,0
0,184,242863,1,0
256,0,243092,1,0
512,192,243320,1,0
256,384,243549,1,0
256,192,243778,1,0
392,56,244234,6,0,B|272:176,1,160
120,56,244692,6,0,B|240:176,1,160
256,368,245149,6,0,B|256:200,1,160
256,112,245606,5,0
72,192,246177,6,0,B|144:264|224:184,1,160
440,192,247092,6,0,B|368:264|288:184,1,160
256,40,248006,1,0
256,120,248234,1,0
256,120,248349,1,0
256,120,248463,1,0
256,120,248692,1,0
256,120,248920,1,0
256,120,249149,1,0
256,120,249377,1,0
256,344,249834,1,0
256,264,250062,1,0
256,264,250177,1,0
256,264,250291,1,0
256,264,250520,1,0
256,264,250748,1,0
256,264,250977,1,0
256,264,251205,1,0
256,192,251663,12,0,253034
64,48,253492,5,0
256,48,253720,1,0
448,48,253949,1,0
448,336,254406,5,0
256,336,254634,1,0
64,336,254863,1,0
256,0,255320,5,0
256,192,255549,1,0
256,384,255777,1,0
256,192,256006,1,0
64,192,256234,1,0
256,192,256463,1,0
448,192,256692,1,0
256,144,257149,5,0
256,144,257263,1,0
424,48,257492,1,0
256,144,257720,1,0
256,144,257834,1,0
256,304,257949,1,0
256,304,258178,1,0
256,304,258406,1,0
256,144,258862,5,0
256,144,258977,1,0
256,144,259091,1,0
256,240,259319,1,0
256,240,259434,1,0
256,240,259548,1,0
256,144,259778,1,0
256,144,259892,1,0
256,144,260006,1,0
392,192,260234,5,0
48,192,260806,5,0
112,240,261034,1,0
176,192,261263,1,0
464,192,261720,5,0
400,240,261948,1,0
336,192,262177,1,0
176,56,262634,6,0,B|368:56,1,160
256,112,263320,1,0
256,192,263549,1,0
256,272,263777,1,0
256,352,264006,1,0
176,328,264463,6,0,B|368:328,1,160
256,272,265149,1,0
256,192,265378,1,0
256,112,265606,1,0
256,32,265835,1,0
