osu file format v5

[General]
AudioFilename: moskaushort.mp3
AudioLeadIn: 0
PreviewTime: 73253
Countdown: 1
SampleSet: Normal
StackLeniency: 0.2
Mode: 0
LetterboxInBreaks: 1
EditorDistanceSpacing: 1

[Metadata]
Title:Moskau
Artist:Dschinghis Khan
Creator:RemmyX25
Version:I Suggest Neo
Source:
Tags:

[Difficulty]
HPDrainRate:4
CircleSize:5
OverallDifficulty:6
SliderMultiplier:1.6
SliderTickRate:2

[Events]
//Background and Video events
0,0,"planetmoskau.jpg"
//Break Periods
2,40734,42991
2,55361,72246
2,103815,117053
2,129424,131681
2,149310,150882
2,152967,169168
//Storyboard Layer 0 (Background)
//Storyboard Layer 1 (Failing)
//Storyboard Layer 2 (Passing)
//Storyboard Layer 3 (Foreground)
//Storyboard Sound Samples
//Background Colour Transformations
3,100,35,0,64

[TimingPoints]
308,457.142857142857,4,1,0,100,1,0
29565,-100,4,2,0,100,0,0
152997,-100,4,1,0,100,0,0

[Colours]
Combo1 : 0,0,0
Combo2 : 64,0,64
Combo3 : 0,0,128
Combo4 : 0,64,0
Combo5 : 64,0,0

[HitObjects]
256,192,14936,2,2,B|256:96,1,80
256,192,15393,2,2,B|352:192,1,80
256,192,15850,2,0,B|256:288,1,80
256,192,16307,2,0,B|160:192,1,80
192,112,16765,6,0,B|272:80,1,80
336,128,17222,2,0,B|368:208,1,80
320,272,17679,2,0,B|240:304,1,80
176,256,18136,2,0,B|176:160,1,80
256,192,18593,6,2,B|256:96,1,80
256,192,19050,2,2,B|160:192,1,80
256,192,19507,2,0,B|256:288,1,80
256,192,19965,2,0,B|352:192,1,80
320,112,20422,6,0,B|240:80,1,80
176,128,20879,2,0,B|144:208,1,80
192,272,21336,2,0,B|272:304,1,80
336,256,21793,2,0,B|336:160,1,80
256,192,22250,5,0
256,112,22479,2,8,B|256:64,2,40
256,192,22936,1,0
256,272,23165,2,8,B|256:320,2,40
256,192,23622,1,0
256,192,23850,1,0
256,192,24079,5,0
336,192,24307,2,10,B|384:192,2,40
256,192,24765,1,0
176,192,24993,2,10,B|128:192,2,40
256,192,25450,1,0
256,192,25679,1,0
256,192,25907,5,0
256,272,26136,2,8,B|256:320,2,40
256,192,26593,1,0
256,112,26822,2,8,B|256:64,2,40
256,192,27279,1,0
256,192,27507,1,0
256,192,27736,5,0
176,192,27965,2,10,B|128:192,2,40
256,192,28422,1,0
336,192,28650,2,10,B|384:192,2,40
256,192,29107,1,0
256,192,29336,1,0
256,112,29565,6,2,B|160:112,1,80
176,192,30022,1,0
176,272,30250,2,2,B|272:272,1,80
336,272,30707,1,0
336,192,30936,2,0,B|336:96,1,80
256,112,31393,1,4
256,192,33222,5,0
256,112,33450,1,0
336,128,33679,1,0
384,192,33907,1,0
336,256,34136,1,0
256,272,34365,1,0
176,256,34593,1,0
128,192,34822,1,0
176,128,35050,1,4
256,192,36879,6,0,B|160:192,1,80
176,112,37336,2,0,B|272:112,1,80
256,192,37793,2,0,B|256:288,1,80
336,272,38250,2,0,B|336:176,1,80
256,192,38707,1,4
256,256,39622,5,0
320,160,39965,1,0
192,160,40307,1,0
256,192,40536,1,4
256,192,44193,5,4
256,192,46022,5,0
256,192,46136,1,0
256,192,46365,1,0
256,192,46479,1,0
256,192,46707,1,0
256,192,46936,1,4
176,192,47850,5,0
256,192,48079,1,0
336,192,48307,1,0
256,192,48536,1,0
256,192,48765,1,0
208,128,48993,1,0
256,64,49222,1,0
304,128,49450,1,0
256,192,49679,1,4
128,240,51507,6,0,B|320:240,1,160
368,240,52193,1,2
336,160,52422,2,2,B|240:160,1,80
176,160,52879,2,2,B|272:160,1,80
256,80,53336,1,4
256,192,53793,12,4,55165
192,144,73450,6,4,B|256:48|320:144,3,160
256,192,75279,5,0
368,80,75736,1,8
256,192,76193,1,0
144,80,76650,1,8
256,192,77107,5,8
384,304,77565,1,0
320,256,77793,1,8
256,304,78022,1,0
192,256,78250,1,8
128,304,78479,1,0
256,192,78936,5,0
96,192,79393,1,0
176,160,79622,1,0
256,128,79850,1,8
336,160,80079,1,8
416,192,80307,1,8
304,304,80765,6,8,B|336:208,1,80
256,192,81222,1,8
176,224,81450,2,8,B|144:320,1,80
256,192,82136,5,4
256,352,82593,6,0,B|256:240,1,80
256,192,83050,1,8
256,32,83507,2,0,B|256:128,1,80
256,192,83965,1,8
416,192,84422,6,8,B|288:192,1,120
256,192,84879,1,0
256,192,85107,1,0
176,192,85336,2,8,B|80:192,2,80
96,48,86250,6,0,B|224:48,1,120
256,48,86707,1,8
256,48,86936,1,8
336,48,87165,2,0,B|432:48,2,80
256,192,88079,5,2
208,256,88307,1,2
256,192,88536,1,2
304,256,88765,1,2
256,192,88993,2,8,B|256:16,1,160
288,256,90136,5,2
224,112,90593,1,2
224,272,91050,1,2
288,128,91507,2,4,B|256:112|256:192,1,80
256,352,92193,5,8
288,272,92422,1,8
224,208,92650,1,8
288,144,92879,1,8
256,64,93107,1,8
336,208,93565,5,4
176,208,94022,1,2
256,208,94250,1,2
208,144,94479,1,2
176,208,94707,1,2
208,272,94936,1,2
336,192,95393,6,8,B|240:192,1,80
176,192,95850,2,8,B|272:192,1,80
256,192,96307,1,8
256,192,96765,1,4
256,192,97222,6,0,B|256:96,1,80
256,192,97679,2,2,B|352:192,1,80
256,192,98136,2,0,B|256:288,1,80
256,192,98593,2,10,B|160:192,2,80
256,32,99507,5,0
296,96,99736,1,0
216,96,99965,1,0
216,176,100193,2,4,B|312:176,3,80
256,336,101336,5,0
296,272,101565,1,0
216,272,101793,1,0
216,192,102022,2,8,B|312:192,2,80
208,112,102707,5,4
288,112,102936,1,4
336,176,103165,1,4
256,176,103393,1,4
176,176,103622,1,4
336,112,118250,5,0
336,272,118707,1,0
176,272,119165,1,0
176,112,119622,1,0
288,224,120079,5,0
224,168,120307,1,0
288,224,120536,1,0
224,168,120765,1,0
288,224,120993,1,0
224,168,121222,1,0
288,224,121450,1,0
304,144,121679,6,0,B|192:272,1,160
198,264,122365,2,0,B|312:136,1,160
304,144,123050,1,0
304,144,123279,1,0
200,264,123736,6,0,B|304:136,1,160
304,144,124422,2,0,B|192:272,1,160
198,264,125107,1,0
176,104,125565,5,0
336,104,126022,1,0
336,264,126479,1,0
176,264,126936,1,0
288,152,127393,2,0,B|216:240,7,80
237,213,129222,1,0
256,192,132879,5,2
416,192,133336,1,2
256,192,133793,1,2
96,192,134250,1,2
256,192,134707,5,8
256,32,135165,1,8
256,192,135622,1,8
256,352,136079,1,8
256,192,136536,5,8
256,192,136993,1,8
416,192,137450,1,8
336,192,137679,1,8
256,192,137907,1,8
256,192,138365,5,8
256,192,138822,1,8
96,192,139279,1,8
176,192,139507,1,8
256,192,139736,1,8
256,32,140193,5,8
256,112,140422,1,8
256,192,140650,1,8
256,272,140879,1,8
256,352,141107,1,8
256,192,141565,1,8
256,192,142022,5,8
384,96,142479,1,8
256,192,142936,1,8
384,288,143393,1,8
256,192,143850,5,8
256,192,144307,1,8
112,112,144765,1,8
96,192,144993,1,8
112,272,145222,1,8
256,192,145679,5,8
256,192,146136,1,8
400,112,146593,1,8
416,192,146822,1,8
400,272,147050,1,8
256,352,147507,5,8
256,272,147736,1,8
256,192,147965,1,8
256,112,148193,1,8
256,32,148422,6,0,B|296:112|216:168|272:280,1,240,8|0
256,352,152079,6,0,B|296:272|216:216|272:104,1,240
32,32,170364,5,4
104,56,170593,5,0
176,88,170821,5,4
240,136,171050,5,0
296,192,171279,5,4
328,264,171507,5,0
344,344,171736,5,4
184,344,172193,6,0,B|256:304,1,80,4|0
328,264,172650,1,8
328,264,172879,1,0
328,184,173107,6,0,B|256:144,1,80,4|0
184,104,173564,1,8
184,104,173793,1,0
256,64,174021,1,10
256,184,174364,1,10
256,224,174479,1,10
184,256,174707,1,0
216,328,174936,1,0
296,328,175164,1,0
328,256,175393,1,0
328,256,175621,1,4
256,296,175850,5,4
256,176,176193,1,10
256,136,176307,1,10
184,104,176536,1,0
216,32,176764,1,0
296,32,176993,1,8
336,104,177221,1,8
336,104,177450,1,0
416,184,177679,5,12
336,184,177907,1,12
256,184,178136,1,12
176,184,178364,1,12
96,184,178593,1,12
256,184,179050,1,2
416,192,179507,5,4
344,160,179736,1,0
288,224,179964,1,8
232,160,180193,1,0
208,192,180307,1,0
184,224,180421,1,4
112,192,180650,1,0
112,192,180879,1,8
264,248,181336,5,2
192,280,181564,1,2
168,248,181679,1,2
144,216,181793,1,2
72,248,182021,1,0
48,328,182250,1,0
72,248,182479,1,0
144,216,182707,1,0
248,96,183164,5,2
320,128,183393,1,2
344,96,183507,1,2
368,64,183621,1,2
440,96,183850,1,0
464,168,184079,1,0
440,96,184307,1,0
368,64,184536,1,0
208,64,184993,5,12
224,144,185221,1,12
256,216,185450,1,12
312,272,185679,1,12
376,312,185907,1,12
256,16,186821,5,12
288,88,187050,1,8
256,112,187164,1,8
224,136,187279,1,10
288,184,187507,1,8
256,208,187621,1,8
224,232,187736,1,12
224,312,187964,1,8
256,336,188079,1,8
288,360,188193,1,10
448,360,188650,5,10
384,312,188879,1,10
352,288,188993,1,10
320,264,189107,1,10
256,216,189336,1,8
192,160,189564,1,8
160,136,189679,1,8
128,112,189793,1,8
64,56,190022,1,10
64,216,190479,5,10
128,168,190707,1,10
160,144,190822,1,10
192,120,190936,1,10
256,72,191165,1,8
320,128,191393,1,8
352,152,191507,1,8
384,176,191622,1,8
448,232,191850,1,10
288,192,192307,5,6
256,264,192536,1,6
224,192,192765,1,6
256,120,192993,1,6
288,192,193222,1,6
56,112,193907,5,2
56,152,194022,1,2
56,192,194136,1,10
136,192,194365,1,2
176,192,194479,1,2
216,192,194593,1,6
296,192,194822,1,2
296,232,194936,1,2
296,272,195050,1,10
336,272,195165,1,2
376,272,195279,1,2
456,272,195507,1,6
456,192,195736,5,2
456,152,195850,1,2
456,112,195965,1,2
384,152,196193,1,2
384,112,196307,1,2
384,72,196422,1,2
312,112,196650,1,2
312,72,196765,1,2
312,32,196879,1,2
240,72,197107,1,0
240,72,197336,1,0
168,112,197565,5,2
168,152,197679,1,2
168,192,197793,1,2
240,152,198022,1,2
240,192,198136,1,2
240,232,198250,1,2
312,192,198479,1,2
312,232,198593,1,2
312,272,198707,1,2
384,232,198936,1,0
384,232,199165,1,0
256,328,199622,5,8
256,288,199736,1,8
256,248,199850,1,8
256,168,200079,1,10
256,88,200307,1,10
256,88,200536,1,10
256,88,200993,1,14
