osu file format v5

[General]
AudioFilename: moskaushort.mp3
AudioLeadIn: 0
PreviewTime: 73253
Countdown: 0
SampleSet: Normal
StackLeniency: 0.2
Mode: 0
LetterboxInBreaks: 1
EditorBookmarks: 14936,29565,44193,58822,75279,89907,104536,119165,134707,148422,155736,172193,186822,201450
EditorDistanceSpacing: 0.800000011920929

[Metadata]
Title:Moskau
Artist:Dschinghis Khan
Creator:RemmyX25
Version:DJPop
Source:
Tags:

[Difficulty]
HPDrainRate:6
CircleSize:5
OverallDifficulty:8
SliderMultiplier:2.2
SliderTickRate:2

[Events]
//Background and Video events
0,0,"DJPop_BG.png"
//Break Periods
2,119365,132129
//Storyboard Layer 0 (Background)
//Storyboard Layer 1 (Failing)
//Storyboard Layer 2 (Passing)
//Storyboard Layer 3 (Foreground)
4,3,1,"DJPop.png",320,240 M,0,-500,-500,542,372,542,372 F,0,-500,13107,1,1 S,0,-500,-500,0.8,0.8 F,0,13107,14936,1,0
//Storyboard Sound Samples
//Background Colour Transformations
3,100,0,0,0

[TimingPoints]
308,457.142857142857,4,1,0,80,1,0
73448,-100,4,1,0,80,0,1
73905,-100,4,1,0,80,0,0
73906,-100,4,1,0,80,0,1
74363,-100,4,1,0,80,0,0
74364,-100,4,1,0,80,0,1
74821,-100,4,1,0,80,0,0
74822,-100,4,1,0,80,0,1
75165,-100,4,1,0,80,0,0
81679,-50,4,1,0,80,0,0
82136,-100,4,1,0,80,0,0
88993,-50,4,1,0,80,0,0
89450,-100,4,1,0,80,0,0
104993,-100,4,1,0,80,0,1
110936,-50,4,1,0,80,0,1
111336,-50,4,1,0,80,0,0
111393,-100,4,1,0,80,0,1
111622,-100,4,1,0,80,0,0
112307,-100,4,1,0,80,0,1
119165,-100,4,1,0,0,0,0
132422,-100,4,1,0,80,0,0
132879,-100,4,1,0,80,0,1
133107,-100,4,1,0,80,0,0
133336,-100,4,1,0,80,0,1
133565,-100,4,1,0,80,0,0
133793,-100,4,1,0,80,0,1
134022,-100,4,1,0,80,0,0
134250,-100,4,1,0,80,0,1
134479,-100,4,1,0,80,0,0
155736,-50,4,1,0,80,0,0
156650,-100,4,1,0,80,0,0
159393,-50,4,1,0,80,0,0
160307,-100,4,1,0,80,0,0
163050,-50,4,1,0,80,0,0
163964,-100,4,1,0,80,0,0
170365,-100,4,1,0,80,0,1
170821,-100,4,1,0,80,0,0
170822,-100,4,1,0,80,0,1
171278,-100,4,1,0,80,0,0
171279,-100,4,1,0,80,0,1
171735,-100,4,1,0,80,0,0
171736,-100,4,1,0,80,0,0
172079,-100,4,1,0,80,0,0
179050,-50,4,1,0,80,0,0
179507,-100,4,1,0,80,0,0
186365,-50,4,1,0,80,0,0
186822,-100,4,1,0,80,0,1
200992,-100,4,1,0,80,0,0
200993,-100,4,1,0,80,0,1

[Colours]
Combo1 : 255,255,128
Combo2 : 128,255,128
Combo3 : 128,128,255
Combo4 : 255,128,128

[HitObjects]
32,288,14936,6,0,B|128:387|224:288,1,220,4|8
256,224,15622,2,0,B|352:125|448:224,2,220,0|0|8
224,160,16765,5,0
160,128,16993,1,0
96,96,17222,1,8
128,32,17450,1,0
192,64,17679,1,0
256,96,17907,1,8
288,32,18136,1,8
352,64,18365,1,0
416,96,18593,6,0,B|515:192|416:288,1,220,0|8
352,256,19279,2,0,B|256:356|160:256,2,220,0|0|8
336,224,20307,1,0
320,192,20422,5,0
256,160,20650,1,0
192,128,20879,1,8
128,160,21107,1,0
64,192,21336,1,0
48,224,21450,1,0
32,256,21564,1,8
48,288,21679,1,0
64,320,21793,1,10
128,352,22022,1,0
192,320,22250,6,0,B|256:288|291:240|256:192|192:160,1,220,0|8
224,96,22936,2,0,B|128:-3|32:96,2,220,0|0|8
256,32,24079,6,0,B|376:32|416:160,1,220,0|8
352,192,24765,2,0,B|352:256|416:312|480:256|480:192,2,220,0|8|8
288,160,25907,6,0,B|160:125|160:288,1,220,0|8
96,320,26593,2,0,B|-4:224|96:128,2,220,0|0|8
128,336,27622,1,0
160,352,27736,6,0,B|320:380|320:256,1,220,0|8
384,288,28422,2,0,B|433:338|480:288,1,110,0|0
464,256,28765,1,0
448,224,28879,1,8
464,192,28993,1,0
480,160,29107,1,10
448,96,29336,1,0
416,32,29565,6,0,B|310:32|304:128,1,165
288,160,30022,1,8
224,128,30250,2,0,B|118:128|112:224,1,165
96,256,30707,1,0
64,320,30936,1,8
128,352,31165,1,0
160,336,31279,1,0
192,320,31393,5,0
256,352,31622,1,0
288,336,31736,1,0
320,320,31850,1,8
384,352,32079,1,0
448,320,32307,2,0,B|501:288|480:224,1,110,0|0
464,192,32650,2,0,B|410:160|432:96,1,110,8|0
448,64,32993,1,8
384,32,33222,6,0,B|320:116|240:64,1,165
224,32,33679,1,8
160,64,33907,2,0,B|76:128|128:208,1,165
160,224,34365,1,0
224,192,34593,1,8
256,128,34822,1,0
288,144,34936,1,0
320,160,35050,5,0
352,224,35279,1,0
320,240,35393,1,0
288,256,35507,1,8
320,320,35736,1,0
256,352,35965,2,0,B|191:374|160:320,1,110
128,304,36307,2,0,B|74:272|96:208,1,110,8|0
128,192,36650,1,8
96,128,36879,6,0,B|128:34|224:48,1,165
256,32,37336,1,8
320,64,37565,1,0
384,96,37793,2,0,B|484:192|384:288,2,220,0|8|0
352,160,38936,5,0
368,192,39050,1,0
352,224,39165,1,8
288,192,39393,1,0
224,160,39622,2,0,B|176:110|128:160,1,110
112,192,39965,2,0,B|61:240|112:288,1,110,8|0
128,320,40307,1,8
192,352,40536,6,0,B|274:352|256:288,1,110
320,320,40993,2,0,B|320:238|384:256,1,110,8|0
448,224,41450,2,0,B|466:160|384:160,1,110
416,96,41907,2,0,B|334:96|352:32,1,110,8|0
288,64,42365,6,0,B|224:46|224:128,1,110
160,96,42822,2,0,B|178:160|96:160,1,110,8|0
32,192,43279,2,0,B|32:274|96:256,1,110,0|8
128,320,43736,2,0,B|209:320|192:256,1,110,8|0
160,192,44193,6,0,B|224:88|288:176,1,165
320,192,44650,1,8
288,256,44878,2,0,B|352:360|416:272,1,165
448,256,45335,1,0
480,192,45564,1,8
448,128,45793,1,0
416,144,45907,1,0
384,160,46021,5,0
352,96,46250,1,0
336,64,46364,1,0
320,32,46479,2,0,B|257:10|224:64,1,110,8|0
288,96,46935,2,0,B|256:193|224:128,1,110
192,112,47278,2,0,B|160:45|128:144,1,110,8|0
160,160,47621,1,8
96,192,47850,6,0,B|-8:223|48:320,1,165
32,352,48307,1,8
96,320,48535,2,0,B|192:328|240:256,1,165
256,224,48992,1,0
320,192,49221,1,8
352,256,49450,1,0
368,288,49564,1,0
384,320,49678,5,0
448,352,49907,1,0
464,320,50021,1,0
480,288,50135,1,8
448,224,50364,1,0
480,160,50592,2,0,B|497:96|416:96,1,110
400,64,50935,2,0,B|320:50|320:112,1,110,8|0
288,128,51278,1,8
256,64,51507,6,0,B|191:20|96:48,1,165
64,64,51965,1,8
32,128,52193,1,0
96,160,52422,2,0,B|196:256|96:352,2,220,0|8|0
160,128,53565,5,0
192,144,53679,1,0
224,160,53793,1,8
256,224,54022,1,0
224,288,54250,2,0,B|256:342|320:320,1,110
352,336,54593,2,0,B|418:359|432:288,1,110,8|0
448,256,54936,1,8
480,192,55165,6,0,B|429:144|480:96,1,110
448,32,55622,2,0,B|400:82|352:32,1,110,8|0
288,64,56079,2,0,B|338:112|288:160,1,110
224,128,56536,2,0,B|176:78|128:128,1,110,8|0
64,160,56993,6,0,B|13:208|64:256,1,110
32,320,57450,2,0,B|80:371|128:320,1,110,8|0
160,256,57907,1,0
192,320,58136,1,8
256,352,58365,1,8
320,320,58593,1,0
352,256,58822,6,0,B|352:200,2,55,2|0|0
384,320,59279,2,0,B|432:370|480:320,1,110,10|0
448,256,59736,1,2
480,192,59965,1,8
448,128,60193,1,10
480,64,60422,1,0
416,32,60650,6,0,B|352:10|320:64,1,110,2|8
336,96,60993,1,8
352,128,61107,2,0,B|374:191|320:224,1,110,2|8
304,256,61450,1,8
288,288,61565,1,2
256,352,61793,1,10
224,288,62022,1,10
192,224,62250,1,0
160,160,62479,6,0,B|126:214|64:192,1,110,2|0
32,128,62936,2,0,B|10:64|64:32,1,110,10|0
128,64,63393,1,2
192,32,63622,1,8
256,64,63850,1,10
320,32,64079,1,0
384,64,64307,6,0,B|448:42|480:96,1,110,2|8
464,128,64650,1,8
448,160,64765,2,0,B|470:224|416:256,1,110,2|8
400,288,65107,1,8
384,320,65222,2,0,B|384:364|352:336,1,55,2|0
320,352,65450,1,10
256,320,65679,1,10
288,256,65907,1,0
320,192,66136,6,0,B|342:129|288:96,1,110,2|0
224,64,66593,2,0,B|170:96|192:160,1,110,10|0
256,192,67050,1,2
192,224,67279,1,8
128,256,67507,1,10
192,288,67736,1,0
128,320,67965,6,0,B|64:341|32:288,1,110,2|8
48,256,68308,1,8
64,224,68422,2,0,B|86:160|32:128,1,110,2|8
48,96,68765,1,8
32,64,68880,1,2
96,32,69108,1,10
160,64,69337,1,10
128,128,69565,1,0
192,160,69793,6,0,B|273:160|256:96,1,110
288,32,70250,1,8
320,96,70479,1,0
352,32,70707,2,0,B|416:14|416:96,1,110
480,128,71165,1,8
416,160,71393,1,0
448,224,71622,6,2,B|400:274|352:224,3,110,0|0|8|0
288,192,72536,2,2,B|240:142|192:192,3,110,0|0|8|0
256,256,73450,5,10
192,288,73679,2,0,B|192:344,2,55,0|0|10
128,256,74136,2,0,B|128:200,2,55,0|0|10
64,288,74593,2,0,B|64:344,2,55,0|0|10
32,224,75050,1,0
64,160,75279,5,0
32,96,75507,1,0
64,80,75622,1,0
96,64,75736,1,8
128,128,75965,1,0
160,112,76079,1,0
192,96,76193,1,0
224,160,76422,1,0
256,144,76536,1,0
288,128,76650,1,8
320,192,76879,1,0
256,224,77107,6,0,B|175:224|192:288,1,110
208,320,77450,1,0
224,352,77565,1,8
288,320,77793,1,0
352,288,78022,1,0
416,256,78250,1,0
480,224,78479,2,0,B|501:160|448:128,1,110,8|0
416,64,78936,5,0
352,32,79165,2,0,B|352:88,2,55,0|0|8
288,64,79622,1,0
224,32,79850,1,0
160,64,80079,1,0
96,32,80307,2,0,B|32:14|32:96,1,110,8|0
96,128,80765,5,0
32,160,80993,1,0
96,192,81222,1,8
32,224,81450,1,0
96,256,81679,2,2,B|80:304|96:320|144:352|192:368|256:356|320:368|368:352|416:320|432:304|416:256,1,440,0|10
480,128,82593,5,0
416,96,82822,1,0
400,128,82936,1,0
384,160,83050,1,8
320,128,83279,1,0
304,160,83393,1,0
288,192,83507,1,0
224,160,83736,1,0
208,192,83850,1,0
192,224,83965,1,8
128,192,84193,1,0
64,224,84422,6,0,B|14:176|64:128,1,110
80,96,84765,1,0
96,64,84879,1,8
160,96,85107,1,0
192,32,85336,1,0
256,64,85565,1,0
320,32,85793,2,0,B|369:82|416:32,1,110,8|0
480,64,86250,5,0
448,128,86479,2,0,B|504:128,2,55,0|0|8
480,192,86936,1,0
448,256,87165,1,0
480,320,87393,1,0
416,352,87622,2,0,B|334:352|352:288,1,110,8|0
336,256,87965,1,0
320,224,88079,5,0
384,192,88307,1,0
320,160,88536,1,8
384,128,88765,1,0
448,96,88993,2,2,B|440:64|416:32|344:8|256:13|168:8|96:32|72:64|64:96,1,440,0|10
128,224,89907,6,0,B|96:157|64:256,1,110
48,288,90250,1,0
32,320,90365,2,0,B|98:340|128:288,1,110,10|0
160,352,90822,2,0,B|257:321|192:288,1,110
208,256,91165,1,0
224,224,91279,2,0,B|257:169|320:192,1,110,10|0
288,256,91736,6,0,B|267:320|320:352,1,110
352,336,92079,1,0
384,320,92193,2,0,B|446:342|480:288,1,110,8|0
416,256,92650,1,0
384,192,92879,2,0,B|328:192,2,55,0|0|10
416,128,93336,1,0
480,96,93565,6,0,B|448:43|384:64,1,110
352,80,93907,1,0
320,96,94022,2,0,B|288:162|256:64,1,110,8|0
192,32,94479,1,0
160,96,94707,1,0
128,32,94936,2,0,B|46:32|64:96,1,110,8|0
96,160,95393,5,0
32,192,95622,1,0
96,224,95850,1,8
32,256,96079,1,0
96,288,96307,1,0
32,320,96536,1,8
64,336,96650,1,8
96,352,96765,2,2,B|160:373|192:320,1,110,10|0
224,256,97222,5,0
192,192,97450,2,0,B|166:168|192:144,1,55
208,112,97679,1,10
176,48,97907,1,0
208,32,98022,2,0,B|232:7|256:32,1,55
320,64,98365,2,0,B|346:88|320:112,1,55
304,144,98593,2,0,B|320:216|384:192,1,110,10|0
416,128,99050,5,0
448,64,99279,1,0
464,96,99393,1,0
480,128,99507,1,8
448,192,99736,1,0
480,256,99965,1,0
448,320,100193,1,0
416,256,100422,2,0,B|392:231|368:256,1,55,8|0
352,288,100650,1,0
288,320,100879,6,0,B|242:370|192:320,1,110
160,304,101222,2,0,B|144:271|128:320,1,55,0|8
64,352,101565,1,0
32,288,101793,1,0
96,256,102022,1,0
64,192,102250,2,0,B|47:128|128:128,1,110,8|0
144,96,102593,1,0
160,64,102707,5,0
224,96,102936,1,0
256,32,103165,1,8
288,96,103393,1,0
352,64,103622,1,0
384,128,103850,1,8
416,112,103965,1,8
448,96,104079,2,2,B|502:128|480:192,1,110,10|0
448,256,104536,5,0
416,320,104765,1,0
448,336,104879,1,0
480,352,104993,1,8
256,192,105107,12,8,105907
32,32,106136,5,0
64,96,106365,6,0,B|168:160|80:224,1,165
64,256,106822,1,8
32,320,107050,1,0
96,352,107279,1,0
128,336,107393,1,0
160,320,107507,1,0
192,304,107622,1,0
224,288,107736,1,8
256,304,107850,1,0
288,320,107965,1,0
320,336,108079,1,0
352,352,108193,6,0,B|434:352|416:288,1,110
448,272,108536,1,0
480,256,108650,2,0,B|506:232|480:208,1,55,8|0
448,192,108879,2,0,B|422:168|448:144,1,55
480,128,109107,2,0,B|493:101|464:80,1,55
432,64,109336,2,0,B|413:36|384:48,1,55
368,80,109565,2,0,B|374:115|336:112,1,55,8|0
304,96,109793,2,0,B|277:79|288:48,1,55
256,32,110022,5,0
192,64,110250,1,0
128,96,110479,1,8
64,128,110707,1,0
32,192,110936,2,2,B|32:256|64:352|178:340|288:352|320:256|320:192,1,440,0|10
384,64,111850,5,0
448,96,112079,1,0
464,64,112193,1,0
480,32,112307,1,8
256,192,112422,12,8,113222
32,352,113450,5,0
96,320,113679,6,0,B|176:365|256:336,1,165
288,320,114136,1,8
352,352,114365,1,0
416,320,114593,1,0
432,288,114707,1,0
448,256,114822,1,0
464,224,114936,1,0
480,192,115050,1,8
464,160,115165,1,0
448,128,115279,1,0
432,96,115393,1,0
416,64,115507,6,0,B|384:10|320:32,1,110
288,48,115850,1,0
256,64,115965,2,0,B|232:90|208:64,1,55,8|0
176,48,116193,2,0,B|152:23|128:48,1,55
96,64,116422,2,0,B|59:58|64:96,1,55
32,112,116650,2,0,B|26:148|64:144,1,55
80,176,116879,2,0,B|105:200|80:224,1,55,8|0
48,240,117107,2,0,B|23:265|48:288,1,55
64,320,117336,5,0
128,352,117565,1,0
192,320,117793,1,8
224,256,118022,1,0
256,192,118250,1,0
256,192,118365,12,0,119165
416,32,132879,5,2
416,352,133336,1,10
96,352,133793,1,2
96,32,134250,1,10
416,32,134707,6,0,B|520:96|432:160,1,165
416,192,135165,1,8
448,256,135393,1,0
480,320,135622,2,0,B|414:364|320:336,1,165
288,320,136079,1,8
224,352,136307,1,0
160,320,136536,6,0,B|72:320|128:256,1,110
160,240,136879,1,0
192,224,136993,1,8
256,256,137222,1,0
320,224,137450,1,0
256,192,137679,1,0
320,160,137907,2,0,B|371:111|320:64,1,110,8|0
256,32,138365,6,0,B|192:11|160:64,1,110
144,96,138707,1,0
128,128,138822,1,8
96,192,139050,1,0
64,256,139279,2,0,B|-2:288|96:320,1,110
160,352,139736,2,0,B|192:254|224:320,1,110,8|0
288,288,140193,5,0
352,256,140422,1,0
288,224,140650,1,8
224,192,140879,1,0
288,160,141107,1,0
352,128,141336,1,8
320,112,141450,1,8
288,96,141565,2,0,B|202:64|288:32,1,110,10|0
352,64,142022,6,0,B|457:64|464:160,1,165
448,192,142479,1,8
480,256,142707,1,0
448,320,142936,2,0,B|343:320|336:224,1,165
320,192,143393,1,8
256,224,143622,1,0
288,288,143850,6,0,B|242:338|192:288,1,110
160,304,144193,1,0
128,320,144307,1,8
64,288,144536,1,0
32,224,144765,1,0
64,160,144993,1,0
96,144,145107,1,0
128,128,145222,2,0,B|181:96|160:32,1,110,8|0
224,64,145679,6,0,B|274:14|320:64,1,110
352,80,146022,1,0
384,96,146136,1,8
416,32,146365,1,0
448,96,146593,1,0
480,160,146822,1,0
416,192,147050,2,0,B|398:256|480:256,1,110,8|0
464,288,147393,1,0
448,320,147507,5,0
384,352,147736,1,0
320,320,147965,1,8
256,352,148193,1,0
192,320,148422,6,2,B|128:299|96:352,2,110,2|0|8
224,256,149107,2,2,B|290:276|320:224,2,110,2|0|0
192,192,149793,2,0,B|248:158|224:96,1,110,10|0
192,32,150250,5,0
128,64,150479,1,0
64,96,150707,1,8
32,160,150936,1,0
64,224,151165,1,0
128,256,151393,1,8
192,288,151622,1,8
224,304,151736,1,0
256,320,151850,1,0
288,336,151965,1,0
320,352,152079,6,2,B|384:373|416:320,2,110,2|0|8
352,288,152764,2,2,B|299:256|320:192,2,110,2|0|0
416,256,153450,2,0,B|504:256|448:192,1,110,10|0
480,128,153907,5,0
448,64,154136,1,0
416,80,154250,1,0
384,96,154365,1,8
352,32,154593,1,0
320,48,154707,1,0
288,64,154822,1,0
320,128,155050,1,8
256,160,155279,1,8
224,96,155507,1,0
192,32,155736,6,0,B|128:32|72:95|128:160|192:160,1,220,2|0
192,224,156193,2,0,B|128:224|72:288|128:352|192:352,1,220,10|0
256,320,156650,1,2
320,352,156879,1,0
384,320,157107,1,10
448,352,157336,1,0
480,288,157565,6,0,B|497:224|416:224,1,110,2|8
400,192,157907,1,8
416,160,158022,2,0,B|398:96|480:96,1,110,2|8
464,64,158365,1,8
480,32,158479,2,0,B|458:6|432:32,1,55,2|0
400,48,158707,1,10
336,80,158936,2,0,B|256:131|256:64,1,110,10|0
192,32,159393,6,0,B|151:160|32:160,1,220,2|0
32,224,159850,2,0,B|152:224|192:352,1,220,10|0
256,320,160307,1,2
320,288,160536,1,0
352,352,160764,1,10
416,320,160993,1,0
480,352,161222,6,0,B|501:288|448:256,1,110,2|8
416,240,161564,1,8
384,224,161679,2,0,B|366:160|448:160,1,110,2|8
480,144,162022,1,8
464,112,162136,2,0,B|489:88|464:64,1,55,2|0
448,32,162364,1,10
384,64,162593,2,0,B|320:85|288:32,1,110,10|0
224,32,163050,6,0,B|96:-2|96:160,1,220,2|0
96,224,163507,2,0,B|96:385|224:352,1,220,10|0
288,320,163964,1,2
256,256,164193,1,0
320,224,164421,1,10
384,256,164650,1,0
352,320,164879,6,0,B|416:341|448:288,1,110,2|8
480,272,165221,1,8
464,240,165336,2,0,B|497:192|416:160,1,110,2|8
384,144,165679,2,0,B|373:113|400:96,1,55,8|2
432,80,165907,2,0,B|443:47|416:32,1,55,0|10
352,64,166250,1,10
288,32,166479,1,0
224,32,166707,6,0,B|245:95|192:128,1,110
160,64,167165,1,8
128,128,167393,1,0
96,64,167622,2,0,B|43:96|64:160,1,110
128,192,168079,1,8
64,224,168307,1,0
32,288,168536,6,2,B|81:339|128:288,1,110,0|0
160,352,168993,2,2,B|210:302|256:352,1,110,8|0
288,288,169450,2,2,B|338:338|384:288,1,110,0|0
416,352,169907,2,2,B|470:320|448:256,1,110,8|0
480,192,170365,6,0,B|399:192|416:128,1,110,10|0
400,96,170707,1,0
384,64,170822,2,0,B|302:64|320:128,1,110,10|0
304,160,171165,1,0
288,192,171279,2,0,B|224:209|224:128,1,110,10|0
208,96,171622,1,0
192,64,171736,2,0,B|128:46|128:128,1,110,10|0
64,160,172193,5,0
32,224,172422,1,0
48,256,172536,1,0
64,288,172650,2,0,B|112:339|160:288,1,110,10|0
176,256,172993,1,0
192,224,173107,1,0
256,256,173336,1,0
272,288,173450,1,0
288,320,173565,2,0,B|336:370|384:320,1,110,10|0
416,256,174022,5,0
480,224,174250,1,0
464,192,174365,1,0
448,160,174479,2,0,B|498:112|448:64,1,110,8|0
384,32,174936,1,0
320,64,175165,1,0
384,96,175393,2,0,B|352:149|288:128,1,110,8|0
256,192,175850,5,0
320,224,176079,1,0
304,256,176193,1,0
288,288,176307,2,0,B|256:354|224:256,1,110,8|0
160,288,176765,1,0
128,352,176993,1,0
96,288,177222,2,0,B|-1:258|64:224,1,110,8|0
128,192,177679,5,0
64,160,177907,1,0
128,128,178136,1,8
64,96,178365,1,0
128,64,178593,2,0,B|160:10|224:32,1,110
256,48,178936,1,0
288,64,179050,2,0,B|320:32|352:32|352:64|384:144|416:64|416:32|448:32|480:64,1,220,10|0
448,128,179507,5,0
480,192,179736,1,0
464,224,179850,1,0
448,256,179964,2,0,B|470:320|416:352,1,110,10|0
384,336,180307,1,0
352,320,180421,1,0
288,352,180650,1,0
272,320,180764,1,0
256,288,180879,2,0,B|192:271|192:352,1,110,10|0
128,320,181336,5,0
64,352,181564,1,0
48,320,181679,1,0
32,288,181793,2,0,B|3:255|64:192,1,110,8|0
128,160,182250,1,0
160,96,182479,1,0
224,64,182707,2,0,B|273:14|320:64,1,110,8|0
384,96,183164,5,0
416,160,183393,1,0
448,176,183507,1,0
480,192,183622,2,0,B|510:224|448:288,1,110,8|0
384,320,184079,1,0
320,352,184307,1,0
256,320,184536,2,0,B|202:288|224:224,1,110,8|0
288,192,184993,5,0
352,160,185221,1,0
288,128,185450,1,8
224,96,185679,1,0
288,64,185907,2,0,B|256:11|192:32,1,110
160,48,186250,1,0
128,64,186365,2,0,B|96:96|96:128|128:128|208:160|128:192|96:192|96:224|128:256,1,220,10|0
64,288,186822,5,0
96,352,187050,1,0
128,336,187165,1,0
160,320,187279,2,0,B|225:298|256:352,1,110,8|0
288,336,187622,1,0
320,320,187736,1,0
304,288,187850,1,0
288,256,187965,1,0
320,240,188079,1,0
352,224,188193,2,0,B|384:186|416:288,1,110,8|0
432,320,188536,1,0
448,352,188650,5,0
480,288,188879,1,0
464,256,188993,1,0
448,224,189107,2,0,B|502:192|480:128,1,110,8|0
448,112,189450,1,0
416,96,189565,1,0
384,80,189679,1,0
368,112,189793,1,0
352,144,189907,1,0
320,128,190022,1,8
288,112,190136,1,0
272,144,190250,1,0
256,176,190365,1,0
224,160,190479,6,0,B|170:127|192:64,1,110
160,48,190822,1,0
128,32,190936,2,0,B|86:32|96:64,1,55,8|0
80,96,191165,2,0,B|89:128|48:128,1,55
32,160,191393,2,0,B|32:202|64:192,1,55
80,224,191622,2,0,B|112:214|112:256,1,55
96,288,191850,2,0,B|71:312|96:336,1,55,8|0
128,352,192079,2,0,B|152:377|176:352,1,55
192,320,192307,5,0
256,352,192536,1,0
320,320,192765,2,0,B|370:272|320:224,1,110,8|0
256,256,193222,1,0
192,224,193450,1,0
176,192,193565,1,0
160,160,193679,2,0,B|109:112|160:64,1,110,10|0
224,32,194136,5,0
256,96,194364,1,0
288,80,194479,1,0
320,64,194593,2,0,B|369:14|416:64,1,110,8|0
448,80,194936,1,0
480,96,195050,1,0
464,128,195164,1,0
448,160,195279,1,0
416,176,195393,1,0
384,192,195507,2,0,B|384:274|448:256,1,110,8|0
464,288,195850,1,0
480,320,195964,5,0
416,352,196193,1,0
384,336,196307,1,0
352,320,196421,2,0,B|320:373|256:352,1,110,8|0
240,320,196764,1,0
224,288,196879,1,0
192,304,196993,1,0
160,320,197107,1,0
144,288,197221,1,0
128,256,197336,1,8
96,272,197450,1,0
64,288,197564,1,0
48,256,197679,1,0
32,224,197793,6,0,B|82:177|32:128,1,110
48,96,198136,1,0
64,64,198250,2,0,B|81:36|112:48,1,55,8|0
144,64,198479,2,0,B|176:75|192:48,1,55
224,32,198707,2,0,B|252:48|240:80,1,55
224,112,198936,2,0,B|213:144|240:160,1,55
272,176,199164,2,0,B|313:176|304:144,1,55,8|0
320,112,199393,2,0,B|320:70|352:80,1,55
384,96,199621,5,0
416,160,199850,1,0
448,224,200079,1,0
480,288,200307,1,0
512,352,200536,1,0
256,192,200593,12,14,200993
