osu file format v5

[General]
AudioFilename: moskaushort.mp3
AudioLeadIn: 0
PreviewTime: 73253
Countdown: 1
SampleSet: Normal
StackLeniency: 0.7
Mode: 0
LetterboxInBreaks: 1
EditorDistanceSpacing: 1

[Metadata]
Title:Moskau
Artist:Dschinghis Khan
Creator:RemmyX25
Version:Aqua92
Source:
Tags:

[Difficulty]
HPDrainRate:7
CircleSize:5
OverallDifficulty:6
SliderMultiplier:1.9
SliderTickRate:4

[Events]
//Background and Video events
1,0,"dschinghiskhan-moskau(rebuildbyvictormendozaxvid)jj.avi"
0,0,"lartoBG.jpg"
//Break Periods
2,148625,154540
//Storyboard Layer 0 (Background)
//Storyboard Layer 1 (Failing)
//Storyboard Layer 2 (Passing)
//Storyboard Layer 3 (Foreground)
//Storyboard Sound Samples
//Background Colour Transformations
3,100,163,162,255

[TimingPoints]
308,457.153306361288,4,1,0,100,1,0
28463,-200,4,2,0,100,0,0
40308,-100,4,1,0,100,0,0
56936,-100,4,1,0,100,0,0
75279,-100,4,1,0,100,0,1
75738,-100,4,1,0,100,0,0
76195,-100,4,1,0,100,0,1
82136,-100,4,1,0,100,0,0
82593,-100,4,1,0,100,0,1
83052,-100,4,1,0,100,0,0
83509,-100,4,1,0,100,0,1
89450,-100,4,1,0,100,0,0
89907,-100,4,1,0,100,0,1
90367,-100,4,1,0,100,0,0
90367,-100,4,1,0,100,0,0
90824,-100,4,1,0,100,0,1
96765,-100,4,1,0,100,0,0
97222,-100,4,1,0,100,0,1
97681,-100,4,1,0,100,0,0
98138,-100,4,1,0,100,0,1
104080,-100,4,1,0,100,0,0
111853,-100,4,1,0,100,0,1
112310,-100,4,1,0,100,0,0
112767,-100,4,1,0,100,0,1
118596,-200,4,2,0,100,0,0
132653,-100,4,1,0,100,0,0
134711,-100,4,1,0,100,0,1
135168,-100,4,1,0,100,0,0
135625,-100,4,1,0,100,0,1
141568,-100,4,1,0,100,0,0
142025,-100,4,1,0,100,0,1
142482,-100,4,1,0,100,0,0
142939,-100,4,1,0,100,0,1
148425,-100,4,1,0,100,0,0
172197,-100,4,1,0,100,0,1
172654,-100,4,1,0,100,0,0
173111,-100,4,1,0,100,0,1
179054,-100,4,1,0,100,0,0
179512,-100,4,1,0,100,0,1
179969,-100,4,1,0,100,0,0
179969,-100,4,1,0,100,0,0
179969,-100,4,1,0,100,0,0
180426,-100,4,1,0,100,0,1
186369,-100,4,1,0,100,0,0
186826,-100,4,1,0,100,0,1
187283,-100,4,1,0,100,0,0
187740,-100,4,1,0,100,0,1
188198,-100,4,1,0,100,0,0
188655,-100,4,1,0,100,0,1
189112,-100,4,1,0,100,0,0
189569,-100,4,1,0,100,0,1
190026,-100,4,1,0,100,0,0
190483,-100,4,1,0,100,0,1
190940,-100,4,1,0,100,0,0
191397,-100,4,1,0,100,0,1
191854,-100,4,1,0,100,0,0
192312,-100,4,1,0,100,0,1
192769,-100,4,1,0,100,0,0
193226,-100,4,1,0,100,0,1
193683,-100,4,1,0,100,0,0
194141,-100,4,1,0,100,0,1
194598,-100,4,1,0,100,0,0
195055,-100,4,1,0,100,0,1
195512,-100,4,1,0,100,0,0
195969,-100,4,1,0,100,0,1
196426,-100,4,1,0,100,0,0
196883,-100,4,1,0,100,0,1
197341,-100,4,1,0,100,0,0
197798,-100,4,1,0,100,0,1
198255,-100,4,1,0,100,0,0
198712,-100,4,1,0,100,0,1
199169,-100,4,1,0,100,0,0
199626,-100,4,1,0,100,0,1
200083,-100,4,1,0,100,0,0
200083,-100,4,1,0,100,0,1

[HitObjects]
160,224,29565,2,0,B|224:160|288:288|416:224,1,237.5
160,128,32308,5,0
224,128,32765,2,0,B|224:192,2,47.5
288,160,33680,6,0,B|384:160,1,95
96,128,35965,6,0,B|192:96,1,95
224,160,36880,1,0
288,96,37337,6,0,B|352:96,1,47.5
288,256,39623,5,0
192,256,40080,1,0
96,256,40537,2,0,B|64:224|0:160|128:64,1,190
160,96,41451,2,0,B|224:160|256:224|128:256,1,190
96,256,42366,2,0,B|64:224|0:160|128:64,1,190
160,96,43280,2,0,B|224:160|256:224|128:256,1,190
96,64,44194,6,0,B|64:160|256:160,1,190
223,159,44766,1,0
223,159,44880,1,0
223,159,44994,1,0
320,128,45337,6,0,B|416:160,1,95
384,224,45795,2,0,B|288:160,1,95
256,128,46251,2,0,B|352:64,1,95
334,76,46594,1,0
334,76,46709,1,0
334,76,46823,1,0
334,76,46937,5,0
384,96,47394,1,0
288,96,47851,1,0
256,128,48080,1,0
224,160,48309,1,0
192,192,48537,1,0
256,288,49109,5,0
256,256,49223,1,0
256,224,49337,1,0
256,192,49451,1,0
256,160,49566,1,0
256,128,49680,1,0
256,96,49794,1,0
256,64,49909,1,0
128,64,50594,6,8,B|32:256,1,190,8|8
64,256,51508,2,8,B|160:64,1,190
190,86,52423,2,8,B|94:278,1,190
160,256,53109,2,0,B|288:256,1,95
256,192,53566,2,0,B|384:192,1,95
160,128,54252,5,0
192,192,54709,1,0
224,256,55166,2,0,B|288:320|416:224,1,190
384,160,56080,2,0,B|320:96|192:192,1,190
224,256,56995,2,0,B|288:320|416:224,1,190
384,160,57909,2,0,B|320:96|192:192,1,190
192,160,58823,6,0,B|192:224,1,47.5
352,160,59280,2,0,B|352:224,1,47.5
320,64,59737,6,0,B|512:128,2,190
288,96,60766,1,8
256,224,61109,1,8
256,192,61223,1,8
256,224,61566,1,8
256,256,61680,1,8
256,224,62023,1,8
288,224,62137,1,8
128,96,62480,6,0,B|256:96,1,95
224,128,62938,2,0,B|352:128,1,95
352,160,63395,2,0,B|352:256,1,95
352,288,63852,2,0,B|224:288,1,95
256,224,64309,5,8
256,128,64766,1,8
224,224,65223,1,0
160,224,65452,5,0
128,192,65680,1,0
128,160,65795,1,0
128,128,65909,1,0
288,96,66138,5,8
128,96,66595,1,8
288,96,67052,2,8,B|352:32|416:160|480:96,2,190
288,128,68080,1,0
288,160,68195,1,0
288,192,68309,1,0
288,224,68423,5,8
192,224,68880,1,8
192,224,69338,1,8
256,320,69795,6,0,B|288:256|352:288,1,95
384,288,70252,2,0,B|448:288|448:224,1,95
352,160,70709,1,0
320,192,70938,1,0
288,224,71166,1,0
256,224,71281,1,0
224,224,71395,1,0
192,192,71623,2,0,B|384:128,3,190
352,224,73452,5,0
288,96,73909,1,0
320,192,74366,1,0
256,192,74595,1,0
256,128,74823,1,0
224,128,74938,1,0
192,128,75052,1,0
144,126,75281,6,0,C|80:158|192:256,1,190
256,128,76195,6,0,C|192:160|288:256,1,190
416,160,77109,5,0
416,192,77224,1,0
416,224,77338,1,0
416,256,77452,1,0
416,288,77566,1,0
256,256,78024,1,0
256,256,78252,1,0
256,256,78481,1,0
96,288,78938,5,0
96,256,79052,1,0
96,128,79395,1,0
128,128,79509,1,0
256,224,79852,1,0
256,224,80081,1,0
256,224,80309,1,0
192,64,80766,5,0
192,128,80995,1,0
192,192,81224,1,0
192,256,81452,1,0
192,320,81681,1,0
256,160,82138,5,4
416,160,82595,6,0,C|480:192|384:256,1,190
288,160,83509,6,0,C|352:192|256:256,1,190
192,192,84424,2,0,B|96:128,2,95
192,192,85110,2,0,B|288:256,2,95
224,160,85795,1,0
320,128,86252,6,0,B|320:192,1,47.5
320,288,86709,2,0,B|256:288,1,47.5
160,224,87167,2,0,B|160:160,4,47.5
256,192,88081,12,0,88538
256,192,88767,12,0,88995
256,192,89224,12,0,89452
224,96,89910,6,0,C|288:32|320:128,1,190
318,123,90824,6,0,C|352:224|414:155,1,190
416,256,91738,2,0,B|320:352,1,95
320,288,92195,1,0
224,160,92652,2,0,B|224:256,1,95
225,255,93110,1,0
416,288,93567,5,0
256,288,94024,1,0
256,128,94481,1,0
256,160,94595,1,0
224,160,94710,1,0
224,192,94824,1,0
192,192,94938,1,0
32,256,95395,6,0,B|96:160,1,95
84,176,95853,2,0,B|160:288,1,95
39,255,96310,2,0,B|135:255,1,95
192,256,96767,6,4,B|288:256,1,95
288,224,97224,6,0,C|256:288|160:192,3,190
256,256,99053,1,0
352,256,99510,1,0
160,256,99967,1,0
352,256,100195,1,0
256,96,100424,1,0
192,96,100881,5,0
352,96,101338,1,0
352,224,101796,1,0
256,352,102024,1,0
160,224,102253,1,0
224,96,102710,6,0,B|224:160|224:160|256:96,1,95
288,96,103167,2,0,B|288:160|288:160|256:128,1,95
256,64,103624,1,0
384,96,104081,5,4
384,192,104538,6,0,B|320:288,1,95
288,256,104996,2,0,B|352:160,1,95
340,176,105452,2,0,B|224:192,1,95
256,128,105910,2,0,B|352:128,1,95
192,96,106367,6,0,B|192:192,1,95
128,192,106824,2,8,B|32:288,4,95
384,64,108196,5,0
352,64,108310,1,0
320,64,108424,1,0
288,64,108539,1,0
256,64,108653,2,0,B|160:128,1,95
224,160,109110,2,0,B|320:160,1,95
352,160,109453,1,0
384,160,109567,1,0
224,192,110024,5,0
288,192,110253,1,0
352,192,110481,1,0
352,256,110710,1,0
416,256,110939,1,0
416,96,111396,5,4
256,96,111853,6,0,B|160:32|128:128|64:96,1,190
64,192,112767,2,0,B|32:288|128:384|128:384,1,190
256,288,113682,5,0
352,288,114138,1,0
352,192,114367,1,0
352,288,114596,1,0
352,192,114824,1,0
352,288,115053,1,0
288,192,115510,5,0
256,96,115967,2,0,B|160:160,4,95
128,128,117339,5,0
160,128,117453,1,0
192,128,117568,1,0
256,128,117796,1,0
288,192,118025,1,0
320,128,118253,1,0
224,160,119167,6,0,B|160:192,1,47.5
197,219,119625,2,0,B|252:190,1,47.5
276,228,120082,2,0,B|231:257,1,47.5
259,298,120539,2,0,B|302:336,1,47.5
320,288,120996,5,0
320,224,121453,1,0
320,160,121910,2,0,B|256:160,1,47.5
256,128,122367,2,0,B|320:128,1,47.5
288,96,122825,2,0,B|224:96,1,47.5
192,96,123168,1,0
192,128,123282,1,0
192,160,123396,1,0
192,192,123510,1,0
192,224,123625,1,0
96,128,124653,5,0
96,192,125110,1,0
96,256,125568,2,0,B|96:320,1,47.5
96,256,126025,2,0,B|160:256,1,47.5
96,256,126482,2,0,B|32:256,1,47.5
96,256,126939,2,0,B|96:192,1,47.5
96,192,127282,5,0
96,160,127396,1,0
96,128,127510,1,0
96,96,127625,1,0
128,96,127739,1,0
192,32,128310,5,0
128,32,128768,1,0
64,32,129224,1,0
96,64,129453,1,0
64,96,129682,1,0
96,128,129911,1,0
256,192,130139,12,0,130939
160,224,131053,5,0
192,224,131168,1,0
224,224,131282,1,0
256,224,131396,1,0
288,224,131510,1,0
224,160,131968,5,0
224,128,132196,1,0
224,96,132425,1,0
224,160,132882,6,0,B|0:160,1,190
224,161,133796,2,0,B|416:161,1,190
288,160,134711,6,0,B|480:160,1,190
480,160,135625,2,0,B|480:352,1,190
320,320,136539,2,0,B|224:256,1,95
160,288,136996,2,0,B|160:192,1,95
160,160,137453,1,0
224,160,137682,1,0
288,160,137911,1,0
416,64,138368,5,0
416,224,138825,1,0
256,224,139282,1,0
192,224,139511,1,0
128,224,139739,1,0
32,96,140196,5,0
64,64,140311,1,0
96,96,140425,1,0
160,96,140654,1,0
224,96,140882,1,0
256,64,140996,1,0
288,96,141111,1,0
448,96,141568,5,4
416,192,142025,5,0
384,224,142139,1,0
352,224,142254,1,0
352,256,142368,1,0
320,256,142482,1,0
224,256,142939,2,0,B|224:56,1,190
288,128,143854,6,0,B|352:160,1,47.5
352,224,144311,2,0,B|288:192,1,47.5
224,256,144768,1,0
160,256,144997,1,0
96,256,145225,1,0
64,96,145682,6,0,B|128:128,1,47.5
160,96,146139,2,0,B|128:32,1,47.5
224,64,146597,1,0
256,64,146711,1,0
288,64,146825,1,0
320,64,146939,1,0
352,64,147054,1,0
288,160,147511,5,0
288,160,147739,1,0
288,160,147968,1,0
288,160,148197,1,0
288,160,148425,1,0
160,192,155740,5,0
320,192,156197,1,0
448,96,156654,2,0,B|256:32,2,190
288,160,158025,5,8
288,160,158140,1,8
288,160,158483,1,8
288,160,158597,1,8
288,160,158940,1,8
288,160,159054,1,8
96,288,159397,6,8,B|288:288,1,190
480,288,160311,6,8,B|288:288,1,190
320,128,161225,5,4
224,128,161683,1,4
224,32,162140,1,8
192,64,162368,1,8
160,96,162597,1,8
96,160,163054,6,0,B|96:288,1,95
128,256,163511,2,0,B|256:256,1,95
224,256,163968,2,0,B|224:160,1,95
256,160,164311,1,0
288,160,164426,1,0
320,160,164540,1,0
352,160,164654,1,0
352,96,164883,5,8
256,96,165340,1,8
352,96,165797,1,8
224,160,166254,5,0
256,160,166368,1,0
288,160,166483,1,0
320,160,166597,1,0
352,160,166711,6,0,B|352:288|320:352,1,190
322,346,167397,1,0
324,346,167626,2,0,B|196:346|164:250,1,190,0|0
256,224,168311,1,0
321,162,168540,2,0,B|448:32|96:256|96:256|0:32,1,570
192,128,170369,5,0
352,128,170826,1,0
192,128,171283,1,0
224,128,171511,1,0
256,128,171740,1,0
288,224,172197,5,0
256,256,172426,1,0
224,288,172654,1,4
128,256,173111,5,0
128,224,173226,1,0
128,192,173340,1,0
128,160,173454,1,0
128,128,173569,1,4
224,128,174026,6,0,B|160:224,1,95
278,160,174483,2,0,B|214:256,1,95,0|0
256,288,174940,2,0,B|160:288,2,95
416,128,175854,5,0
384,128,175969,1,0
352,128,176083,1,0
320,128,176197,1,0
288,128,176312,1,0
224,128,176540,1,0
160,128,176768,2,0,B|160:224,2,80
256,160,177569,6,0,B|352:96,2,95
335,107,178254,1,0
256,160,178483,1,0
384,224,179054,6,4,B|384:160,1,47.5
384,64,179512,6,4,B|288:32|160:64,1,190
64,64,180426,2,4,B|32:160|96:288,1,190
192,288,181340,2,0,B|224:224|288:320|256:288,3,95
320,288,182255,1,0
320,224,182483,1,0
320,160,182712,1,4
224,160,183169,5,0
192,160,183283,1,0
160,160,183397,1,0
160,96,183626,1,0
256,64,184083,5,0
288,96,184197,1,0
320,64,184312,1,0
352,96,184426,1,0
384,64,184540,1,4
416,224,184997,5,0
352,224,185226,1,0
288,224,185455,1,0
224,224,185683,1,0
160,224,185912,1,0
160,64,186369,5,4
320,64,186826,6,0,B|416:64|416:224,1,190,0|4
384,224,187397,1,0
384,256,187512,1,0
384,288,187626,1,0
384,320,187740,2,0,B|256:352|192:256,1,190,0|4
192,224,188426,1,0
128,224,188655,2,0,B|32:32,1,190
96,32,189340,2,0,B|192:64,1,95
224,64,189683,1,0
224,96,189797,2,0,B|320:160,1,95
352,128,190255,5,0
384,128,190369,1,0
416,128,190483,2,0,B|448:160|416:224,1,95
416,224,190940,1,0
416,224,191055,1,0
416,224,191169,1,0
416,224,191283,1,0
416,224,191398,1,0
352,224,191626,1,0
288,224,191855,1,0
224,224,192083,5,0
192,224,192198,1,0
160,224,192312,6,0,B|96:192|128:128,1,95
120,147,192655,1,0
120,147,192769,2,0,B|96:64|160:32,1,95
160,32,193226,1,0
192,96,193683,5,4
352,64,194141,6,0,B|448:96|416:224,1,190
384,288,195055,2,0,B|224:352|192:288,1,190
160,288,195741,1,0
160,224,195969,1,0
160,160,196198,5,0
160,128,196312,1,0
160,96,196426,1,0
160,64,196541,1,0
224,64,196883,5,0
288,64,197112,1,0
352,64,197341,1,4
416,160,197798,5,0
416,256,198255,1,4
320,256,198712,1,0
256,256,198941,1,0
192,256,199169,1,4
256,160,199626,6,4,B|256:192,13,31.6666666666667
256,96,200998,5,4
