osu file format v14

[General]
AudioFilename: Dschinghis_Khan_-_Moskau_-_Double_Speed-Vubey.mp3
AudioLeadIn: 0
PreviewTime: -1
Countdown: 1
SampleSet: Normal
StackLeniency: 0.7
Mode: 0
LetterboxInBreaks: 1
WidescreenStoryboard: 0

[Editor]
DistanceSpacing: 1.1
BeatDivisor: 4
GridSize: 8
TimelineZoom: 3.599999

[Metadata]
Title:Moskau (Nightcore Mix)
TitleUnicode:Moskau (Nightcore Mix)
Artist:Dschinghis Khan
ArtistUnicode:Dschinghis Khan
Creator:Voli
Version:communism
Source:
Tags:
BeatmapID:856806
BeatmapSetID:393696

[Difficulty]
HPDrainRate:5
CircleSize:4
OverallDifficulty:8
ApproachRate:9.6
SliderMultiplier:2
SliderTickRate:1

[Events]
//Background and Video events
0,0,"moscaw.jpg",0,0
//Break Periods
//Storyboard Layer 0 (Background)
//Storyboard Layer 1 (Fail)
//Storyboard Layer 2 (Pass)
//Storyboard Layer 3 (Foreground)
//Storyboard Sound Samples

[TimingPoints]
270.058425507042,228.527899447724,4,1,0,49,1,0
495,-166.666666666667,4,1,0,49,0,0
7581,-133.333333333333,4,1,0,49,0,0
14895,-166.666666666667,4,1,0,49,0,0
15238,-133.333333333333,4,1,0,49,0,0
22208,-166.666666666667,4,1,0,49,0,0
22551,-125,4,1,0,49,0,0
37748,-100,4,1,0,49,0,0
41176,-83.3333333333333,4,1,0,49,0,0
41290,-100,4,1,0,49,0,0
44832,-83.3333333333333,4,1,0,49,0,0
44947,-100,4,1,0,49,0,0
48489,-83.3333333333333,4,1,0,49,0,0
48603,-100,4,1,0,49,0,0
52145,-83.3333333333333,4,1,0,49,0,0
52260,-100,4,1,0,49,0,0
55802,-83.3333333333333,4,1,0,49,0,0
55916,-100,4,1,0,49,0,0
59687,-133.333333333333,4,1,0,49,0,0
61515,-117.647058823529,4,1,0,49,0,0
70885,-100,4,1,0,49,0,0
70999,-117.647058823529,4,1,0,49,0,0

[HitObjects]
161,191,270,5,2,2:0:0:0:
161,191,384,1,0,2:0:0:0:
250,195,498,2,0,L|274:273,1,59.9999981689454,2|0,2:0|2:0,2:0:0:0:
340,198,727,2,0,L|316:120,1,59.9999981689454,2|0,2:0|2:0,2:0:0:0:
404,152,955,2,0,L|428:230,1,59.9999981689454,2|0,2:0|2:0,2:0:0:0:
376,62,1184,5,2,2:0:0:0:
376,62,1298,1,0,2:0:0:0:
299,127,1412,2,0,L|323:205,1,59.9999981689454,2|0,2:0|2:0,2:0:0:0:
285,279,1641,2,0,L|205:260,1,59.9999981689454,2|0,2:0|2:0,2:0:0:0:
161,191,1869,2,0,L|216:131,1,59.9999981689454,2|0,2:0|2:0,2:0:0:0:
91,264,2098,5,2,2:0:0:0:
91,264,2212,1,0,2:0:0:0:
74,174,2326,2,0,L|64:105,1,59.9999981689454,2|0,2:0|2:0,2:0:0:0:
159,52,2555,2,0,L|150:111,1,59.9999981689454,2|0,2:0|2:0,2:0:0:0:
242,193,2783,2,0,L|232:124,1,59.9999981689454,2|0,2:0|2:0,2:0:0:0:
285,279,3012,5,2,2:0:0:0:
285,279,3126,1,0,2:0:0:0:
360,230,3240,2,0,P|384:208|421:193,1,59.9999981689454,2|0,2:0|2:0,2:0:0:0:
454,118,3469,1,2,2:0:0:0:
498,195,3583,1,2,3:0:0:0:
408,196,3697,1,2,3:0:0:0:
454,118,3812,1,2,3:0:0:0:
334,57,3926,6,0,L|301:128,1,59.9999981689454,6|0,2:0|2:0,2:0:0:0:
203,111,4155,2,0,L|178:57,1,59.9999981689454,2|0,2:0|2:0,2:0:0:0:
125,149,4383,2,0,L|174:211,1,59.9999981689454,2|0,2:0|2:0,2:0:0:0:
349,196,4612,2,0,L|387:149,1,59.9999981689454,2|0,2:0|2:0,2:0:0:0:
299,267,4840,6,0,L|323:342,1,59.9999981689454,2|0,2:0|2:0,2:0:0:0:
194,324,5069,2,0,L|213:267,1,59.9999981689454,2|0,2:0|2:0,2:0:0:0:
213,117,5297,2,0,L|189:42,1,59.9999981689454,2|0,2:0|2:0,2:0:0:0:
317,59,5526,2,0,L|299:117,1,59.9999981689454,2|0,2:0|2:0,2:0:0:0:
64,196,5754,6,0,P|47:151|59:115,1,59.9999981689454,2|0,2:0|2:0,2:0:0:0:
213,117,5983,2,0,P|204:145|183:167,1,59.9999981689454,2|0,2:0|2:0,2:0:0:0:
48,140,6211,2,0,P|63:114|89:99,1,59.9999981689454,2|0,2:0|2:0,2:0:0:0:
263,88,6440,2,0,P|241:108|212:116,1,59.9999981689454,2|0,2:0|2:0,2:0:0:0:
270,214,6668,6,0,L|299:267,1,59.9999981689454,2|0,2:0|2:0,2:0:0:0:
400,142,6897,2,0,L|372:195,1,59.9999981689454,2|0,2:0|2:0,2:0:0:0:
263,88,7125,2,0,L|291:140,1,59.9999981689454,2|2,2:0|3:0,2:0:0:0:
392,16,7354,1,2,3:0:0:0:
468,105,7468,5,2,3:0:0:0:
468,105,7525,1,2,3:0:0:0:
468,105,7582,2,0,P|475:164|401:220,1,150.000005722046
317,351,7925,2,0,B|291:315|295:248|295:248|260:201,1,150.000005722046
193,129,8268,1,0,0:0:0:0:
134,261,8382,1,0,0:0:0:0:
115,113,8497,6,0,P|138:71|179:51,1,75.0000028610231
249,173,8725,2,0,P|226:143|192:128,1,75.0000028610231
134,261,8954,2,0,P|163:238|178:204,1,75.0000028610231
44,144,9182,2,0,P|66:173|100:188,1,75.0000028610231
249,173,9411,6,0,L|276:324,1,150.000005722046
379,165,9753,2,0,P|411:84|405:17,1,150.000005722046
249,173,10096,1,0,0:0:0:0:
261,30,10211,1,0,0:0:0:0:
132,92,10325,6,0,L|146:166,1,75.0000028610231
304,70,10553,2,0,L|230:84,1,75.0000028610231
392,238,10782,2,0,L|378:164,1,75.0000028610231
220,260,11010,1,0,0:0:0:0:
468,51,11125,5,0,0:0:0:0:
468,51,11182,1,0,0:0:0:0:
468,51,11239,2,0,P|473:132|507:204,1,150.000005722046
336,301,11582,2,0,P|311:234|355:160,1,150.000005722046
256,64,11924,1,0,0:0:0:0:
167,167,12039,1,0,0:0:0:0:
44,51,12153,6,0,P|39:132|5:204,1,150.000005722046
176,301,12496,2,0,P|201:234|157:160,1,150.000005722046
256,64,12839,1,0,0:0:0:0:
302,193,12953,1,0,0:0:0:0:
448,45,13067,6,0,B|480:101|448:157|448:157|464:213,1,150.000005722046
352,334,13410,2,0,L|300:190,1,150.000005722046
256,64,13753,1,0,0:0:0:0:
64,45,13867,5,0,0:0:0:0:
64,45,13924,1,0,0:0:0:0:
64,45,13981,2,0,B|32:101|64:157|64:157|48:213,1,150.000005722046
160,334,14324,2,0,L|212:190,1,150.000005722046
256,64,14667,1,0,0:0:0:0:
417,262,14781,1,0,0:0:0:0:
417,262,14895,6,0,B|436:208|395:192|432:125,1,119.999996337891
256,64,15238,2,0,P|205:124|109:51,1,225.000008583069
176,219,15695,1,0,0:0:0:0:
182,54,15809,2,0,L|181:160,1,75.0000028610231
344,150,16038,2,0,L|363:77,1,75.0000028610231
246,248,16267,2,0,P|211:287|125:275,2,112.500004291535
454,38,16724,6,0,L|466:199,1,150.000005722046
333,300,17066,2,0,L|344:150,1,150.000005722046
351,38,17409,1,0,0:0:0:0:
266,114,17523,1,0,0:0:0:0:
136,107,17638,2,0,L|185:185,1,75.0000028610231
67,141,17866,2,0,L|17:62,1,75.0000028610231
111,214,18095,2,0,P|147:276|152:329,2,112.500004291535
302,145,18552,6,0,P|292:70|379:45,1,150.000005722046
177,171,18895,2,0,P|211:229|229:324,1,150.000005722046
322,320,19237,2,0,L|346:235,1,75.0000028610231
349,101,19466,6,0,P|357:146|455:180,1,150.000005722046
504,124,19809,1,0,0:0:0:0:
504,280,19923,1,0,0:0:0:0:
426,111,20037,1,0,0:0:0:0:
426,111,20094,1,0,0:0:0:0:
426,111,20151,1,0,0:0:0:0:
412,289,20266,1,0,0:0:0:0:
349,101,20380,6,0,P|295:94|266:106,1,75.0000028610231
319,241,20609,2,0,P|282:248|246:240,1,75.0000028610231
276,100,20837,2,0,P|222:93|193:105,1,75.0000028610231
246,240,21066,2,0,P|209:247|173:239,1,75.0000028610231
203,99,21294,6,0,L|211:195,1,75.0000028610231
166,313,21523,2,0,L|172:238,1,75.0000028610231
131,99,21751,2,0,L|139:195,1,75.0000028610231
94,313,21980,2,0,L|100:238,1,75.0000028610231
353,125,22208,6,0,L|318:240,1,119.999996337891
382,11,22551,2,0,P|371:62|512:160,1,240
318,240,23008,1,0,0:0:0:0:
191,54,23122,6,0,P|147:26|53:93,1,160
10,181,23465,1,0,0:0:0:0:
199,217,23579,2,0,L|329:242,2,120
370,178,24036,6,0,P|396:228|337:320,1,160
294,158,24379,2,0,P|268:108|327:16,1,160
191,54,24722,2,0,L|95:88,1,80
30,164,24951,6,0,L|126:198,1,80
201,263,25179,2,0,L|105:297,1,80
241,113,25408,2,0,P|268:42|243:-2,2,120
51,269,25865,6,0,P|108:289|208:256,1,160
356,98,26207,2,0,L|330:262,1,160
444,205,26550,2,0,L|488:132,1,80
412,293,26779,6,0,P|365:333|241:247,1,240
232,128,27236,1,0,0:0:0:0:
144,209,27350,1,0,0:0:0:0:
144,209,27407,1,0,0:0:0:0:
144,209,27464,1,0,0:0:0:0:
140,89,27579,1,0,0:0:0:0:
294,84,27693,6,0,P|308:129|295:171,1,80
370,175,27921,2,0,P|351:210|317:230,1,80
350,296,28150,2,0,P|311:303|273:289,1,80
243,357,28378,2,0,P|212:331|198:294,1,80
126,313,28607,2,0,P|125:273|145:239,1,80
81,195,28836,2,0,P|111:169|150:162,1,80
140,89,29064,2,0,P|178:95|209:120,1,80
370,175,29293,2,0,L|382:88,1,80
350,296,29521,5,0,0:0:0:0:
81,195,29750,1,0,0:0:0:0:
302,12,29978,5,0,0:0:0:0:
406,70,30092,1,0,0:0:0:0:
303,132,30207,1,0,0:0:0:0:
140,89,30321,2,0,L|172:257,1,160
195,364,30664,1,0,0:0:0:0:
303,132,30778,1,0,0:0:0:0:
303,132,30835,1,0,0:0:0:0:
303,132,30892,1,0,0:0:0:0:
347,243,31007,5,0,0:0:0:0:
393,131,31121,1,0,0:0:0:0:
434,243,31235,1,0,0:0:0:0:
475,131,31349,6,0,L|497:45,1,80
347,243,31578,1,0,0:0:0:0:
195,364,31692,1,0,0:0:0:0:
195,364,31749,1,0,0:0:0:0:
195,364,31806,2,0,L|177:265,1,80
160,166,32035,1,0,0:0:0:0:
42,27,32149,2,0,P|17:105|52:180,1,160
129,261,32492,1,0,0:0:0:0:
191,71,32606,5,0,0:0:0:0:
191,71,32663,1,0,0:0:0:0:
191,71,32721,1,0,0:0:0:0:
246,177,32835,1,0,0:0:0:0:
311,77,32949,1,0,0:0:0:0:
365,184,33063,1,0,0:0:0:0:
431,84,33178,6,0,L|486:169,1,80
479,339,33406,1,0,0:0:0:0:
474,151,33520,1,0,0:0:0:0:
474,151,33577,1,0,0:0:0:0:
474,151,33635,2,0,L|419:236,1,80
311,77,33863,1,0,0:0:0:0:
299,283,33977,2,0,B|212:309|216:255|117:295,1,160
108,170,34320,2,0,L|141:287,1,120
152,330,34549,5,0,0:0:0:0:
242,360,34663,1,0,0:0:0:0:
256,185,34777,1,0,0:0:0:0:
299,283,34892,1,0,0:0:0:0:
134,12,35006,6,0,L|106:178,1,160
87,288,35349,1,0,0:0:0:0:
256,25,35463,6,0,L|256:189,1,160
257,305,35806,1,0,0:0:0:0:
378,12,35920,6,0,L|406:178,1,160
134,372,36377,2,0,L|106:206,1,160
378,12,36834,1,0,0:0:0:0:
430,315,37063,1,0,0:0:0:0:
134,372,37291,1,0,0:0:0:0:
77,76,37520,1,0,0:0:0:0:
430,315,37748,6,0,L|452:90,1,200
256,192,38091,1,0,0:0:0:0:
77,76,38205,2,0,L|96:275,1,200
261,103,38548,5,0,0:0:0:0:
261,103,38605,1,0,0:0:0:0:
261,103,38663,2,0,L|296:1,1,100
251,281,38891,2,0,L|216:383,1,100
345,197,39119,2,0,L|447:232,1,100
167,187,39348,1,0,0:0:0:0:
384,77,39462,5,0,0:0:0:0:
384,77,39519,1,0,0:0:0:0:
384,77,39576,2,0,L|496:108,1,100
345,197,39805,2,0,L|402:298,1,100
251,281,40033,2,0,L|220:392,1,100
167,187,40262,2,0,L|65:244,1,100
271,146,40490,5,0,0:0:0:0:
96,102,40605,1,0,0:0:0:0:
261,36,40719,1,0,0:0:0:0:
167,187,40833,1,0,0:0:0:0:
154,8,40948,1,0,0:0:0:0:
490,83,41176,6,0,P|478:151|501:224,1,119.999996337891
347,380,41405,6,0,P|380:284|337:178,1,200
261,36,41747,1,0,0:0:0:0:
166,186,41862,2,0,P|136:279|170:372,1,200
271,146,42204,5,0,0:0:0:0:
271,146,42262,1,0,0:0:0:0:
271,146,42319,2,0,L|396:108,1,100
347,380,42547,2,0,L|317:284,1,100
83,360,42776,2,0,L|178:330,1,100
101,96,43004,1,0,0:0:0:0:
35,288,43119,5,0,0:0:0:0:
35,288,43176,1,0,0:0:0:0:
35,288,43233,2,0,P|59:222|-12:147,1,150
24,31,43461,2,0,L|121:113,1,100
256,194,43690,2,0,L|256:93,1,100
488,31,43918,2,0,L|391:113,1,100
332,311,44147,5,0,0:0:0:0:
256,94,44261,1,0,0:0:0:0:
188,311,44375,1,0,0:0:0:0:
369,174,44490,1,0,0:0:0:0:
143,177,44604,1,0,0:0:0:0:
486,333,44832,6,0,B|492:275|492:275|472:195,1,119.999996337891
386,8,45061,6,0,P|420:115|362:176,1,200
256,328,45404,1,0,0:0:0:0:
142,176,45518,2,0,P|86:99|126:12,1,200
0,176,45861,5,0,0:0:0:0:
0,176,45918,1,0,0:0:0:0:
0,176,45975,2,0,P|35:214|74:273,1,100
255,327,46204,2,0,P|305:323|354:312,1,100
257,42,46432,2,0,P|236:87|221:135,1,100
146,325,46661,1,0,0:0:0:0:
221,135,46775,5,0,0:0:0:0:
221,135,46832,1,0,0:0:0:0:
221,135,46889,2,0,L|361:107,1,100
255,327,47118,2,0,L|235:228,1,100
43,261,47346,2,0,L|141:241,1,100
107,49,47575,2,0,L|126:147,1,100
319,115,47803,5,0,0:0:0:0:
401,287,47918,1,0,0:0:0:0:
420,105,48032,1,0,0:0:0:0:
401,287,48146,1,0,0:0:0:0:
505,163,48260,1,0,0:0:0:0:
146,325,48489,6,0,B|109:269|178:246|93:173,1,119.999996337891
81,15,48717,6,0,L|132:236,1,200
256,352,49060,1,0,0:0:0:0:
385,209,49175,2,0,L|431:15,1,200
300,186,49517,5,0,0:0:0:0:
300,186,49574,1,0,0:0:0:0:
300,186,49632,2,0,P|313:258|357:296,1,100
27,277,49860,2,0,P|53:235|56:186,1,100
178,0,50089,2,0,L|178:106,1,100
178,284,50317,1,0,0:0:0:0:
259,76,50431,5,0,0:0:0:0:
259,76,50489,1,0,0:0:0:0:
259,76,50546,2,0,P|305:97|365:116,1,100
141,192,50774,2,0,P|162:147|178:99,1,100
270,320,51003,2,0,P|224:298|177:283,1,100
384,178,51231,2,0,P|362:223|347:270,1,100
259,76,51460,5,0,0:0:0:0:
270,320,51574,1,0,0:0:0:0:
141,192,51688,1,0,0:0:0:0:
384,178,51803,1,0,0:0:0:0:
410,19,51917,1,0,0:0:0:0:
141,192,52145,6,0,B|88:226|88:226|26:226,1,119.999996337891
258,75,52374,6,0,L|281:173,1,100
151,375,52602,2,0,P|113:294|146:184,1,200
258,75,52945,1,0,0:0:0:0:
258,75,53002,1,0,0:0:0:0:
258,75,53060,1,0,0:0:0:0:
300,234,53174,1,0,0:0:0:0:
417,119,53288,6,0,P|448:178|513:259,1,150
395,321,53517,2,0,L|436:185,1,100
258,75,53745,2,0,L|258:180,1,100
117,321,53974,2,0,L|76:185,1,100
191,30,54202,6,0,P|256:-2|321:28,1,150
384,205,54431,2,0,L|349:89,1,100
156,109,54659,2,0,L|128:205,1,100
256,296,54888,1,0,0:0:0:0:
355,109,55116,5,0,0:0:0:0:
256,296,55231,1,0,0:0:0:0:
156,109,55345,1,0,0:0:0:0:
353,233,55459,1,0,0:0:0:0:
159,233,55573,1,0,0:0:0:0:
442,66,55802,6,0,B|459:131|459:131|496:180,1,119.999996337891
351,332,56030,6,0,L|352:203,1,100
156,33,56259,2,0,L|158:237,1,200
80,373,56602,1,0,0:0:0:0:
80,373,56659,1,0,0:0:0:0:
80,373,56716,1,0,0:0:0:0:
0,235,56830,1,0,0:0:0:0:
91,80,56944,6,0,P|155:112|224:77,1,150
205,175,57173,2,0,P|155:183|106:175,1,100
302,240,57402,2,0,L|302:340,1,100
399,175,57630,2,0,P|448:183|497:175,1,100
270,128,57859,2,0,P|217:98|139:130,1,150
164,266,58087,2,0,L|206:171,1,100
399,75,58316,2,0,L|399:186,1,100
399,365,58544,1,0,0:0:0:0:
270,128,58773,5,0,0:0:0:0:
225,342,58887,1,0,0:0:0:0:
62,196,59001,1,0,0:0:0:0:
302,240,59115,1,0,0:0:0:0:
94,308,59230,1,0,0:0:0:0:
303,52,59687,6,0,P|350:107|250:48,1,450.000017166138
36,125,60601,6,0,P|48:169|78:221,1,75.0000028610231
124,324,60829,2,0,L|166:228,1,75.0000028610231
270,128,61058,2,0,P|339:156|410:127,1,150.000005722046
248,248,61515,6,0,B|190:257|162:248|162:248|162:286|123:324|123:324|85:286|85:248|85:248|57:257|9:248,1,340.000006484985
270,128,62429,6,0,P|292:162|341:196,1,85.0000016212464
512,223,62658,2,0,L|441:155,1,85.0000016212464
319,72,62886,2,0,P|247:56|196:143,1,170.000003242493
384,216,63343,6,0,B|415:245|375:285|375:285|336:275|296:285|296:285|316:216|256:176|256:176|187:216|217:285|217:285|168:272|128:285|128:285|89:245|128:206,1,595.000011348725
256,176,64257,6,0,P|264:136|256:91,1,85.0000016212464
217,285,64486,2,0,P|209:325|217:370,1,85.0000016212464
96,263,64714,6,0,B|115:176|57:66|57:66|135:17|442:-1|256:176|256:176|67:-1|373:17|442:66|442:66|383:176|411:256,1,1190.00002269745
183,309,66543,2,0,L|172:217,1,85.0000016212464
333,224,66771,2,0,L|323:309,1,85.0000016212464
110,170,67000,2,0,P|128:106|131:51,1,85.0000016212464
381,88,67228,2,0,P|387:129|401:170,1,85.0000016212464
255,267,67457,6,0,L|255:135,1,127.50000243187
255,106,67685,1,0,0:0:0:0:
468,267,67914,2,0,L|468:135,1,127.50000243187
468,106,68142,1,0,0:0:0:0:
176,241,68371,6,0,P|181:307|241:347,1,127.50000243187
255,267,68599,2,0,B|272:224|272:224|272:176,1,85.0000016212464
342,185,68828,2,0,B|342:224|342:224|359:267,1,85.0000016212464
394,353,69056,1,0,0:0:0:0:
272,185,69285,6,0,L|241:33,1,127.50000243187
179,83,69514,2,0,L|196:170,1,85.0000016212464
131,218,69742,2,0,L|114:131,1,85.0000016212464
101,42,69971,1,0,0:0:0:0:
101,42,70199,5,0,0:0:0:0:
187,6,70313,1,0,0:0:0:0:
256,72,70428,1,0,0:0:0:0:
325,6,70542,1,0,0:0:0:0:
411,42,70656,1,0,0:0:0:0:
488,304,70885,6,0,B|484:257|484:257|488:200,1,100
349,131,71113,6,0,P|349:187|333:275,1,127.50000243187
328,291,71342,1,0,0:0:0:0:
163,131,71570,2,0,P|163:187|179:275,1,127.50000243187
184,291,71799,1,0,0:0:0:0:
289,78,72027,6,0,P|336:52|411:78,1,127.50000243187
348,130,72256,2,0,L|294:201,1,85.0000016212464
215,197,72484,2,0,L|163:130,1,85.0000016212464
112,51,72713,1,0,0:0:0:0:
328,291,72941,6,0,L|409:185,1,127.50000243187
478,237,73170,2,0,L|425:304,1,85.0000016212464
296,197,73398,2,0,L|348:129,1,85.0000016212464
405,55,73627,1,0,0:0:0:0:
405,55,73856,5,0,0:0:0:0:
316,25,73970,1,0,0:0:0:0:
256,96,74084,1,0,0:0:0:0:
196,25,74198,1,0,0:0:0:0:
107,55,74313,1,0,0:0:0:0:
