osu file format v5

[General]
AudioFilename: Dschinghis_Khan_-_Moskau.mp3
AudioLeadIn: 1996
PreviewTime: -1
Countdown: 1
SampleSet: Normal
StackLeniency: 0.7
Mode: 0
LetterboxInBreaks: 1

[Metadata]
Title:Moskau
Artist:Dschinghis Khan
Creator:MetroidMaster
Version:Easy
Source:
Tags:

[Difficulty]
HPDrainRate:1
CircleSize:1
OverallDifficulty:1
SliderMultiplier:1.4
SliderTickRate:1

[Events]
//Background and Video events
//Break Periods
//Storyboard Layer 0 (Background)
//Storyboard Layer 1 (Failing)
//Storyboard Layer 2 (Passing)
//Storyboard Layer 3 (Foreground)
//Storyboard Sound Samples
//Background Colour Transformations
3,100,163,162,255

[TimingPoints]
2125,457.1154130625,4,1,0,100,1

[HitObjects]
256,192,11267,12,0,14467
160,192,14924,5,0
320,160,15381,1,0
256,192,18581,12,0,27723
160,192,29551,5,0
288,128,30009,1,0
160,160,32294,1,0
352,192,33208,1,0
160,128,35951,1,0
352,192,36865,1,0
320,64,37322,1,0
192,160,40522,1,0
224,160,44179,1,0
224,160,44636,1,0
128,96,46922,1,0
192,160,47379,1,0
288,160,47836,1,0
224,96,48293,1,0
256,192,50579,1,0
384,160,51036,1,0
320,128,51493,1,0
224,128,51950,1,0
256,192,54236,1,0
64,128,55150,1,0
256,128,58807,1,0
256,128,59264,1,0
256,128,59721,1,0
256,128,60178,1,0
256,128,60635,1,0
256,128,62007,1,0
256,128,62464,1,0
256,128,62921,1,0
256,128,63378,1,0
256,128,63835,1,0
256,128,64292,1,0
256,128,65206,1,0
256,128,65664,1,0
256,128,66121,1,0
256,128,66578,1,0
64,192,67492,1,0
256,128,69778,1,0
96,224,70692,1,0
256,160,71606,1,0
256,96,73435,1,0
192,128,73892,1,0
160,192,74349,1,0
224,192,74806,1,0
416,128,75720,1,0
224,160,76634,1,0
352,320,77549,1,0
288,128,78463,1,0
96,224,79377,1,0
288,192,80291,1,0
224,0,81205,1,0
160,192,82120,1,0
352,192,83034,1,0
192,96,83948,1,0
192,288,84862,1,0
352,192,85777,1,0
160,160,86691,1,0
352,128,87605,1,0
160,160,88062,1,0
128,96,88519,1,0
160,160,88976,1,0
224,160,89434,1,0
416,96,90348,1,0
256,160,91262,1,0
96,128,92176,1,0
256,192,93090,1,0
64,192,94005,1,0
224,160,94919,1,0
384,192,95833,1,0
224,128,96747,1,0
192,288,97662,1,0
320,192,98576,1,0
128,224,99490,1,0
320,192,100404,1,0
160,160,101319,1,0
320,224,102233,1,0
224,160,104061,1,0
157,140,113661,1,0
343,189,114575,1,0
247,118,115032,1,0
137,149,117318,1,0
327,149,118232,1,0
222,208,118689,1,0
248,184,121889,1,0
161,177,122346,1,0
189,129,122803,1,0
261,141,123260,1,0
300,208,123717,1,0
200,147,125546,1,0
326,169,126003,1,0
233,196,128288,1,0
302,188,128745,1,0
320,132,129203,1,0
184,142,129660,1,0
222,245,131945,1,0
335,128,132860,1,0
197,144,133317,1,0
281,237,135602,1,0
372,114,136516,1,0
100,128,140173,1,0
221,129,140630,1,0
318,160,141088,1,0
176,287,142002,1,0
155,152,143830,1,0
240,159,144287,1,0
194,180,147487,1,0
311,179,147944,1,0
104,126,151144,1,0
286,139,152058,1,0
200,271,152973,1,0
110,120,154801,1,0
204,123,155258,1,0
204,123,155715,1,0
204,123,156172,1,0
117,203,156630,1,0
392,165,157087,1,0
132,144,157544,1,0
252,195,158001,1,0
231,99,158458,1,0
132,144,158915,1,0
281,164,159372,1,0
252,195,159829,1,0
151,163,161658,1,0
207,153,162572,1,0
207,153,163486,1,0
207,153,164400,1,0
316,156,165315,1,0
151,253,166229,1,0
126,102,167143,1,0
341,97,168057,1,0
333,182,168972,1,0
175,179,169886,1,0
89,104,170800,1,0
234,136,171714,1,0
248,176,172629,1,0
60,156,173543,1,0
200,168,174457,1,0
243,175,175371,1,0
107,212,176285,1,0
361,159,177200,1,0
143,170,178114,1,0
392,143,179028,1,0
229,174,179942,1,0
353,220,180857,1,0
268,98,181771,1,0
133,145,182685,1,0
352,207,183599,1,0
280,163,184056,1,0
133,120,184514,1,0
133,120,184971,1,0
130,196,192285,2,0,B|404:175,34,140
340,104,222454,1,0
111,148,222911,1,0
231,181,223825,1,0
363,209,226111,1,0
146,177,227025,1,0
336,168,227940,1,0
144,184,229768,1,0
144,184,230225,1,0
144,184,231596,1,0
272,176,233425,1,0
117,176,234339,1,0
331,190,235253,1,0
150,117,237082,1,0
150,117,237539,1,0
150,117,237996,1,0
150,117,238453,1,0
340,217,239367,1,0
187,222,240282,1,0
311,118,241196,1,0
130,140,242110,1,0
399,200,243024,1,0
208,240,243939,1,0
76,184,244853,1,0
328,172,245767,1,0
196,136,246681,1,0
429,79,247595,1,0
213,213,248510,1,0
399,161,249424,1,0
161,129,250338,1,0
346,151,251252,1,0
236,214,252167,1,0
114,176,253081,1,0
344,160,253995,1,0
155,126,254909,1,0
356,114,255824,1,0
267,312,256738,1,0
97,220,257652,1,0
372,116,258566,1,0
192,122,259480,1,0
360,255,260395,1,0
230,242,261309,1,0
371,158,262223,1,0
198,162,263137,1,0
344,213,264052,1,0
301,93,264966,1,0
205,135,265880,1,0
387,176,266794,1,0
307,92,267709,1,0
