osu file format v9

[General]
AudioFilename: 03.mp3
AudioLeadIn: 3000
PreviewTime: 92849
Countdown: 0
SampleSet: Normal
StackLeniency: 0.7
Mode: 0
LetterboxInBreaks: 1

[Editor]
Bookmarks: 67570
DistanceSpacing: 0.9
BeatDivisor: 4
GridSize: 4

[Metadata]
Title:Ryuu to Sakura Miko (Instrumental)
Artist:Drop
Creator:grasscarp
Version:Normal
Source:
Tags:tutuhaha

[Difficulty]
HPDrainRate:2
CircleSize:3
OverallDifficulty:2
ApproachRate:2
SliderMultiplier:0.999999999999999
SliderTickRate:1

[Events]
//Background and Video events
0,0,"01b9edcd2d75c7080eb345fc.jpg"
//Break Periods
//Storyboard Layer 0 (Background)
//Storyboard Layer 1 (Fail)
//Storyboard Layer 2 (Pass)
//Storyboard Layer 3 (Foreground)
//Storyboard Sound Samples
//Background Colour Transformations
3,100,163,162,255

[TimingPoints]
261,304.568527918782,4,1,1,50,1,0

[Colours]
Combo1 : 228,141,193
Combo2 : 33,95,49
Combo3 : 153,0,0
Combo4 : 192,168,52

[HitObjects]
108,72,413,1,0
196,48,717,1,0
256,116,1022,2,0,B|320:64|416:100,1,150
397,93,1783,1,0
312,196,2240,1,0
480,256,2849,1,0
412,316,3154,1,0
328,292,3458,2,0,B|264:344|168:308,1,150
186,314,4220,1,0
256,200,4676,1,0
100,112,5286,2,0,B|200:68|296:116,1,200
472,148,6504,2,0,B|352:156|304:249,1,200
132,292,7722,1,0
196,356,8027,1,0
280,328,8332,2,0,B|356:288|348:192,1,150
316,120,9093,2,0,B|268:68,5,50
196,64,10159,1,0
144,136,10464,1,0
196,208,10768,2,0,B|180:268|232:312,1,99.9999999999999
260,320,11225,2,0,B|416:300,1,150
428,212,11986,2,0,B|328:223,1,99.9999999999999
256,172,12596,1,0
252,84,12900,1,0
332,44,13205,2,0,B|376:84|364:136,1,99.9999999999999
340,172,13662,2,0,B|184:152,1,150
204,244,14423,2,0,B|303:255,1,99.9999999999999
392,244,15032,1,0
340,172,15337,1,0
428,160,15641,2,0,B|404:64,1,99.9999999999999
364,40,16098,2,0,B|280:8|208:48,1,150
216,132,16859,2,0,B|164:156|112:140,1,99.9999999999999
56,208,17469,2,0,B|40:260,1,50
132,256,17925,2,0,B|140:304,1,50
224,272,18382,2,0,B|256:316,1,50
320,252,18839,2,0,B|368:284,1,50
400,200,19296,2,0,B|452:224,2,50
320,164,19905,1,0
228,164,20210,1,0
180,88,20514,2,0,B|124:72|80:112,1,99.9999999999999
64,148,20971,2,0,B|80:308,1,150
164,328,21733,2,0,B|152:228,1,99.9999999999999
228,180,22342,1,0
312,216,22647,1,0
332,304,22951,2,0,B|388:320|432:280,1,99.9999999999999
464,260,23408,2,0,B|448:100,1,150
364,80,24170,2,0,B|375:179,1,99.9999999999999
300,232,24778,1,0
300,232,25083,1,0
260,152,25387,2,0,B|160:163,1,99.9999999999999
116,168,25844,2,0,B|80:248|136:324,1,150
208,348,26606,2,0,B|216:292|188:252,1,99.9999999999999
264,204,27215,2,0,B|284:256,1,50
356,204,27672,2,0,B|401:183,1,50
360,104,28129,2,0,B|339:58,1,50
264,108,28585,2,0,B|218:128,1,50
200,40,29042,2,0,B|245:19,4,50
124,88,29956,1,0
100,176,30261,2,0,B|96:228|140:276,1,99.9999999999999
176,268,30717,2,0,B|256:232|344:292,1,150
396,324,31479,1,0
396,324,31783,1,0
464,268,32088,2,0,B|479:161,1,99.9999999999999
404,120,32697,2,0,B|388:228,1,99.9999999999999
348,232,33153,2,0,B|248:248|191:165,1,150
188,104,33915,1,0
188,104,34220,1,0
252,40,34524,2,0,B|296:72|284:144,1,99.9999999999999
224,192,35134,2,0,B|174:214|117:167,1,99.9999999999999
96,148,35590,1,0
72,280,36047,2,0,B|104:324|176:312,2,99.9999999999999
148,232,36961,2,0,B|204:221|236:265,1,99.9999999999999
324,288,37570,2,0,B|432:280,1,99.9999999999999
468,276,38027,1,0
380,172,38484,1,0
416,88,38788,2,0,B|472:84,4,50
380,172,39702,1,0
304,124,40007,2,0,B|204:116,1,99.9999999999999
160,112,40463,2,0,B|72:136|64:228,1,150
72,308,41225,1,0
72,308,41529,1,0
156,344,41834,2,0,B|171:237,1,99.9999999999999
256,216,42443,2,0,B|240:324,1,99.9999999999999
240,360,42899,2,0,B|324:388|392:320,1,150
432,256,43661,1,0
432,256,43966,1,0
396,172,44270,2,0,B|364:216|292:204,1,99.9999999999999
224,172,44880,2,0,B|209:73,1,99.9999999999999
204,28,45337,1,0
136,144,45793,2,0,B|104:188|32:176,2,99.9999999999999
224,172,46707,2,0,B|324:152,1,99.9999999999999
372,228,47316,2,0,B|404:183|476:195,1,99.9999999999999
504,204,47773,1,0
492,68,48230,1,0
404,68,48534,2,0,B|364:40,4,50
444,148,49448,1,0
488,228,49753,1,0
408,268,50057,2,0,B|400:320,2,50
340,208,50667,1,0
260,248,50971,2,0,B|224:296|256:352,1,99.9999999999999
160,332,51580,2,0,B|140:276|71:276,1,99.9999999999999
28,208,52189,2,0,B|40:152,1,50
128,144,52646,2,0,B|137:94,1,50
216,52,53103,1,0
296,92,53408,2,0,B|356:96|404:48,1,99.9999999999999
480,68,54017,1,0
512,152,54321,1,0
468,232,54626,2,0,B|392:256|392:256|308:232,2,150
480,320,55844,2,0,B|384:348,1,99.9999999999999
300,320,56453,2,0,B|252:305,1,50
172,264,56910,2,0,B|220:228,1,50
136,188,57367,2,0,B|112:132,1,50
44,88,57824,2,0,B|73:47,1,50
164,36,58281,2,0,B|183:81,4,50
252,28,59195,1,0
328,76,59499,1,0
404,124,59804,2,0,B|464:108,2,50
344,192,60414,1,0
276,252,60718,2,0,B|308:296|280:356,1,99.9999999999999
372,332,61327,2,0,B|392:276|461:276,1,99.9999999999999
484,192,61936,2,0,B|472:136,1,50
384,144,62393,2,0,B|375:94,1,50
296,52,62850,1,0
216,92,63155,2,0,B|156:96|108:48,1,99.9999999999999
52,116,63763,1,0
96,196,64068,1,0
72,284,64372,2,0,B|104:318|164:314,1,99.9999999999999
208,332,64829,2,0,B|312:312,1,99.9999999999999
352,308,65286,1,0
424,256,65590,2,0,B|488:244,2,50
440,168,66200,2,0,B|452:120,1,50
364,96,66656,2,0,B|352:48,1,50
280,100,67113,2,0,B|292:148,1,50
204,140,67570,2,0,B|192:188,1,50
124,248,68027,2,0,B|136:296,2,50
48,200,68636,1,0
112,136,68941,1,0
204,140,69245,2,0,B|256:124|308:152,1,99.9999999999999
332,184,69702,1,0
376,200,69854,2,0,B|432:192|453:142,1,99.9999999999999
456,52,70464,2,0,B|399:59|378:109,1,99.9999999999999
332,184,71073,1,0
376,264,71377,1,0
304,320,71682,2,0,B|252:352|192:328,1,99.9999999999999
164,316,72139,1,0
124,296,72291,2,0,B|108:192,1,99.9999999999999
184,148,72900,2,0,B|191:197,2,50
272,152,73509,1,0
340,212,73814,1,0
424,188,74118,2,0,B|480:156|480:84|424:44,1,150
356,32,74880,2,0,B|352:96,1,50
272,120,75337,1,0
204,64,75641,1,0
116,84,75946,2,0,B|56:116|62:177,1,99.9999999999999
152,180,76555,2,0,B|116:237|151:287,1,99.9999999999999
172,308,77012,2,0,B|276:296,1,99.9999999999999
316,292,77469,1,0
396,332,77773,2,0,B|448:328,4,50
412,244,78687,1,0
488,200,78991,2,0,B|476:96,1,99.9999999999999
444,68,79448,1,0
404,48,79601,2,0,B|340:32|296:72,1,99.9999999999999
340,148,80210,2,0,B|292:178|244:162,1,99.9999999999999
204,84,80819,1,0
116,60,81123,1,0
48,120,81428,2,0,B|60:223,1,99.9999999999999
92,251,81885,1,0
132,271,82038,2,0,B|196:287|240:247,1,99.9999999999999
272,180,82646,2,0,B|332:180,2,50
304,96,83255,1,0
396,96,83560,1,0
448,172,83865,2,0,B|496:216|472:296|412:308,1,150
348,276,84626,2,0,B|340:328,1,50
260,288,85083,1,0
180,248,85387,1,0
92,260,85692,2,0,B|56:212|84:160,1,99.9999999999999
136,96,86301,2,0,B|192:76,3,50
240,148,87063,2,0,B|296:168,1,50
420,192,87672,2,0,B|456:192,2,25
256,192,88129,12,0,90565
