osu file format v14

[General]
AudioFilename: granat.mp3
AudioLeadIn: 2000
PreviewTime: 281
Countdown: 0
SampleSet: Soft
StackLeniency: 0.5
Mode: 0
LetterboxInBreaks: 0
WidescreenStoryboard: 1

[Editor]
Bookmarks: 281,6249,14206,16196,22164,24153,32111,40068
DistanceSpacing: 1.3
BeatDivisor: 4
GridSize: 4
TimelineZoom: 2.3

[Metadata]
Title:Granat
TitleUnicode:Granat
Artist:Drop
ArtistUnicode:Drop
Creator:Sinnoh
Version:Hard
Source:
Tags:Akitoshi Corinn Ascendance ktgster 竜と炎の物語 清風明月 c85 seifuu meigetsu ryuu to honou no monogatari Dragon and Flame
BeatmapID:1247650
BeatmapSetID:572387

[Difficulty]
HPDrainRate:4
CircleSize:3.5
OverallDifficulty:6
ApproachRate:7.5
SliderMultiplier:1.49999990463257
SliderTickRate:1

[Events]
//Background and Video events
0,0,"audio.jpg",0,0
//Break Periods
//Storyboard Layer 0 (Background)
//Storyboard Layer 1 (Fail)
//Storyboard Layer 2 (Pass)
//Storyboard Layer 3 (Foreground)
//Storyboard Sound Samples

[TimingPoints]
281,331.5649867374,3,2,2,50,1,0
24153,-125,3,2,3,30,0,0
32111,-100,3,2,3,40,0,0
40068,-142.857142857143,3,2,3,20,0,0

[Colours]
Combo1 : 0,183,91
Combo2 : 217,217,217
Combo3 : 248,58,58

[HitObjects]
422,132,281,6,0,P|438:197|391:289,1,149.999990463257,6|0,0:0|0:0,0:0:0:0:
369,357,778,1,0,0:0:0:0:
313,281,944,2,0,P|266:281|224:286,1,74.9999952316285,2|0,0:0|0:0,0:0:0:0:
168,202,1275,2,0,P|240:194|317:193,1,149.999990463257,8|0,0:0|0:0,0:0:0:0:
351,100,1773,1,0,0:0:0:0:
305,14,1938,2,0,P|260:8|218:8,1,74.9999952316285
112,48,2270,6,0,P|105:88|129:142,1,74.9999952316285,2|0,0:0|0:0,0:0:0:0:
167,201,2601,2,0,P|175:237|168:273,2,74.9999952316285,0|0|2,0:0|0:0|0:0,0:0:0:0:
70,209,3099,1,0,0:0:0:0:
67,306,3265,2,0,P|51:350|27:382,1,74.9999952316285,8|0,0:0|0:0,0:0:0:0:
168,274,3596,2,0,P|239:270|338:290,1,149.999990463257
494,361,4259,6,0,P|475:322|461:202,1,149.999990463257,2|0,0:0|0:0,0:0:0:0:
427,124,4757,1,0,0:0:0:0:
342,75,4922,2,0,P|293:73|245:82,1,74.9999952316285,2|0,0:0|0:0,0:0:0:0:
159,161,5254,2,0,P|231:178|315:172,1,149.999990463257,8|0,0:0|0:0,0:0:0:0:
354,258,5751,1,0,0:0:0:0:
335,353,5917,2,0,P|263:362|241:360,1,74.9999952316285,2|0,0:0|0:0,0:0:0:0:
168,299,6249,6,0,P|107:288|14:304,2,149.999990463257,2|0|0,0:0|0:0|0:0,0:0:0:0:
267,144,7243,2,0,P|197:175|49:136,1,224.999985694886,8|0,0:0|0:0,0:0:0:0:
88,50,7906,1,2,0:0:0:0:
267,144,8238,6,0,P|274:210|254:298,1,149.999990463257,6|0,0:0|0:0,0:0:0:0:
353,327,8735,1,0,0:0:0:0:
392,233,8901,2,0,P|394:179|386:138,1,74.9999952316285,2|0,0:0|0:0,0:0:0:0:
345,47,9233,2,0,P|282:22|190:39,2,149.999990463257,8|0|2,0:0|0:0|0:0,0:0:0:0:
193,160,10227,6,0,P|110:177|40:158,1,149.999990463257,2|0,0:0|0:0,0:0:0:0:
0,247,10725,1,0,0:0:0:0:
74,310,10891,2,0,P|81:351|71:400,1,74.9999952316285,2|0,0:0|0:0,0:0:0:0:
193,289,11222,2,0,P|258:261|407:300,1,224.999985694886,8|0,0:0|0:0,0:0:0:0:
360,384,11885,1,2,0:0:0:0:
193,289,12217,6,0,P|183:223|200:134,1,149.999990463257,2|0,0:0|0:0,0:0:0:0:
284,98,12714,1,0,0:0:0:0:
199,49,12880,2,0,P|147:50|109:59,1,74.9999952316285,2|0,0:0|0:0,0:0:0:0:
285,12,13212,2,0,P|365:15|448:46,1,149.999990463257,8|0,0:0|0:0,0:0:0:0:
478,122,13709,2,0,P|480:165|496:203,1,74.9999952316285,0|2,0:0|0:0,0:0:0:0:
312,313,14206,6,0,L|212:322,2,74.9999952316285,2|0|0,0:0|0:0|0:0,0:0:0:0:
334,222,14704,2,0,L|426:213,2,74.9999952316285,2|0|0,0:0|0:0|0:0,0:0:0:0:
253,166,15201,2,0,P|216:156|179:157,2,74.9999952316285,8|0|0,0:0|0:0|0:0,0:0:0:0:
178,257,15698,2,0,P|111:234|95:220,2,74.9999952316285,2|0|0,0:0|0:0|0:0,0:0:0:0:
248,353,16196,6,0,P|327:378|411:354,1,149.999990463257,6|0,0:0|0:0,0:0:0:0:
384,267,16693,1,0,0:0:0:0:
314,198,16859,2,0,P|274:193|227:194,1,74.9999952316285,2|0,0:0|0:0,0:0:0:0:
286,96,17190,2,0,P|344:100|432:136,2,149.999990463257,8|0|0,0:0|0:0|0:0,0:0:0:0:
153,252,18185,6,0,P|163:198|141:82,1,149.999990463257,6|0,0:0|0:0,0:0:0:0:
63,60,18682,1,0,0:0:0:0:
48,156,18848,2,0,P|51:210|39:250,1,74.9999952316285,2|0,0:0|0:0,0:0:0:0:
127,343,19180,2,0,P|188:359|364:335,1,224.999985694886,8|0,0:0|0:0,0:0:0:0:
390,255,19842,1,0,0:0:0:0:
291,114,20174,6,0,P|281:156|296:271,1,149.999990463257,6|0,0:0|0:0,0:0:0:0:
390,255,20672,1,0,0:0:0:0:
436,170,20837,2,0,P|477:165|513:171,1,74.9999952316285,2|0,0:0|0:0,0:0:0:0:
416,73,21169,2,0,P|368:47|263:37,1,149.999990463257,8|0,0:0|0:0,0:0:0:0:
177,51,21666,2,0,P|114:50|92:46,2,74.9999952316285
217,140,22164,6,0,L|223:217,1,74.9999952316285,2|8,0:0|0:0,0:0:0:0:
40,145,22661,2,0,L|34:223,1,74.9999952316285,2|8,0:0|0:0,0:0:0:0:
164,338,23158,2,0,P|201:334|245:341,1,74.9999952316285,2|2,0:0|0:0,0:0:0:0:
333,363,23490,2,0,P|398:364|480:336,1,149.999990463257,2|0,0:0|0:0,0:0:0:0:
444,175,24153,6,0,P|441:121|458:50,1,119.999992370606,2|0,0:0|0:0,0:0:0:0:
380,34,24651,1,0,0:0:0:0:
310,69,24816,2,0,P|262:74|245:72,1,59.9999961853028
173,59,25148,1,8,0:0:0:0:
93,279,25811,2,0,P|89:232|93:205,1,59.9999961853028
147,165,26143,6,0,P|227:154|269:161,1,119.999992370606,2|0,0:0|0:0,0:0:0:0:
332,199,26640,1,0,0:0:0:0:
355,103,26805,1,0,0:0:0:0:
383,282,27137,1,8,0:0:0:0:
479,154,27469,2,0,P|486:213|469:270,1,119.999992370606
298,273,28132,6,0,P|240:264|179:278,1,119.999992370606,2|0,0:0|0:0,0:0:0:0:
102,313,28629,1,0,0:0:0:0:
109,232,28795,2,0,P|105:196|92:159,1,59.9999961853028
60,104,29127,1,8,0:0:0:0:
286,34,29790,2,0,P|282:75|286:102,1,59.9999961853028
313,165,30121,5,2,0:0:0:0:
457,325,30619,2,0,P|465:354|465:384,2,59.9999961853028
379,332,31116,1,8,0:0:0:0:
269,251,31448,2,0,P|202:249|123:264,1,119.999992370606
198,78,32111,6,0,P|216:45|247:11,1,74.9999952316285,4|0,0:0|0:0,0:0:0:0:
338,27,32442,2,0,P|356:59|387:93,1,74.9999952316285
462,142,32774,2,0,P|437:170|418:202,1,74.9999952316285
335,257,33106,2,0,P|341:300|334:338,2,74.9999952316285,8|0|0,0:0|0:0|0:0,0:0:0:0:
237,247,33603,1,0,0:0:0:0:
142,270,33769,2,0,P|93:266|66:256,1,74.9999952316285
59,160,34100,6,0,P|56:118|43:85,1,74.9999952316285,4|0,0:0|0:0,0:0:0:0:
120,35,34433,2,0,P|157:53|192:58,1,74.9999952316285
219,146,34763,2,0,P|213:187|220:222,1,74.9999952316285
281,295,35095,2,0,P|286:352|278:396,2,74.9999952316285,8|0|0,0:0|0:0|0:0,0:0:0:0:
355,231,35592,1,0,0:0:0:0:
386,323,35758,2,0,P|453:340|480:339,1,74.9999952316285
499,242,36090,6,0,P|500:195|487:161,1,74.9999952316285,4|0,0:0|0:0,0:0:0:0:
423,99,36421,2,0,P|422:52|435:18,1,74.9999952316285
329,46,36753,2,0,P|291:43|255:53,1,74.9999952316285
169,97,37084,2,0,P|132:106|95:103,2,74.9999952316285,8|0|0,0:0|0:0|0:0,0:0:0:0:
252,148,37582,1,0,0:0:0:0:
189,221,37747,2,0,P|181:273|188:323,1,74.9999952316285
253,362,38079,6,0,P|287:361|328:366,1,74.9999952316285,4|0,0:0|0:0,0:0:0:0:
348,266,38410,2,0,P|311:269|274:269,1,74.9999952316285
305,177,38742,2,0,P|342:172|380:173,1,74.9999952316285
449,241,39074,2,0,P|458:286|454:331,2,74.9999952316285,8|0|0,0:0|0:0|0:0,0:0:0:0:
473,146,39571,2,0,P|464:101|468:56,1,74.9999952316285
270,62,40068,6,0,P|205:65|152:55,2,104.999990119935,8|0|0,0:0|0:0|0:0,0:0:0:0:
214,182,41063,2,0,P|149:179|92:188,2,104.999990119935
348,205,42058,1,2,0:0:0:0:
