osu file format v14

[General]
AudioFilename: granat.mp3
AudioLeadIn: 2000
PreviewTime: 281
Countdown: 0
SampleSet: Soft
StackLeniency: 0.5
Mode: 0
LetterboxInBreaks: 0
WidescreenStoryboard: 1

[Editor]
Bookmarks: 24153
DistanceSpacing: 1.7
BeatDivisor: 4
GridSize: 32
TimelineZoom: 2.3

[Metadata]
Title:Granat
TitleUnicode:Granat
Artist:Drop
ArtistUnicode:Drop
Creator:Sinnoh
Version:Ascenster's Insane
Source:
Tags:Akitoshi Corinn Ascendance ktgster 竜と炎の物語 清風明月 c85 seifuu meigetsu ryuu to honou no monogatari Dragon and Flame
BeatmapID:1255280
BeatmapSetID:572387

[Difficulty]
HPDrainRate:5
CircleSize:4.4
OverallDifficulty:7.5
ApproachRate:8.6
SliderMultiplier:1.79999990463257
SliderTickRate:1

[Events]
//Background and Video events
0,0,"audio.jpg",0,0
//Break Periods
//Storyboard Layer 0 (Background)
//Storyboard Layer 1 (Fail)
//Storyboard Layer 2 (Pass)
//Storyboard Layer 3 (Foreground)
//Storyboard Sound Samples

[TimingPoints]
281,331.5649867374,3,2,2,50,1,0
3513,-100,3,2,2,15,0,0
3596,-100,3,2,2,50,0,0
24152,-125,3,2,3,30,0,0
29624,-125,3,2,3,15,0,0
29790,-125,3,2,3,30,0,0
32111,-100,3,2,3,40,0,0
40068,-100,3,2,3,30,0,0

[Colours]
Combo1 : 0,183,91
Combo2 : 217,217,217
Combo3 : 248,58,58

[HitObjects]
56,84,281,6,0,B|150:115|150:61|242:95,1,179.999990463257,6|0,0:0|0:0,0:0:0:0:
301,24,778,1,0,0:0:0:0:
186,170,944,2,0,L|200:270,1,89.9999952316285,2|0,0:0|0:0,0:0:0:0:
394,67,1275,6,0,P|341:108|319:225,1,179.999990463257,8|0,0:0|0:0,0:0:0:0:
361,304,1773,1,0,0:0:0:0:
222,350,1938,2,0,P|199:307|199:246,1,89.9999952316285,2|0,0:0|0:0,0:0:0:0:
137,136,2270,6,0,L|245:151,1,89.9999952316285,2|0,0:0|0:0,0:0:0:0:
292,70,2601,1,0,0:0:0:0:
316,214,2767,1,0,0:0:0:0:
400,29,2933,2,0,L|295:40,1,89.9999952316285,2|0,0:0|0:0,0:0:0:0:
418,268,3265,6,0,P|398:198|434:120,1,134.999992847443,8|0,0:0|0:0,0:0:0:0:
479,97,3596,2,0,P|490:53|488:21,2,59.9999968210857
396,46,3928,2,0,P|345:46|300:58,1,89.9999952316285,2|0,0:0|0:0,0:0:0:0:
183,116,4259,6,0,P|255:165|272:266,1,179.999990463257,2|0,0:0|0:0,0:0:0:0:
243,353,4757,1,0,0:0:0:0:
91,273,4922,2,0,P|139:260|176:210,1,89.9999952316285,2|0,0:0|0:0,0:0:0:0:
52,32,5254,6,0,P|36:82|94:189,1,179.999990463257,8|0,0:0|0:0,0:0:0:0:
191,243,5751,1,0,0:0:0:0:
226,77,5917,2,0,P|172:84|110:104,1,89.9999952316285,2|0,0:0|0:0,0:0:0:0:
279,143,6249,6,0,P|310:90|245:-5,2,179.999990463257,2|0|2,0:0|0:0|0:0,0:0:0:0:
193,199,7078,1,0,0:0:0:0:
340,322,7243,2,0,P|242:321|157:366,1,179.999990463257,8|0,0:0|0:0,0:0:0:0:
70,281,7741,1,0,0:0:0:0:
185,109,7906,2,0,P|192:161|192:216,1,89.9999952316285,2|0,0:0|0:0,0:0:0:0:
43,52,8238,5,6,0:0:0:0:
78,158,8404,1,0,0:0:0:0:
185,109,8570,2,0,L|281:115,1,89.9999952316285,2|0,0:0|0:0,0:0:0:0:
312,207,8901,1,0,0:0:0:0:
248,20,9067,1,2,0:0:0:0:
320,222,9233,6,0,B|228:253|228:197|134:233,1,179.999990463257,8|0,0:0|0:0,0:0:0:0:
191,321,9730,1,0,0:0:0:0:
269,149,9896,2,0,P|276:100|262:52,1,89.9999952316285,2|0,0:0|0:0,0:0:0:0:
174,22,10227,5,2,0:0:0:0:
174,22,10559,1,2,0:0:0:0:
266,61,10725,1,0,0:0:0:0:
150,163,10891,2,0,L|42:157,1,89.9999952316285,0|2,0:0|0:0,0:0:0:0:
185,277,11222,6,0,P|263:270|362:315,1,179.999990463257,8|0,0:0|0:0,0:0:0:0:
426,379,11719,1,2,0:0:0:0:
291,233,11885,2,0,P|282:177|286:130,1,89.9999952316285,0|2,0:0|0:0,0:0:0:0:
361,77,12217,6,0,P|292:99|186:89,1,179.999990463257,2|2,0:0|0:0,0:0:0:0:
94,42,12714,1,0,0:0:0:0:
169,224,12880,1,0,0:0:0:0:
44,170,13046,1,0,0:0:0:0:
119,359,13212,5,8,0:0:0:0:
119,359,13543,1,0,0:0:0:0:
207,294,13709,1,2,0:0:0:0:
82,137,13875,2,0,P|84:184|92:236,1,89.9999952316285,0|2,0:0|0:0,0:0:0:0:
267,365,14206,6,0,P|313:360|356:343,2,89.9999952316285,2|0|0,0:0|0:0|0:0,0:0:0:0:
335,253,14704,2,0,P|386:236|421:204,2,89.9999952316285,2|0|0,0:0|0:0|0:0,0:0:0:0:
220,206,15201,6,0,P|174:201|131:184,2,89.9999952316285,8|0|0,0:0|0:0|0:0,0:0:0:0:
152,94,15699,2,0,P|101:77|66:45,2,89.9999952316285,2|0|0,0:0|0:0|0:0,0:0:0:0:
403,47,16196,6,0,P|312:10|231:33,1,179.999990463257,6|2,0:0|0:0,0:0:0:0:
152,94,16693,1,0,0:0:0:0:
238,201,16859,1,0,0:0:0:0:
236,30,17025,1,0,0:0:0:0:
156,266,17190,6,0,P|237:253|346:292,1,179.999990463257,8|0,0:0|0:0,0:0:0:0:
433,340,17688,1,2,0:0:0:0:
480,182,17853,1,2,0:0:0:0:
480,182,18185,6,0,B|381:159|381:220|277:166,1,179.999990463257,6|2,0:0|0:0,0:0:0:0:
439,281,18682,1,0,0:0:0:0:
347,95,18848,1,0,0:0:0:0:
488,187,19014,1,0,0:0:0:0:
290,288,19180,6,0,P|209:288|223:201,1,179.999990463257,8|0,0:0|0:0,0:0:0:0:
304,178,19677,1,2,0:0:0:0:
381,279,19843,2,0,P|372:330|348:363,1,89.9999952316285,0|2,0:0|0:0,0:0:0:0:
127,207,20174,6,0,P|154:159|190:136,1,89.9999952316285,6|0,0:0|0:0,0:0:0:0:
148,286,20506,2,0,P|89:279|59:250,1,89.9999952316285,2|0,0:0|0:0,0:0:0:0:
6,187,20838,1,0,0:0:0:0:
25,348,21003,1,2,0:0:0:0:
223,228,21169,6,0,L|404:215,1,179.999990463257,8|0,0:0|0:0,0:0:0:0:
321,314,21666,1,2,0:0:0:0:
402,116,21832,1,0,0:0:0:0:
463,277,21998,1,2,0:0:0:0:
245,160,22164,5,6,0:0:0:0:
485,72,22330,1,8,0:0:0:0:
234,192,22661,5,2,0:0:0:0:
474,104,22827,1,8,0:0:0:0:
224,227,23158,5,2,0:0:0:0:
373,153,23324,1,2,0:0:0:0:
244,27,23490,1,2,0:0:0:0:
244,27,23822,1,0,0:0:0:0:
456,294,24153,5,2,0:0:0:0:
362,256,24319,1,0,0:0:0:0:
270,298,24485,1,0,0:0:0:0:
176,260,24651,1,0,0:0:0:0:
49,351,24816,2,0,P|83:365|138:361,1,71.9999961853028
280,164,25148,6,0,B|204:120|176:152|136:196|56:132,1,215.999988555908,8|0,0:0|0:0,0:0:0:0:
133,63,25811,1,0,0:0:0:0:
133,63,25977,1,0,0:0:0:0:
35,266,26143,6,0,P|94:253|206:348,1,215.999988555908,2|0,0:0|0:0,0:0:0:0:
327,204,26806,2,0,P|322:252|335:292,1,71.9999961853028
442,109,27137,2,0,P|447:61|434:21,1,71.9999961853028,8|0,0:0|0:0,0:0:0:0:
275,83,27469,2,0,L|345:75,2,47.9999974568685
214,22,27800,2,0,P|191:58|197:118,1,71.9999961853028
56,294,28132,5,2,0:0:0:0:
150,256,28298,1,0,0:0:0:0:
242,298,28464,1,0,0:0:0:0:
336,260,28630,1,0,0:0:0:0:
463,351,28795,2,0,P|429:365|374:361,1,71.9999961853028
274,184,29127,6,0,B|350:140|378:172|418:216|498:152,1,215.999988555908,8|0,0:0|0:0,0:0:0:0:
499,65,29790,1,0,0:0:0:0:
398,78,29956,1,0,0:0:0:0:
477,278,30121,6,0,P|418:265|306:360,1,215.999988555908,2|0,0:0|0:0,0:0:0:0:
185,206,30784,2,0,P|188:240|169:289,1,71.9999961853028
327,157,31116,1,8,0:0:0:0:
327,157,31448,2,0,P|333:129|348:101,2,47.9999974568685
369,226,31779,2,0,P|406:228|451:213,1,71.9999961853028
413,367,32111,5,4,0:0:0:0:
339,315,32277,1,0,0:0:0:0:
250,329,32442,1,0,0:0:0:0:
368,137,32608,2,0,P|376:184|357:249,2,89.9999952316285
119,282,33106,5,8,0:0:0:0:
193,230,33272,1,0,0:0:0:0:
282,244,33437,1,0,0:0:0:0:
164,52,33603,2,0,P|156:99|175:164,2,89.9999952316285
19,336,34100,6,0,P|27:289|8:224,1,89.9999952316285,4|0,0:0|0:0,0:0:0:0:
0,159,34432,1,0,0:0:0:0:
0,159,34597,1,0,0:0:0:0:
166,183,34764,2,0,P|158:138|166:94,1,89.9999952316285
339,0,35095,6,0,P|347:47|328:112,1,89.9999952316285,8|0,0:0|0:0,0:0:0:0:
320,177,35427,1,0,0:0:0:0:
320,177,35592,1,0,0:0:0:0:
486,153,35758,2,0,P|478:198|486:242,1,89.9999952316285
301,365,36090,5,4,0:0:0:0:
218,331,36255,1,0,0:0:0:0:
288,276,36421,1,0,0:0:0:0:
205,242,36587,1,0,0:0:0:0:
301,365,36753,2,0,P|349:367|398:351,1,89.9999952316285
384,153,37084,5,8,0:0:0:0:
301,187,37249,1,0,0:0:0:0:
371,242,37415,1,0,0:0:0:0:
288,276,37581,1,0,0:0:0:0:
384,153,37747,2,0,P|432:151|481:167,1,89.9999952316285
507,336,38079,5,4,0:0:0:0:
288,276,38245,1,0,0:0:0:0:
143,381,38410,2,0,L|246:371,1,89.9999952316285
87,192,38742,2,0,P|66:236|77:297,1,89.9999952316285
307,188,39074,5,8,0:0:0:0:
307,188,39239,1,0,0:0:0:0:
241,128,39405,1,0,0:0:0:0:
288,276,39571,1,0,0:0:0:0:
393,161,39737,1,0,0:0:0:0:
36,251,40068,5,8,0:0:0:0:
212,214,40400,1,0,0:0:0:0:
4,119,40731,5,0,0:0:0:0:
185,129,41063,1,0,0:0:0:0:
26,349,41395,5,0,0:0:0:0:
201,299,41727,1,0,0:0:0:0:
324,59,42058,5,2,0:0:0:0:
