osu file format v14

[General]
AudioFilename: granat.mp3
AudioLeadIn: 2000
PreviewTime: 281
Countdown: 0
SampleSet: Soft
StackLeniency: 0.5
Mode: 0
LetterboxInBreaks: 0
WidescreenStoryboard: 1

[Editor]
Bookmarks: 24153
DistanceSpacing: 1.5
BeatDivisor: 4
GridSize: 32
TimelineZoom: 2.3

[Metadata]
Title:Granat
TitleUnicode:Granat
Artist:Drop
ArtistUnicode:Drop
Creator:Sinnoh
Version:Ascendance's Easy
Source:
Tags:Akitoshi Corinn Ascendance ktgster 竜と炎の物語 清風明月 c85 seifuu meigetsu ryuu to honou no monogatari Dragon and Flame
BeatmapID:1388078
BeatmapSetID:572387

[Difficulty]
HPDrainRate:3
CircleSize:2.6
OverallDifficulty:3.5
ApproachRate:3
SliderMultiplier:0.69999990463257
SliderTickRate:1

[Events]
//Background and Video events
0,0,"audio.jpg",0,0
//Break Periods
//Storyboard Layer 0 (Background)
//Storyboard Layer 1 (Fail)
//Storyboard Layer 2 (Pass)
//Storyboard Layer 3 (Foreground)
//Storyboard Sound Samples

[TimingPoints]
281,331.5649867374,3,2,2,50,1,0
24152,-100,3,2,3,30,0,0
32111,-100,3,2,3,40,0,0
40068,-100,3,2,3,20,0,0

[Colours]
Combo1 : 0,183,91
Combo2 : 217,217,217
Combo3 : 248,58,58

[HitObjects]
61,84,281,6,0,B|141:103|141:103|210:86,1,139.999980926514,6|0,0:0|0:0,0:0:0:0:
275,19,1275,2,0,P|301:73|281:152,1,139.999980926514,8|0,0:0|0:0,0:0:0:0:
184,182,2270,2,0,B|165:262|165:262|182:331,1,139.999980926514,2|0,0:0|0:0,0:0:0:0:
267,262,3265,2,0,P|308:258|350:264,2,69.999990463257,8|0|0,0:0|0:0|0:0,0:0:0:0:
178,318,4259,6,0,B|105:330|105:330|40:305,1,139.999980926514,2|0,0:0|0:0,0:0:0:0:
7,207,5254,2,0,L|20:55,1,139.999980926514,8|0,0:0|0:0,0:0:0:0:
118,34,6249,2,0,P|160:37|188:34,1,69.999990463257,2|0,0:0|0:0,0:0:0:0:
288,4,6912,1,0,0:0:0:0:
248,101,7243,2,0,B|244:190|244:190|271:248,1,139.999980926514,8|0,0:0|0:0,0:0:0:0:
356,289,8238,6,0,P|298:283|217:323,1,139.999980926514,6|0,0:0|0:0,0:0:0:0:
129,271,9233,1,8,0:0:0:0:
230,87,9896,1,0,0:0:0:0:
316,28,10227,2,0,L|461:46,1,139.999980926514,2|0,0:0|0:0,0:0:0:0:
391,129,11222,2,0,P|384:202|400:277,1,139.999980926514,8|0,0:0|0:0,0:0:0:0:
471,340,12217,6,0,P|413:369|336:354,1,139.999980926514,2|0,0:0|0:0,0:0:0:0:
280,270,13212,1,8,0:0:0:0:
84,345,13875,1,0,0:0:0:0:
164,278,14206,2,0,B|183:228|183:228|165:164,1,104.999985694885,2|2,0:0|0:0,0:0:0:0:
298,88,15201,2,8,B|279:138|279:138|297:202,1,104.999985694885,8|2,0:0|0:0,0:0:0:0:
430,265,16196,6,0,B|465:237|465:237|467:137,1,139.999980926514,6|0,0:0|0:0,0:0:0:0:
377,87,17190,1,8,0:0:0:0:
216,223,17854,1,0,0:0:0:0:
129,164,18185,2,0,P|108:97|143:25,1,139.999980926514,6|0,0:0|0:0,0:0:0:0:
235,9,19180,2,0,P|303:22|379:0,1,139.999980926514,8|0,0:0|0:0,0:0:0:0:
420,97,20174,6,0,P|372:110|304:172,1,139.999980926514,6|0,0:0|0:0,0:0:0:0:
307,274,21169,1,8,0:0:0:0:
232,77,21832,1,0,0:0:0:0:
148,140,22164,2,0,L|168:288,1,139.999980926514,2|8,0:0|0:0,0:0:0:0:
261,323,23158,2,0,L|340:337,2,69.999990463257,2|0|0,0:0|0:0|0:0,0:0:0:0:
166,278,24153,6,0,P|146:214|188:155,1,139.999980926514,8|0,0:0|0:0,0:0:0:0:
286,183,25148,1,2,0:0:0:0:
397,5,25811,1,0,0:0:0:0:
462,87,26143,2,0,B|438:157|438:157|469:232,1,139.999980926514,8|0,0:0|0:0,0:0:0:0:
385,288,27137,2,0,L|411:363,2,69.999990463257,2|0|0,0:0|0:0|0:0,0:0:0:0:
280,282,28132,6,0,P|211:298|142:270,1,139.999980926514,8|0,0:0|0:0,0:0:0:0:
86,189,29127,1,2,0:0:0:0:
245,51,29790,1,0,0:0:0:0:
331,109,30121,2,0,B|351:177|351:177|324:255,1,139.999980926514,8|0,0:0|0:0,0:0:0:0:
228,275,31116,2,0,L|148:285,2,69.999990463257,2|0|0,0:0|0:0|0:0,0:0:0:0:
312,337,32111,6,0,P|377:321|456:345,1,139.999980926514,4|0,0:0|0:0,0:0:0:0:
468,236,33105,2,0,P|487:178|447:108,1,139.999980926514,8|0,0:0|0:0,0:0:0:0:
350,85,34100,2,0,B|270:105|270:105|210:89,1,139.999980926514,4|0,0:0|0:0,0:0:0:0:
201,194,35095,2,0,B|121:174|121:174|61:190,1,139.999980926514,8|0,0:0|0:0,0:0:0:0:
23,285,36090,6,0,P|106:320|163:317,1,139.999980926514,4|0,0:0|0:0,0:0:0:0:
250,276,37084,2,0,P|319:278|381:309,1,139.999980926514,8|0,0:0|0:0,0:0:0:0:
467,370,38079,2,0,P|485:328|477:290,1,69.999990463257,4|0,0:0|0:0,0:0:0:0:
412,226,38742,2,0,P|394:184|402:146,1,69.999990463257
484,104,39405,2,0,P|502:62|494:24,1,69.999990463257
394,39,40068,6,0,L|323:41,1,69.999990463257,8|0,0:0|0:0,0:0:0:0:
240,104,40731,2,0,L|170:97,2,69.999990463257
321,170,41726,1,0,0:0:0:0:
287,269,42058,5,2,0:0:0:0:
