osu file format v14

[General]
AudioFilename: granat.mp3
AudioLeadIn: 2000
PreviewTime: 281
Countdown: 0
SampleSet: Soft
StackLeniency: 0.5
Mode: 0
LetterboxInBreaks: 0
WidescreenStoryboard: 1

[Editor]
Bookmarks: 281,6249,14206,16196,22164,24153,32111,40068
DistanceSpacing: 1.5
BeatDivisor: 4
GridSize: 4
TimelineZoom: 2.3

[Metadata]
Title:Granat
TitleUnicode:Granat
Artist:Drop
ArtistUnicode:Drop
Creator:Sinnoh
Version:Insane
Source:
Tags:Akitoshi Corinn Ascendance ktgster 竜と炎の物語 清風明月 c85 seifuu meigetsu ryuu to honou no monogatari Dragon and Flame
BeatmapID:1363523
BeatmapSetID:572387

[Difficulty]
HPDrainRate:5
CircleSize:4
OverallDifficulty:8
ApproachRate:9
SliderMultiplier:1.79999990463257
SliderTickRate:1

[Events]
//Background and Video events
0,0,"audio.jpg",0,0
//Break Periods
//Storyboard Layer 0 (Background)
//Storyboard Layer 1 (Fail)
//Storyboard Layer 2 (Pass)
//Storyboard Layer 3 (Foreground)
//Storyboard Sound Samples

[TimingPoints]
281,331.5649867374,3,2,2,50,1,0
24152,-117.647058823529,3,2,3,30,0,0
32111,-100,3,2,3,40,0,0
40068,-166.666666666667,3,2,3,20,0,0

[Colours]
Combo1 : 0,183,91
Combo2 : 217,217,217
Combo3 : 248,58,58

[HitObjects]
36,186,281,6,0,P|111:139|192:171,1,179.999990463257,6|0,0:0|0:0,0:0:0:0:
120,241,778,1,0,0:0:0:0:
174,70,944,2,0,P|217:54|272:61,1,89.9999952316285,2|0,0:0|0:0,0:0:0:0:
377,177,1275,6,0,P|353:91|368:3,1,179.999990463257,8|0,0:0|0:0,0:0:0:0:
260,57,1773,1,0,0:0:0:0:
467,143,1938,2,0,P|471:214|447:270,1,89.9999952316285,2|0,0:0|0:0,0:0:0:0:
318,308,2270,6,0,P|260:314|204:343,1,89.9999952316285,2|0,0:0|0:0,0:0:0:0:
265,165,2601,2,0,P|206:162|147:183,1,89.9999952316285
234,25,2933,2,0,P|176:14|114:27,1,89.9999952316285,2|0,0:0|0:0,0:0:0:0:
55,237,3264,6,0,B|49:177|49:177|70:120,1,89.9999952316285,8|0,0:0|0:0,0:0:0:0:
132,303,3596,2,0,P|110:321|83:335,2,59.9999968210857
165,204,3928,1,2,0:0:0:0:
260,308,4093,1,0,0:0:0:0:
305,144,4259,6,0,P|325:188|469:195,1,179.999990463257,2|0,0:0|0:0,0:0:0:0:
401,124,4757,1,0,0:0:0:0:
398,305,4922,2,0,P|426:344|465:360,1,89.9999952316285,2|0,0:0|0:0,0:0:0:0:
305,144,5254,6,0,P|223:106|110:125,1,179.999990463257,8|0,0:0|0:0,0:0:0:0:
71,230,5751,1,0,0:0:0:0:
17,66,5917,2,0,P|16:123|3:174,1,89.9999952316285,2|0,0:0|0:0,0:0:0:0:
167,322,6249,6,0,P|166:277|174:232,1,89.9999952316285,2|0,0:0|0:0,0:0:0:0:
257,60,6580,2,0,P|256:105|264:150,1,89.9999952316285
370,310,6912,2,0,P|371:265|363:220,1,89.9999952316285,2|0,0:0|0:0,0:0:0:0:
170,331,7243,6,0,B|96:340|27:348|27:348|46:324|68:296,1,179.999990463257,8|0,0:0|0:0,0:0:0:0:
149,200,7742,1,0,0:0:0:0:
264,276,7906,2,0,P|279:320|275:363,1,89.9999952316285,2|0,0:0|0:0,0:0:0:0:
365,124,8238,5,6,0:0:0:0:
365,124,8570,1,2,0:0:0:0:
259,142,8735,1,0,0:0:0:0:
195,54,8901,1,0,0:0:0:0:
87,41,9067,1,2,0:0:0:0:
59,194,9233,5,8,0:0:0:0:
59,194,9564,2,0,L|168:201,1,89.9999952316285
320,214,9896,2,0,L|211:207,1,89.9999952316285,2|0,0:0|0:0,0:0:0:0:
45,297,10227,5,2,0:0:0:0:
45,297,10559,1,2,0:0:0:0:
153,293,10726,1,0,0:0:0:0:
221,375,10891,1,0,0:0:0:0:
326,350,11057,1,2,0:0:0:0:
396,186,11222,6,0,P|392:266|478:332,1,179.999990463257,8|0,0:0|0:0,0:0:0:0:
292,266,11719,1,0,0:0:0:0:
306,149,11885,2,0,P|291:86|251:52,1,89.9999952316285,2|0,0:0|0:0,0:0:0:0:
482,92,12217,5,2,0:0:0:0:
482,92,12548,1,2,0:0:0:0:
416,179,12715,1,0,0:0:0:0:
312,150,12880,1,0,0:0:0:0:
228,217,13045,1,2,0:0:0:0:
159,49,13212,5,8,0:0:0:0:
159,49,13543,2,0,L|151:153,1,89.9999952316285,2|0,0:0|0:0,0:0:0:0:
138,313,13875,2,0,L|146:209,1,89.9999952316285,2|0,0:0|0:0,0:0:0:0:
337,75,14206,6,0,P|399:71|428:78,1,89.9999952316285,2|0,0:0|0:0,0:0:0:0:
474,190,14539,1,0,0:0:0:0:
402,384,14704,2,0,P|376:322|380:282,1,89.9999952316285,2|0,0:0|0:0,0:0:0:0:
392,198,15035,1,2,0:0:0:0:
172,104,15201,6,0,P|221:105|269:117,1,89.9999952316285,8|0,0:0|0:0,0:0:0:0:
310,207,15532,1,0,0:0:0:0:
196,294,15698,1,2,0:0:0:0:
145,224,15864,1,0,0:0:0:0:
227,216,16030,1,2,0:0:0:0:
287,380,16196,5,6,0:0:0:0:
287,380,16527,1,2,0:0:0:0:
321,277,16693,1,0,0:0:0:0:
262,186,16859,1,0,0:0:0:0:
292,82,17025,1,2,0:0:0:0:
431,172,17190,5,8,0:0:0:0:
431,172,17522,2,0,L|320:181,1,89.9999952316285,2|0,0:0|0:0,0:0:0:0:
172,193,17853,2,0,L|283:184,1,89.9999952316285,2|0,0:0|0:0,0:0:0:0:
81,102,18185,5,6,0:0:0:0:
81,102,18517,1,2,0:0:0:0:
23,192,18682,1,0,0:0:0:0:
82,281,18848,1,0,0:0:0:0:
49,384,19014,1,2,0:0:0:0:
147,196,19179,6,0,P|235:201|285:277,1,179.999990463257,8|0,0:0|0:0,0:0:0:0:
185,291,19677,1,0,0:0:0:0:
202,96,19843,2,0,P|247:55|301:44,1,89.9999952316285,2|0,0:0|0:0,0:0:0:0:
398,155,20174,5,6,0:0:0:0:
398,155,20506,1,0,0:0:0:0:
291,137,20672,1,0,0:0:0:0:
219,217,20838,1,0,0:0:0:0:
113,196,21003,1,2,0:0:0:0:
325,241,21168,5,8,0:0:0:0:
325,241,21501,2,0,P|326:309|313:357,1,89.9999952316285
291,137,21832,2,0,P|290:69|303:21,1,89.9999952316285
113,196,22164,5,2,0:0:0:0:
199,4,22330,1,8,0:0:0:0:
219,214,22661,5,2,0:0:0:0:
199,4,22827,1,8,0:0:0:0:
327,93,22992,5,0,0:0:0:0:
327,93,23075,1,0,0:0:0:0:
327,93,23158,2,0,P|345:134|348:179,1,89.9999952316285,2|2,0:0|0:0,0:0:0:0:
219,214,23490,2,0,P|222:259|209:302,1,89.9999952316285,2|0,0:0|0:0,0:0:0:0:
86,294,23822,2,0,P|73:337|46:374,1,89.9999952316285,2|0,0:0|0:0,0:0:0:0:
5,157,24153,6,0,L|11:54,1,76.4999974060059,2|0,0:0|0:0,0:0:0:0:
114,133,24485,2,0,L|120:236,1,76.4999974060059
222,57,24816,2,0,L|216:160,1,76.4999974060059
206,272,25148,6,0,P|268:218|402:285,1,229.499992218018,8|0,0:0|0:0,0:0:0:0:
367,124,25811,2,0,P|357:58|364:28,1,76.4999974060059
217,133,26143,6,0,P|161:140|112:133,2,76.4999974060059,2|0|0,0:0|0:0|0:0,0:0:0:0:
239,30,26640,1,0,0:0:0:0:
284,215,26806,1,0,0:0:0:0:
284,215,27136,5,8,0:0:0:0:
284,215,27469,2,0,P|313:178|322:154,2,50.9999982706706
220,292,27800,2,0,P|218:361|230:397,1,76.4999974060059
95,272,28132,6,0,L|-3:258,1,76.4999974060059,2|0,0:0|0:0,0:0:0:0:
85,170,28464,2,0,L|188:164,1,76.4999974060059
22,69,28795,2,0,L|125:75,1,76.4999974060059
19,261,29127,5,8,0:0:0:0:
280,28,29790,2,0,P|275:82|287:124,1,76.4999974060059
431,217,30121,6,0,P|364:186|292:206,1,152.999994812012,2|0,0:0|0:0,0:0:0:0:
241,302,30619,1,0,0:0:0:0:
344,362,30784,2,0,P|355:326|355:288,1,76.4999974060059
186,213,31117,5,8,0:0:0:0:
186,213,31448,2,0,P|131:214|115:211,2,50.9999982706706
214,113,31779,2,0,P|202:60|177:23,1,76.4999974060059
367,82,32111,5,4,0:0:0:0:
435,180,32277,1,0,0:0:0:0:
396,292,32442,2,0,P|390:340|403:394,1,89.9999952316285
279,256,32774,2,0,P|284:207|272:154,1,89.9999952316285
77,280,33105,6,0,L|191:272,1,89.9999952316285,8|0,0:0|0:0,0:0:0:0:
276,167,33437,2,0,L|186:160,1,89.9999952316285
50,67,33769,2,0,L|164:59,1,89.9999952316285
29,169,34099,5,4,0:0:0:0:
77,280,34266,1,0,0:0:0:0:
201,270,34432,2,0,P|270:270|306:282,1,89.9999952316285
388,383,34763,2,0,P|318:382|282:370,1,89.9999952316285
421,240,35095,6,0,L|429:126,1,89.9999952316285,8|0,0:0|0:0,0:0:0:0:
326,21,35426,2,0,L|318:135,1,89.9999952316285
203,226,35758,2,0,L|211:112,1,89.9999952316285
313,280,36089,5,4,0:0:0:0:
217,354,36256,1,0,0:0:0:0:
104,305,36421,2,0,P|56:299|2:312,1,89.9999952316285
116,186,36753,2,0,P|165:191|218:179,1,89.9999952316285
354,59,37084,6,0,L|240:51,1,89.9999952316285,8|0,0:0|0:0,0:0:0:0:
479,156,37417,2,0,L|365:164,1,89.9999952316285
304,267,37747,2,0,L|418:275,1,89.9999952316285
264,52,38079,5,4,0:0:0:0:
142,169,38245,1,0,0:0:0:0:
181,334,38410,2,0,P|189:289|179:242,1,89.9999952316285
58,156,38742,2,0,P|64:200|90:237,1,89.9999952316285
224,130,39074,6,0,P|274:122|324:125,2,89.9999952316285,8|0|0,0:0|0:0|0:0,0:0:0:0:
177,237,39571,1,0,0:0:0:0:
256,331,39737,1,0,0:0:0:0:
256,331,40067,5,8,0:0:0:0:
420,292,40401,1,0,0:0:0:0:
284,249,40732,1,0,0:0:0:0:
403,219,41062,1,0,0:0:0:0:
312,171,41395,1,0,0:0:0:0:
389,147,41725,1,0,0:0:0:0:
256,331,42058,5,2,0:0:0:0:
