osu file format v14

[General]
AudioFilename: granat.mp3
AudioLeadIn: 2000
PreviewTime: 281
Countdown: 0
SampleSet: Soft
StackLeniency: 0.5
Mode: 0
LetterboxInBreaks: 0
WidescreenStoryboard: 1

[Editor]
DistanceSpacing: 1
BeatDivisor: 2
GridSize: 4
TimelineZoom: 2.3

[Metadata]
Title:Granat
TitleUnicode:Granat
Artist:Drop
ArtistUnicode:Drop
Creator:Sinnoh
Version:Akitoshi's Normal
Source:
Tags:Akitoshi Corinn Ascendance ktgster 竜と炎の物語 清風明月 c85 seifuu meigetsu ryuu to honou no monogatari Dragon and Flame
BeatmapID:1246373
BeatmapSetID:572387

[Difficulty]
HPDrainRate:3
CircleSize:3
OverallDifficulty:4
ApproachRate:4.5
SliderMultiplier:1.09999990463257
SliderTickRate:1

[Events]
//Background and Video events
0,0,"audio.jpg",0,0
//Break Periods
//Storyboard Layer 0 (Background)
//Storyboard Layer 1 (Fail)
//Storyboard Layer 2 (Pass)
//Storyboard Layer 3 (Foreground)
//Storyboard Sound Samples

[TimingPoints]
281,331.5649867374,3,2,2,50,1,0
24152,-100,3,2,3,30,0,0
32111,-100,3,2,3,40,0,0
40068,-100,3,2,3,20,0,0

[Colours]
Combo1 : 0,183,91
Combo2 : 217,217,217
Combo3 : 248,58,58

[HitObjects]
26,284,281,6,0,P|73:257|178:302,1,164.999985694885,6|0,0:0|0:0,0:0:0:0:
204,335,944,1,2,0:0:0:0:
309,305,1275,2,0,B|337:251|337:251|322:134,1,164.999985694885,8|0,0:0|0:0,0:0:0:0:
312,93,1938,1,2,0:0:0:0:
228,21,2270,6,0,P|169:12|113:36,1,109.999990463257,2|0,0:0|0:0,0:0:0:0:
30,88,2933,1,2,0:0:0:0:
49,196,3265,1,8,0:0:0:0:
139,257,3596,2,0,P|198:266|254:242,1,109.999990463257,0|2,0:0|0:0,0:0:0:0:
333,185,4259,6,0,P|420:165|490:224,1,164.999985694885,2|0,0:0|0:0,0:0:0:0:
502,254,4922,1,2,0:0:0:0:
433,340,5254,2,0,B|379:333|379:333|327:346|327:346|259:333,1,164.999985694885,8|0,0:0|0:0,0:0:0:0:
217,322,5917,1,2,0:0:0:0:
142,240,6249,6,0,L|12:258,2,109.999990463257,2|0|2,0:0|0:0|0:0,0:0:0:0:
243,194,7243,2,0,P|299:143|409:141,1,164.999985694885,8|0,0:0|0:0,0:0:0:0:
436,151,7906,1,2,0:0:0:0:
442,260,8238,6,0,L|327:256,1,109.999990463257,6|2,0:0|0:0,0:0:0:0:
243,194,8901,1,2,0:0:0:0:
146,141,9233,2,0,P|74:137|8:202,1,164.999985694885,8|2,0:0|0:0,0:0:0:0:
2,252,9896,1,2,0:0:0:0:
77,332,10227,6,0,L|203:324,1,109.999990463257,2|2,0:0|0:0,0:0:0:0:
296,313,10891,1,2,0:0:0:0:
371,235,11222,2,0,B|388:179|388:179|357:54,1,164.999985694885,8|2,0:0|0:0,0:0:0:0:
342,24,11885,1,2,0:0:0:0:
236,56,12217,6,0,P|197:73|116:74,1,109.999990463257,2|2,0:0|0:0,0:0:0:0:
26,41,12880,1,2,0:0:0:0:
4,149,13212,2,0,B|1:265|1:265|24:320,1,164.999985694885,8|2,0:0|0:0,0:0:0:0:
52,354,13875,1,2,0:0:0:0:
154,314,14206,6,0,P|219:294|317:332,1,164.999985694885,2|2,0:0|0:0,0:0:0:0:
461,261,15201,2,0,L|437:85,1,164.999985694885,8|2,0:0|0:0,0:0:0:0:
281,43,16196,6,0,P|231:34|154:61,1,109.999990463257,6|2,0:0|0:0,0:0:0:0:
107,135,16859,1,2,0:0:0:0:
172,222,17190,2,0,L|342:203,1,164.999985694885,8|2,0:0|0:0,0:0:0:0:
390,196,17853,1,2,0:0:0:0:
496,222,18185,6,0,P|511:278|503:330,1,109.999990463257,6|0,0:0|0:0,0:0:0:0:
401,370,18848,1,2,0:0:0:0:
300,324,19180,2,0,B|256:309|217:328|217:328|180:343|125:328,1,164.999985694885,8|2,0:0|0:0,0:0:0:0:
87,311,19843,1,2,0:0:0:0:
23,221,20174,6,0,L|30:111,1,109.999990463257,6|0,0:0|0:0,0:0:0:0:
89,18,20838,1,2,0:0:0:0:
183,73,21169,2,0,B|229:130|190:213|190:213|237:274,1,219.999980926514,8|0,0:0|0:0,0:0:0:0:
333,223,22164,6,0,P|400:193|485:314,1,219.999980926514,2|8,0:0|0:0,0:0:0:0:
413,361,23158,1,8,0:0:0:0:
302,357,23490,1,2,0:0:0:0:
234,270,23822,1,2,0:0:0:0:
246,161,24153,6,0,P|160:128|46:185,1,219.999980926514,2|0,0:2|0:0,0:0:0:0:
20,285,25148,2,0,L|12:55,1,219.999980926514,8|0,0:0|0:0,0:0:0:0:
115,25,26143,6,0,B|171:59|171:59|340:25,1,219.999980926514,2|0,0:0|0:0,0:0:0:0:
425,65,27137,1,8,0:0:0:0:
483,158,27469,2,0,P|504:205|493:277,1,109.999990463257,2|2,0:0|0:0,0:0:0:0:
422,341,28132,6,0,B|364:354|364:354|319:332|319:332|271:352|271:352|207:332,1,219.999980926514,2|0,0:0|0:0,0:0:0:0:
135,258,29127,2,0,B|118:193|118:193|182:130|144:52,1,219.999980926514,8|0,0:0|0:0,0:0:0:0:
49,107,30121,6,0,L|270:85,1,219.999980926514,2|0,0:0|0:0,0:0:0:0:
376,69,31116,1,8,0:0:0:0:
478,109,31448,2,0,P|486:168|459:228,1,109.999990463257,2|2,0:0|0:0,0:0:0:0:
372,266,32111,6,0,L|386:380,2,109.999990463257,4|0|0,0:0|0:0|0:0,0:0:0:0:
294,188,33105,2,0,L|308:74,2,109.999990463257,8|0|0,0:0|0:0|0:0,0:0:0:0:
217,266,34100,6,0,L|231:380,2,109.999990463257,4|0|0,0:0|0:0|0:0,0:0:0:0:
139,188,35094,2,0,L|153:74,2,109.999990463257,8|0|0,0:0|0:0|0:0,0:0:0:0:
124,297,36090,6,0,P|199:363|306:305,1,219.999980926514,4|0,0:0|0:0,0:0:0:0:
323,212,37084,2,0,B|373:202|373:202|431:221|431:221|496:202|500:149,1,219.999980926514,8|0,0:0|0:0,0:0:0:0:
444,52,38079,6,0,L|311:43,1,109.999990463257,4|0,0:0|0:0,0:0:0:0:
224,40,38742,1,0,0:0:0:0:
142,114,39074,2,0,P|122:165|147:251,1,109.999990463257,8|0,0:0|0:0,0:0:0:0:
183,313,39737,1,0,0:0:0:0:
282,265,40068,6,0,L|401:257,2,109.999990463257
183,313,41063,2,0,L|64:305,2,109.999990463257
277,369,42058,5,8,0:0:0:0:
