osu file format v12

[General]
AudioFilename: 7.VII. Granat.mp3
AudioLeadIn: 2000
PreviewTime: 281
Countdown: 0
SampleSet: Soft
StackLeniency: 0.7
Mode: 0
LetterboxInBreaks: 0
WidescreenStoryboard: 1

[Editor]
Bookmarks: 281,6249,14206,16196,22164,24153,32111,40068
DistanceSpacing: 1
BeatDivisor: 4
GridSize: 4
TimelineZoom: 1

[Metadata]
Title:Granat
TitleUnicode:Granat
Artist:Drop
ArtistUnicode:Drop
Creator:Lan wings
Version:Normal
Source:
Tags:竜と炎の物語 清風明月 c85 seifuu meigetsu ryuu to honou no monogatari Dragon and Flame spboxer3
BeatmapID:382315
BeatmapSetID:155118

[Difficulty]
HPDrainRate:3
CircleSize:3
OverallDifficulty:3
ApproachRate:4
SliderMultiplier:0.99999990463257
SliderTickRate:1

[Events]
//Background and Video events
0,0,"bg.jpg",0,0
//Break Periods
//Storyboard Layer 0 (Background)
//Storyboard Layer 1 (Fail)
//Storyboard Layer 2 (Pass)
//Storyboard Layer 3 (Foreground)
//Storyboard Sound Samples
//Background Colour Transformations
3,100,163,162,255

[TimingPoints]
281,331.5649867374,3,2,1,50,1,0
40400,-100,3,2,1,35,0,0

[Colours]
Combo1 : 255,128,192
Combo2 : 128,255,128
Combo3 : 0,255,255
Combo4 : 255,255,128

[HitObjects]
332,175,281,6,0,P|384:192|431:180,1,99.999990463257,4|2,0:0|0:0,0:0:0:0:
388,91,944,1,0,0:0:0:0:
288,84,1275,2,0,P|232:162|269:250,1,199.999980926514,8|2,0:0|3:0,0:0:0:0:
176,296,2270,6,0,P|141:331|92:340,1,99.999990463257,8|0,0:3|3:0,0:0:0:0:
4,292,2933,1,2,0:0:0:0:
92,236,3265,2,0,P|176:196|276:264,1,199.999980926514,8|0,0:0|0:0,0:0:0:0:
347,184,4259,6,0,P|397:186|447:182,1,99.999990463257,2|0,0:0|3:0,0:0:0:0:
436,84,4922,1,2,0:0:0:0:
352,28,5254,2,0,P|302:25|252:29,1,99.999990463257,8|2,0:0|0:0,0:0:0:0:
164,72,5917,1,2,3:0:0:0:
183,172,6249,2,0,P|160:215|118:241,2,99.999990463257,8|0|2,0:3|0:0|0:0,0:0:0:0:
87,148,7243,6,0,P|24:224|60:320,1,199.999980926514,8|0,0:0|0:0,0:0:0:0:
148,332,8238,1,4,0:0:0:0:
148,332,9233,6,0,B|224:320|224:320|252:336|252:336|341:321,1,199.999980926514,8|0,0:0|0:0,0:0:0:0:
400,240,10227,2,0,P|348:236|288:224,1,99.999990463257,8|0,0:3|0:0,0:0:0:0:
212,180,10891,1,0,0:0:0:0:
108,188,11222,2,0,B|72:204|68:260|68:260|50:198|-8:168,1,199.999980926514,8|0,0:0|0:0,0:0:0:0:
64,95,12217,6,0,P|159:106|205:190,1,199.999980926514,8|0,0:3|0:0,0:0:0:0:
148,272,13212,2,0,P|52:261|6:177,1,199.999980926514,8|0,0:0|0:0,0:0:0:0:
64,96,14206,6,0,P|112:84|161:86,2,99.999990463257,2|0|0,0:0|0:0|0:0,0:0:0:0:
128,172,15201,2,0,P|177:174|225:161,2,99.999990463257,8|0|0,0:0|0:0|0:0,0:0:0:0:
184,254,16196,6,0,P|197:302|196:352,1,99.999990463257,4|0,0:0|3:0,0:0:0:0:
96,372,16859,1,0,0:0:0:0:
37,288,17190,2,0,P|133:278|195:351,1,199.999980926514,8|0,0:0|0:0,0:0:0:0:
268,284,18185,6,0,P|316:272|360:228,1,99.999990463257,4|0,0:0|0:0,0:0:0:0:
272,180,18848,1,0,0:0:0:0:
175,208,19180,2,0,P|88:174|91:80,1,199.999980926514,8|2,0:0|3:0,0:0:0:0:
184,40,20174,6,0,B|278:64|278:64|380:58,1,199.999980926514,4|0,0:0|0:0,0:0:0:0:
480,48,21169,1,8,0:0:0:0:
444,140,21501,2,0,L|328:148,1,99.999990463257,2|2,0:0|0:0,0:0:0:0:
268,212,22164,6,0,B|220:192|220:192|140:248|140:248|94:227,1,199.999980926514,4|12,0:0|0:0,0:0:0:0:
92,128,23158,2,0,L|-16:76,2,99.999990463257,14|8|8,0:1|0:3|0:3,0:0:0:0:
172,68,24153,6,0,B|248:64|248:64|312:60|364:0,1,199.999980926514,2|2,1:2|0:0,0:0:0:0:
364,108,25148,2,0,B|368:168|448:188|448:188|435:261,1,199.999980926514,2|2,3:0|0:0,0:0:0:0:
340,236,26143,2,0,L|296:344,1,99.999990463257,6|0,0:1|0:0,0:0:0:0:
232,256,26806,1,2,0:0:0:0:
232,256,27137,2,0,P|136:260|84:164,1,199.999980926514,10|2,0:3|0:0,0:0:0:0:
36,92,28132,6,0,P|132:88|184:184,1,199.999980926514,6|0,0:1|0:0,0:0:0:0:
248,92,29127,2,0,P|344:88|396:184,1,199.999980926514,2|2,3:2|0:0,0:0:0:0:
492,188,30121,2,0,P|463:233|440:296,1,99.999990463257,6|0,0:1|0:0,0:0:0:0:
416,372,30784,1,2,0:0:0:0:
344,304,31116,2,0,P|241:285|177:357,1,199.999980926514,6|2,0:1|0:0,0:0:0:0:
100,292,32111,6,0,L|0:308,2,99.999990463257,4|0|0,0:1|0:0|0:0,0:0:0:0:
160,212,33105,2,0,L|60:192,2,99.999990463257,2|0|0,3:2|3:0|3:2,0:0:0:0:
244,160,34100,2,0,L|157:107,2,99.999990463257,8|0|0,3:0|0:0|0:0,0:0:0:0:
264,260,35095,6,0,L|349:311,2,99.999990463257,2|0|0,3:2|3:0|3:2,0:0:0:0:
348,208,36090,2,0,L|446:226,2,99.999990463257,4|0|0,0:1|0:0|0:0,0:0:0:0:
408,128,37084,2,0,L|506:112,2,99.999990463257,2|2|0,3:2|3:0|3:0,0:0:0:0:
312,104,38079,6,0,L|213:119,1,99.999990463257,6|0,0:1|0:0,0:0:0:0:
116,136,38742,1,2,0:3:0:0:
180,212,39074,2,0,L|279:197,1,99.999990463257,2|0,0:0|0:0,0:0:0:0:
376,184,39737,1,0,0:0:0:0:
340,276,40068,5,2,3:0:0:0:
256,192,40400,12,2,42058,0:0:0:0:
