osu file format v12

[General]
AudioFilename: 7.VII. Granat.mp3
AudioLeadIn: 2000
PreviewTime: 281
Countdown: 0
SampleSet: Soft
StackLeniency: 0.7
Mode: 0
LetterboxInBreaks: 0
WidescreenStoryboard: 1

[Editor]
Bookmarks: 281,6249,14206,16196,22164,24153,32111,40068
DistanceSpacing: 1
BeatDivisor: 2
GridSize: 4
TimelineZoom: 2.699999

[Metadata]
Title:Granat
TitleUnicode:Granat
Artist:Drop
ArtistUnicode:Drop
Creator:Lan wings
Version:Extra
Source:
Tags:竜と炎の物語 清風明月 c85 seifuu meigetsu ryuu to honou no monogatari Dragon and Flame spboxer3
BeatmapID:380646
BeatmapSetID:155118

[Difficulty]
HPDrainRate:7
CircleSize:4
OverallDifficulty:8
ApproachRate:9
SliderMultiplier:1.79999990463257
SliderTickRate:1

[Events]
//Background and Video events
0,0,"bg.jpg",0,0
//Break Periods
//Storyboard Layer 0 (Background)
//Storyboard Layer 1 (Fail)
//Storyboard Layer 2 (Pass)
//Storyboard Layer 3 (Foreground)
//Storyboard Sound Samples
//Background Colour Transformations
3,100,163,162,255

[TimingPoints]
281,331.5649867374,3,2,1,50,1,0
40400,-100,3,2,1,30,0,0
40731,-100,3,2,1,40,0,0
41063,-100,3,2,1,30,0,0
41395,-100,3,2,1,35,0,0
41726,-100,3,2,1,30,0,0
42058,-100,3,2,1,35,0,0

[Colours]
Combo1 : 255,128,192
Combo2 : 128,255,128
Combo3 : 0,255,255
Combo4 : 255,255,128

[HitObjects]
144,168,281,5,4,0:0:0:0:
152,176,612,5,2,0:0:0:0:
56,136,778,1,2,0:0:0:0:
248,216,944,2,0,L|337:203,1,89.9999952316285,0|2,0:0|3:0,0:0:0:0:
72,240,1275,1,8,0:0:0:0:
80,248,1607,5,0,0:0:0:0:
160,184,1773,1,2,0:0:0:0:
240,120,1938,1,2,3:0:0:0:
64,144,2104,1,0,0:0:0:0:
256,224,2270,6,0,P|299:235|360:240,1,89.9999952316285,8|0,0:3|0:0,0:0:0:0:
448,136,2601,2,0,P|404:124|359:119,1,89.9999952316285,0|2,3:0|0:0,0:0:0:0:
264,232,2933,2,0,P|307:243|368:248,1,89.9999952316285,2|2,0:0|3:0,0:0:0:0:
456,144,3265,6,0,B|416:128|368:128|368:128|328:152|281:145,1,179.999990463257,8|0,0:0|0:0,0:0:0:0:
168,80,3762,1,2,0:0:0:0:
152,88,3845,1,0,0:0:0:0:
136,96,3928,2,0,L|40:72,1,89.9999952316285,0|2,0:0|3:0,0:0:0:0:
312,64,4259,1,2,0:0:0:0:
320,72,4591,5,0,3:0:0:0:
144,104,4757,1,0,0:0:0:0:
320,176,4922,1,2,0:0:0:0:
216,16,5088,5,2,3:0:0:0:
424,168,5254,1,8,0:0:0:0:
432,176,5586,5,0,0:0:0:0:
216,200,5751,1,2,0:0:0:0:
328,80,5917,1,2,3:0:0:0:
152,112,6083,1,0,0:0:0:0:
295,270,6249,6,0,P|216:306|136:272,1,179.999990463257,8|0,0:3|0:0,0:0:0:0:
216,200,6746,1,0,0:0:0:0:
320,176,6912,2,0,P|356:194|392:240,1,89.9999952316285,2|2,0:0|3:0,0:0:0:0:
136,272,7243,1,8,0:0:0:0:
144,280,7575,5,2,3:2:0:0:
328,184,7741,1,0,0:0:0:0:
160,120,7906,2,0,L|144:24,1,89.9999952316285,0|0,0:0|0:0,0:0:0:0:
304,280,8238,1,4,0:0:0:0:
312,288,8570,5,0,3:0:0:0:
471,278,8736,1,0,0:0:0:0:
337,191,8902,1,0,0:0:0:0:
394,340,9068,1,2,3:0:0:0:
436,186,9233,1,8,0:0:0:0:
440,200,9564,5,0,3:0:0:0:
378,329,9729,1,0,0:0:0:0:
349,188,9895,1,0,0:0:0:0:
455,285,10061,1,0,3:0:0:0:
313,269,10227,1,8,0:3:0:0:
320,256,10559,5,0,0:0:0:0:
443,292,10725,1,0,0:0:0:0:
364,189,10891,1,0,0:0:0:0:
368,319,11057,1,2,3:0:0:0:
443,214,11222,2,0,L|496:136,1,89.9999952316285,8|0,0:0|0:0,0:0:0:0:
280,184,11554,5,0,3:0:0:0:
104,280,11719,1,0,0:0:0:0:
280,200,11885,5,0,0:0:0:0:
160,176,12051,1,0,0:0:0:0:
383,255,12217,2,0,P|428:262|473:261,1,89.9999952316285,8|0,0:3|0:0,0:0:0:0:
384,136,12548,5,0,3:0:0:0:
216,288,12714,1,0,0:0:0:0:
376,128,12880,5,0,0:0:0:0:
208,280,13046,1,2,3:0:0:0:
40,184,13212,1,8,0:0:0:0:
48,192,13543,6,0,L|40:80,1,89.9999952316285,0|0,3:0|0:0,0:0:0:0:
248,104,13875,2,0,L|240:-8,1,89.9999952316285,0|0,0:0|3:0,0:0:0:0:
56,200,14206,5,6,0:1:0:0:
280,128,14372,1,0,3:0:0:0:
64,208,14538,5,0,0:0:0:0:
312,152,14704,1,6,0:1:0:0:
72,216,14869,5,0,0:0:0:0:
344,176,15035,1,2,3:0:0:0:
136,136,15201,5,8,0:0:0:0:
232,256,15367,1,2,0:0:0:0:
376,200,15532,1,0,0:0:0:0:
128,144,15698,5,2,3:0:0:0:
224,264,15864,1,0,0:0:0:0:
368,208,16030,1,2,0:0:0:0:
120,152,16196,5,4,0:0:0:0:
120,152,16527,5,0,3:0:0:0:
216,272,16693,1,0,0:0:0:0:
80,224,16859,1,0,0:0:0:0:
256,200,17025,1,2,3:0:0:0:
24,32,17190,1,8,0:0:0:0:
32,40,17522,5,0,3:0:0:0:
160,80,17688,1,0,0:0:0:0:
40,152,17853,1,0,0:0:0:0:
112,16,18019,1,0,3:0:0:0:
208,144,18185,6,0,L|290:179,1,89.9999952316285,4|0,0:0|0:0,0:0:0:0:
456,200,18517,2,0,L|373:164,1,89.9999952316285
128,184,18848,1,0,0:0:0:0:
320,88,19014,1,2,3:0:0:0:
304,304,19180,2,0,P|225:345|138:329,1,179.999990463257,8|0,0:0|0:0,0:0:0:0:
208,232,19677,1,0,0:0:0:0:
312,184,19843,2,0,P|354:197|389:225,1,89.9999952316285,2|0,3:0|0:0,0:0:0:0:
208,232,20174,6,0,P|200:144|264:72,1,179.999990463257,4|2,0:0|0:0,0:0:0:0:
312,184,20672,1,2,3:0:0:0:
208,232,20838,5,0,0:0:0:0:
368,96,21003,1,2,3:0:0:0:
416,336,21169,2,0,P|368:368|321:369,1,89.9999952316285,8|0,0:0|0:0,0:0:0:0:
208,232,21501,5,2,0:0:0:0:
424,192,21666,1,2,0:0:0:0:
264,88,21832,1,2,0:0:0:0:
352,280,21998,1,2,3:0:0:0:
104,112,22164,6,0,L|48:32,1,89.9999952316285,4|8,0:0|0:1,0:0:0:0:
96,128,22661,6,0,L|40:48,1,89.9999952316285,8|12,0:3|0:0,0:0:0:0:
88,144,23158,6,0,L|32:64,1,89.9999952316285,14|8,0:1|0:0,0:0:0:0:
48,232,23490,2,0,L|6:320,1,89.9999952316285,8|0,0:3|0:0,0:0:0:0:
144,224,23822,2,0,L|241:215,1,89.9999952316285,8|0,0:3|0:0,0:0:0:0:
400,128,24153,5,2,1:2:0:0:
304,264,24319,1,0,0:2:0:0:
330,80,24485,1,2,0:0:0:0:
374,312,24651,1,0,0:2:0:0:
262,32,24816,1,2,0:0:0:0:
380,228,24982,1,2,0:2:0:0:
144,224,25148,6,0,P|104:192|80:160,1,89.9999952316285,2|0,3:0|0:0,0:0:0:0:
256,116,25479,2,0,P|291:143|319:178,1,89.9999952316285,0|0,0:0|0:0,0:0:0:0:
144,224,25811,5,2,0:0:0:0:
256,116,25977,1,2,0:0:0:0:
304,264,26143,6,0,P|286:306|260:340,1,89.9999952316285,6|0,0:1|0:0,0:3:0:0:
144,224,26474,1,0,0:0:0:0:
256,116,26640,1,2,0:0:0:0:
464,304,26806,1,2,0:0:0:0:
448,300,27137,6,0,L|512:364,1,89.9999952316285,10|0,0:3|0:0,0:0:0:0:
352,336,27469,5,2,0:0:0:0:
320,328,27579,5,2,0:0:0:0:
288,320,27690,5,0,0:0:0:0:
256,312,27800,6,0,L|144:336,1,89.9999952316285,2|0,0:0|0:0,0:0:0:0:
0,288,28132,5,6,0:1:0:0:
144,144,28298,1,0,0:0:0:0:
328,232,28464,1,2,0:0:0:0:
8,296,28629,5,2,0:0:0:0:
256,168,28795,1,0,0:0:0:0:
56,56,28961,5,2,0:0:0:0:
264,176,29127,1,2,3:2:0:0:
264,176,29790,5,2,0:0:0:0:
152,272,29956,1,2,0:0:0:0:
272,184,30121,2,0,P|361:183|440:142,1,179.999990463257,6|0,0:1|0:0,0:0:0:0:
52,176,30619,5,2,0:0:0:0:
336,72,30784,1,2,0:0:0:0:
264,328,30950,5,0,0:0:0:0:
312,40,31116,1,6,0:1:0:0:
312,40,31448,5,2,0:0:0:0:
320,72,31558,5,2,0:0:0:0:
328,104,31669,5,0,0:0:0:0:
336,136,31779,6,0,L|416:208,1,89.9999952316285,2|0,0:0|0:0,0:0:0:0:
192,152,32111,5,6,0:1:0:0:
56,240,32277,1,0,0:0:0:0:
200,316,32442,1,0,0:0:0:0:
160,160,32608,5,2,0:0:0:0:
24,248,32774,1,2,0:0:0:0:
168,324,32939,1,0,0:0:0:0:
420,180,33105,5,2,3:2:0:0:
411,18,33271,1,0,0:0:0:0:
273,104,33436,1,0,3:0:0:0:
352,224,33602,5,2,0:0:0:0:
488,136,33768,1,2,3:2:0:0:
344,60,33933,1,0,0:0:0:0:
256,192,34100,5,8,3:0:0:0:
360,328,34266,1,0,0:0:0:0:
512,248,34431,1,0,0:0:0:0:
180,232,34597,5,2,0:0:0:0:
284,368,34763,1,2,0:0:0:0:
436,288,34928,1,0,0:0:0:0:
104,272,35095,5,2,3:2:0:0:
276,288,35261,1,0,0:0:0:0:
64,108,35426,1,0,3:0:0:0:
236,124,35592,5,2,0:0:0:0:
8,212,35758,1,2,3:2:0:0:
160,48,35923,1,0,0:0:0:0:
184,312,36090,5,6,0:1:0:0:
328,188,36255,1,0,0:0:0:0:
144,124,36421,1,0,0:0:0:0:
221,295,36587,5,2,0:0:0:0:
295,163,36752,1,2,0:0:0:0:
139,165,36918,1,0,0:0:0:0:
350,230,37084,5,2,3:2:0:0:
136,311,37249,1,0,0:0:0:0:
168,82,37415,1,2,3:0:0:0:
318,257,37582,5,0,0:0:0:0:
136,259,37747,1,0,3:0:0:0:
223,96,37913,1,0,0:0:0:0:
405,94,38079,5,6,0:1:0:0:
136,260,38245,1,2,0:0:0:0:
448,112,38410,5,0,0:0:0:0:
92,244,38576,1,2,0:0:0:0:
136,32,38742,5,2,0:3:0:0:
336,192,38908,1,0,0:0:0:0:
96,328,39073,5,2,0:0:0:0:
352,220,39239,1,0,0:0:0:0:
56,40,39405,5,2,0:0:0:0:
24,288,39571,1,0,0:0:0:0:
256,192,39737,1,0,0:0:0:0:
256,192,40068,5,2,3:0:0:0:
256,284,40400,5,0,0:0:0:0:
256,100,40731,5,0,0:0:0:0:
368,264,41063,5,0,0:0:0:0:
144,120,41395,5,0,0:0:0:0:
448,192,41726,5,0,0:0:0:0:
64,192,42058,5,2,0:0:0:0:
