osu file format v14

[General]
AudioFilename: 7.VII. Granat.mp3
AudioLeadIn: 2000
PreviewTime: 281
Countdown: 0
SampleSet: Soft
StackLeniency: 0.7
Mode: 3
LetterboxInBreaks: 0
SpecialStyle: 1
WidescreenStoryboard: 1

[Editor]
Bookmarks: 281,6249,14206,16196,22164,24153,32111,40060
DistanceSpacing: 1
BeatDivisor: 4
GridSize: 4
TimelineZoom: 1.8

[Metadata]
Title:Granat
TitleUnicode:Granat
Artist:Drop
ArtistUnicode:Drop
Creator:-Kamikaze-
Version:BBS 6K Hyper
Source:
Tags:竜と炎の物語 清風明月 c85 seifuu meigetsu ryuu to honou no monogatari Dragon and Flame Rayz141 Eternalie Ripazhakgggdkp Tidek Bobbias Fullerene- rCaliberGX lZenxl Zenx Z3nx
BeatmapID:639743
BeatmapSetID:281349

[Difficulty]
HPDrainRate:8
CircleSize:6
OverallDifficulty:8
ApproachRate:9
SliderMultiplier:1.79999990463257
SliderTickRate:1

[Events]
//Background and Video events
0,0,"bg.jpg",0,0
//Break Periods
//Storyboard Layer 0 (Background)
//Storyboard Layer 1 (Fail)
//Storyboard Layer 2 (Pass)
//Storyboard Layer 3 (Foreground)
//Storyboard Sound Samples

[TimingPoints]
281,331.5649867374,3,2,1,20,1,0

[Colours]
Combo1 : 255,128,192
Combo2 : 128,255,128
Combo3 : 0,255,255
Combo4 : 255,255,128

[HitObjects]
298,192,281,5,0,0:0:0:0:
42,192,281,1,0,0:0:0:70:soft-hitfinish.wav
213,192,612,1,0,0:0:0:30:hihat.wav
384,192,778,1,0,0:0:0:0:
42,192,778,1,0,0:0:0:40:bassdrum.wav
213,192,944,1,0,0:0:0:30:hihat.wav
42,192,1109,1,0,0:0:0:0:
298,192,1275,1,0,0:0:0:70:soft-hitclap.wav
128,192,1275,1,0,0:0:0:0:
213,192,1607,1,0,0:0:0:30:hihat.wav
128,192,1773,1,0,0:0:0:40:soft-hitclap.wav
384,192,1773,1,0,0:0:0:0:
213,192,1938,1,0,0:0:0:30:hihat.wav
128,192,2104,1,0,0:0:0:0:
42,192,2270,1,0,0:0:0:40:bassdrum.wav
213,192,2270,1,0,0:0:0:0:
298,192,2436,1,0,0:0:0:0:
384,192,2601,1,0,0:0:0:30:hihat.wav
42,192,2767,1,0,0:0:0:40:bassdrum.wav
298,192,2767,1,0,0:0:0:0:
384,192,2933,1,0,0:0:0:30:hihat.wav
42,192,3099,1,0,0:0:0:40:bassdrum.wav
469,192,3099,1,0,0:0:0:0:
128,192,3265,1,0,0:0:0:0:
384,192,3265,1,0,0:0:0:70:soft-hitclap.wav
298,192,3596,1,0,0:0:0:30:hihat.wav
469,192,3734,1,0,0:0:0:0:
384,192,3845,1,0,0:0:0:0:
298,192,3928,1,0,0:0:0:30:hihat.wav
213,192,4093,1,8,0:0:0:0:
42,192,4259,1,0,0:0:0:40:bassdrum.wav
298,192,4259,1,0,0:0:0:0:
213,192,4591,1,0,0:0:0:30:hihat.wav
42,192,4757,1,0,0:0:0:0:
384,192,4757,1,0,0:0:0:40:bassdrum.wav
213,192,4922,1,0,0:0:0:30:hihat.wav
42,192,5088,1,0,0:0:0:0:
128,192,5254,1,0,0:0:0:0:
298,192,5254,1,0,0:0:0:70:soft-hitclap.wav
213,192,5586,1,0,0:0:0:30:hihat.wav
384,192,5751,1,0,0:0:0:40:soft-hitclap.wav
213,192,5917,1,0,0:0:0:30:hihat.wav
42,192,6249,1,0,0:0:0:40:bassdrum.wav
213,192,6249,1,0,0:0:0:0:
298,192,6580,1,0,0:0:0:30:hihat.wav
42,192,6746,1,0,0:0:0:40:bassdrum.wav
384,192,6912,1,0,0:0:0:30:hihat.wav
42,192,7078,1,0,0:0:0:40:bassdrum.wav
128,192,7243,1,0,0:0:0:0:
213,192,7243,1,0,0:0:0:70:soft-hitclap.wav
384,192,7741,1,0,0:0:0:40:soft-hitclap.wav
298,192,7906,1,0,0:0:0:30:hihat.wav
213,192,8238,1,0,0:0:0:40:bassdrum.wav
42,192,8238,1,0,0:0:0:70:soft-hitfinish.wav
213,192,8570,1,0,0:0:0:30:hihat.wav
298,192,8735,1,0,0:0:0:40:bassdrum.wav
42,192,8735,1,0,0:0:0:0:
384,192,8901,1,0,0:0:0:30:hihat.wav
469,192,9067,1,0,0:0:0:40:bassdrum.wav
42,192,9067,1,0,0:0:0:0:
469,192,9233,1,0,0:0:0:0:
128,192,9233,1,0,0:0:0:70:soft-hitclap.wav
42,192,9896,1,0,0:0:0:30:hihat.wav
213,192,10227,1,0,0:0:0:40:bassdrum.wav
42,192,10227,1,0,0:0:0:0:
213,192,10559,1,0,0:0:0:30:hihat.wav
298,192,10725,1,0,0:0:0:40:bassdrum.wav
42,192,10725,1,0,0:0:0:0:
384,192,10891,1,0,0:0:0:30:hihat.wav
469,192,11056,1,0,0:0:0:40:bassdrum.wav
42,192,11056,1,0,0:0:0:0:
469,192,11222,1,0,0:0:0:70:soft-hitclap.wav
128,192,11222,1,0,0:0:0:0:
469,192,11719,1,8,0:0:0:0:
128,192,11719,1,0,0:0:0:0:
298,192,11885,1,0,0:0:0:30:hihat.wav
128,192,12051,1,8,0:0:0:0:
213,192,12217,1,0,0:0:0:40:bassdrum.wav
42,192,12217,1,0,0:0:0:0:
213,192,12548,1,0,0:0:0:30:hihat.wav
42,192,12714,1,0,0:0:0:0:
298,192,12714,1,0,0:0:0:40:bassdrum.wav
384,192,12880,1,0,0:0:0:30:hihat.wav
42,192,13046,1,0,0:0:0:0:
469,192,13046,1,0,0:0:0:40:bassdrum.wav
128,192,13212,1,0,0:0:0:0:
469,192,13212,1,0,0:0:0:70:soft-hitclap.wav
384,192,13543,1,0,0:0:0:0:
128,192,13709,1,8,0:0:0:0:
298,192,13875,1,0,0:0:0:0:
128,192,14040,1,8,0:0:0:0:
469,192,14206,1,0,0:0:0:70:soft-hitwhistle3.wav
42,192,14206,1,0,0:0:0:40:bassdrum.wav
384,192,14372,1,0,0:0:0:70:soft-hitwhistle3.wav
298,192,14538,1,0,0:0:0:70:soft-hitclap3.wav
384,192,14704,1,0,0:0:0:70:soft-hitwhistle3.wav
42,192,14704,1,0,0:0:0:40:bassdrum.wav
298,192,14869,1,0,0:0:0:70:soft-hitwhistle3.wav
213,192,15035,1,0,0:0:0:70:soft-hitclap3.wav
42,192,15035,1,0,0:0:0:40:bassdrum.wav
298,192,15201,1,0,0:0:0:70:soft-hitwhistle3.wav
469,192,15201,1,8,0:0:0:0:
213,192,15367,1,0,0:0:0:70:soft-hitwhistle3.wav
128,192,15532,1,0,0:0:0:70:soft-hitclap3.wav
213,192,15698,1,8,0:0:0:70:soft-hitwhistle3.wav
128,192,15864,1,0,0:0:0:70:soft-hitwhistle3.wav
42,192,16030,1,8,0:0:0:70:soft-hitclap3.wav
42,192,16196,1,0,0:0:0:70:soft-hitfinish.wav
213,192,16196,1,0,0:0:0:40:bassdrum.wav
213,192,16527,1,0,0:0:0:30:hihat.wav
42,192,16693,1,0,0:0:0:0:
298,192,16693,1,0,0:0:0:40:bassdrum.wav
384,192,16859,1,0,0:0:0:30:hihat.wav
42,192,17025,1,0,0:0:0:0:
469,192,17025,1,0,0:0:0:40:bassdrum.wav
128,192,17190,1,0,0:0:0:0:
469,192,17190,1,0,0:0:0:70:soft-hitclap.wav
384,192,17522,1,0,0:0:0:30:hihat.wav
298,192,17853,1,0,0:0:0:30:hihat.wav
42,192,18185,1,0,0:0:0:70:soft-hitfinish.wav
213,192,18185,1,0,0:0:0:40:bassdrum.wav
213,192,18351,1,0,0:0:0:0:
298,192,18517,1,0,0:0:0:30:hihat.wav
42,192,18682,1,0,0:0:0:0:
384,192,18682,1,0,0:0:0:40:bassdrum.wav
469,192,18848,1,0,0:0:0:30:hihat.wav
42,192,19014,1,0,0:0:0:0:
469,192,19014,1,0,0:0:0:40:bassdrum.wav
128,192,19180,1,0,0:0:0:0:
384,192,19180,1,0,0:0:0:70:soft-hitclap.wav
298,192,19677,5,8,0:0:0:0:
213,192,19843,1,0,0:0:0:0:
42,192,20174,5,0,0:0:0:70:soft-hitfinish.wav
384,192,20174,1,0,0:0:0:40:bassdrum.wav
128,192,20174,1,0,0:0:0:0:
213,192,20340,1,0,0:0:0:0:
298,192,20506,1,0,0:0:0:30:hihat.wav
42,192,20672,1,0,0:0:0:40:bassdrum.wav
384,192,20672,1,0,0:0:0:0:
298,192,20838,1,0,0:0:0:30:hihat.wav
42,192,21003,1,0,0:0:0:40:bassdrum.wav
384,192,21003,1,0,0:0:0:0:
128,192,21169,1,0,0:0:0:0:
469,192,21169,1,0,0:0:0:70:soft-hitclap.wav
213,192,21501,1,0,0:0:0:0:
128,192,21832,1,0,0:0:0:0:
42,192,22164,1,0,0:0:0:70:soft-hitfinish.wav
298,192,22164,1,0,0:0:0:40:bassdrum.wav
128,192,22330,1,0,0:0:0:0:
384,192,22330,1,0,0:0:0:70:soft-hitclap.wav
469,192,22495,1,0,0:0:0:0:
42,192,22661,5,0,0:0:0:70:soft-hitfinish.wav
213,192,22661,1,0,0:0:0:0:
128,192,22827,1,0,0:0:0:0:
298,192,22827,1,0,0:0:0:70:soft-hitclap.wav
384,192,22993,1,0,0:0:0:0:
42,192,23158,5,8,0:0:0:70:soft-hitclap3.wav
128,192,23158,1,0,0:0:0:0:
469,192,23158,1,0,0:0:0:0:
298,192,23490,1,0,0:0:0:40:bassdrum.wav
213,192,23490,1,0,0:0:0:0:
469,192,23822,1,0,0:0:0:40:bassdrum.wav
384,192,23822,1,0,0:0:0:0:
42,192,24153,5,0,0:0:0:0:
128,192,24153,1,0,0:0:0:70:soft-hitwhistle3.wav
384,192,24153,1,0,0:0:0:0:
213,192,24319,1,0,0:0:0:70:soft-hitwhistle3.wav
298,192,24485,1,0,0:0:0:70:soft-hitwhistle3.wav
469,192,24651,1,0,0:0:0:70:soft-hitclap3.wav
128,192,24816,1,0,0:0:0:0:
384,192,24982,1,0,0:0:0:70:soft-hitwhistle3.wav
298,192,25148,1,0,0:0:0:70:soft-hitclap3.wav
213,192,25148,1,0,0:0:0:0:
42,192,25811,1,0,0:0:0:70:soft-hitwhistle3.wav
213,192,25977,1,0,0:0:0:70:soft-hitwhistle3.wav
298,192,26143,1,0,0:0:0:70:soft-hitclap3.wav
42,192,26143,1,0,0:0:0:0:
128,192,26474,1,0,0:0:0:70:soft-hitwhistle3.wav
384,192,26640,1,0,0:0:0:70:soft-hitclap3.wav
469,192,26806,1,0,0:0:0:70:soft-hitwhistle3.wav
213,192,26806,1,0,0:0:0:0:
298,192,27137,1,0,0:0:0:0:
42,192,27137,1,0,0:0:0:0:
384,192,27469,1,0,0:0:0:70:soft-hitclap3.wav
469,192,27579,1,0,0:0:0:70:soft-hitclap3.wav
384,192,27690,1,0,0:0:0:70:soft-hitclap3.wav
298,192,27800,1,0,0:0:0:70:soft-hitclap3.wav
213,192,27966,1,0,0:0:0:70:soft-hitwhistle3.wav
298,192,28132,1,0,0:0:0:0:
42,192,28132,1,0,0:0:0:70:soft-hitwhistle3.wav
128,192,28298,1,0,0:0:0:70:soft-hitwhistle3.wav
213,192,28464,1,0,0:0:0:70:soft-hitwhistle3.wav
298,192,28629,1,0,0:0:0:70:soft-hitwhistle3.wav
384,192,28795,1,0,0:0:0:70:soft-hitwhistle3.wav
469,192,28961,1,0,0:0:0:70:soft-hitclap3.wav
42,192,29127,1,0,0:0:0:70:soft-hitclap3.wav
128,192,29127,1,0,0:0:0:0:
384,192,29127,1,0,0:0:0:0:
213,192,29790,1,0,0:0:0:70:soft-hitwhistle3.wav
298,192,29956,1,0,0:0:0:70:soft-hitclap3.wav
384,192,30121,1,0,0:0:0:70:soft-hitwhistle3.wav
42,192,30121,1,0,0:0:0:0:
128,192,30619,1,0,0:0:0:70:soft-hitwhistle3.wav
298,192,30784,1,0,0:0:0:70:soft-hitwhistle3.wav
384,192,30950,1,0,0:0:0:70:soft-hitclap3.wav
42,192,31116,1,0,0:0:0:0:
213,192,31116,1,0,0:0:0:70:soft-hitwhistle3.wav
298,192,31448,1,0,0:0:0:70:soft-hitwhistle3.wav
384,192,31558,1,0,0:0:0:70:soft-hitwhistle3.wav
469,192,31669,1,0,0:0:0:70:soft-hitwhistle3.wav
384,192,31779,1,0,0:0:0:70:soft-hitwhistle3.wav
298,192,31945,1,0,0:0:0:70:soft-hitclap3.wav
42,192,32111,1,0,0:0:0:0:
298,192,32111,1,0,0:0:0:70:soft-hitwhistle3.wav
213,192,32277,1,0,0:0:0:0:
128,192,32442,1,0,0:0:0:0:
384,192,32442,1,0,0:0:0:70:soft-hitwhistle3.wav
213,192,32608,1,0,0:0:0:0:
128,192,32774,1,0,0:0:0:0:
469,192,32774,1,0,0:0:0:70:soft-hitwhistle3.wav
42,192,32940,1,0,0:0:0:0:
42,192,33105,1,0,0:0:0:0:
384,192,33105,1,0,0:0:0:70:soft-hitclap3.wav
213,192,33271,1,0,0:0:0:0:
128,192,33437,1,0,0:0:0:0:
298,192,33437,1,0,0:0:0:70:soft-hitwhistle3.wav
213,192,33603,1,0,0:0:0:0:
128,192,33769,1,0,0:0:0:0:
384,192,33769,1,0,0:0:0:70:soft-hitwhistle3.wav
42,192,33934,1,0,0:0:0:0:
42,192,34100,1,0,0:0:0:0:
469,192,34100,1,0,0:0:0:70:soft-hitwhistle3.wav
213,192,34266,1,0,0:0:0:0:
128,192,34432,1,0,0:0:0:0:
384,192,34432,1,0,0:0:0:70:soft-hitwhistle3.wav
213,192,34597,1,0,0:0:0:0:
128,192,34763,1,0,0:0:0:0:
298,192,34763,1,0,0:0:0:70:soft-hitwhistle3.wav
42,192,34929,1,0,0:0:0:0:
42,192,35095,1,0,0:0:0:0:
384,192,35095,1,0,0:0:0:70:soft-hitclap3.wav
213,192,35261,1,0,0:0:0:0:
128,192,35426,1,0,0:0:0:0:
469,192,35426,1,0,0:0:0:70:soft-hitwhistle3.wav
213,192,35592,1,0,0:0:0:0:
128,192,35758,1,0,0:0:0:0:
384,192,35758,1,0,0:0:0:70:soft-hitwhistle3.wav
42,192,35924,1,0,0:0:0:0:
42,192,36090,1,0,0:0:0:0:
298,192,36090,1,0,0:0:0:70:soft-hitwhistle3.wav
213,192,36255,1,0,0:0:0:0:
128,192,36421,1,0,0:0:0:0:
384,192,36421,1,0,0:0:0:70:soft-hitwhistle3.wav
213,192,36587,1,0,0:0:0:0:
128,192,36753,1,0,0:0:0:0:
469,192,36753,1,0,0:0:0:70:soft-hitwhistle3.wav
42,192,36918,1,0,0:0:0:0:
42,192,37084,1,0,0:0:0:0:
384,192,37084,1,0,0:0:0:70:soft-hitclap3.wav
213,192,37250,1,0,0:0:0:0:
128,192,37416,1,0,0:0:0:0:
298,192,37416,1,0,0:0:0:70:soft-hitwhistle3.wav
213,192,37582,1,0,0:0:0:0:
128,192,37747,1,0,0:0:0:0:
384,192,37747,1,0,0:0:0:70:soft-hitwhistle3.wav
42,192,37913,1,0,0:0:0:0:
298,192,38079,1,0,0:0:0:70:soft-hitclap3.wav
128,192,38079,1,0,0:0:0:0:
469,192,38245,1,0,0:0:0:70:soft-hitwhistle3.wav
298,192,38245,1,0,0:0:0:0:
384,192,38410,1,0,0:0:0:70:soft-hitclap3.wav
213,192,38410,1,0,0:0:0:0:
469,192,38576,1,0,0:0:0:70:soft-hitwhistle3.wav
298,192,38576,1,0,0:0:0:0:
384,192,38742,1,0,0:0:0:70:soft-hitclap3.wav
213,192,38742,1,0,0:0:0:0:
298,192,38908,1,0,0:0:0:70:soft-hitwhistle3.wav
128,192,38908,1,0,0:0:0:0:
42,192,39074,1,0,0:0:0:0:
213,192,39074,1,0,0:0:0:70:soft-hitclap3.wav
298,192,39239,1,0,0:0:0:70:soft-hitclap3.wav
213,192,39405,1,0,0:0:0:70:soft-hitclap3.wav
128,192,39571,1,0,0:0:0:70:soft-hitclap3.wav
42,192,39737,1,0,0:0:0:70:soft-hitclap3.wav
128,192,40068,1,0,0:0:0:0:
384,192,40068,1,0,0:0:0:0:
213,192,40400,1,0,0:0:0:0:
298,192,40731,1,0,0:0:0:0:
213,192,41063,1,0,0:0:0:0:
298,192,41395,1,0,0:0:0:0:
384,192,41726,1,0,0:0:0:0:
469,192,42058,1,0,0:0:0:70:soft-hitfinish3.wav
