osu file format v14

[General]
AudioFilename: 7.VII. Granat.mp3
AudioLeadIn: 2000
PreviewTime: 281
Countdown: 0
SampleSet: Soft
StackLeniency: 0.7
Mode: 3
LetterboxInBreaks: 0
SpecialStyle: 1
WidescreenStoryboard: 0

[Editor]
Bookmarks: 281,6249,14206,16196,22164,24153,32111,40068
DistanceSpacing: 1
BeatDivisor: 4
GridSize: 4
TimelineZoom: 3.099999

[Metadata]
Title:Granat
TitleUnicode:Granat
Artist:Drop
ArtistUnicode:Drop
Creator:-Kamikaze-
Version:8K Magic Orb
Source:
Tags:竜と炎の物語 清風明月 c85 seifuu meigetsu ryuu to honou no monogatari Dragon and Flame Rayz141 Eternalie Ripazhakgggdkp Tidek Bobbias Fullerene- rCaliberGX lZenxl Zenx Z3nx
BeatmapID:636467
BeatmapSetID:281349

[Difficulty]
HPDrainRate:8
CircleSize:8
OverallDifficulty:9
ApproachRate:9
SliderMultiplier:1.79999990463257
SliderTickRate:1

[Events]
//Background and Video events
0,0,"bg.jpg",0,0
//Break Periods
//Storyboard Layer 0 (Background)
//Storyboard Layer 1 (Fail)
//Storyboard Layer 2 (Pass)
//Storyboard Layer 3 (Foreground)
//Storyboard Sound Samples

[TimingPoints]
281,331.5649867374,3,2,1,20,1,0

[Colours]
Combo1 : 255,128,192
Combo2 : 128,255,128
Combo3 : 0,255,255
Combo4 : 255,255,128

[HitObjects]
288,192,281,5,0,0:0:0:20:bassdrum.wav
32,192,281,1,4,0:0:0:0:
416,192,281,1,0,0:0:0:0:
352,192,446,1,0,0:0:0:0:
416,192,612,1,0,0:0:0:0:
224,192,612,1,0,0:0:0:30:hihat.wav
480,192,778,1,0,0:0:0:0:
288,192,778,1,0,0:0:0:20:bassdrum.wav
96,192,944,1,0,0:0:0:0:
352,192,944,1,0,0:0:0:30:hihat.wav
160,192,1109,1,0,0:0:0:40:bassdrum.wav
32,192,1275,1,8,0:0:0:0:
224,192,1275,1,0,0:0:0:0:
288,192,1275,1,0,0:0:0:0:
480,192,1275,1,8,0:0:0:0:
96,192,1607,1,0,0:0:0:0:
352,192,1607,1,0,0:0:0:30:hihat.wav
160,192,1773,1,0,0:0:0:0:
416,192,1773,1,8,0:0:0:0:
224,192,1938,1,0,0:0:0:30:hihat.wav
480,192,1938,1,0,0:0:0:0:
288,192,2104,1,8,0:0:0:0:
96,192,2270,1,0,0:0:0:20:bassdrum.wav
352,192,2270,128,0,3265:0:0:0:0:
160,192,2436,128,0,3265:0:0:0:0:
224,192,2601,128,0,3265:0:0:0:30:hihat.wav
288,192,2767,128,0,3265:0:0:0:20:bassdrum.wav
416,192,2933,128,0,3265:0:0:0:30:hihat.wav
480,192,3099,128,0,3265:0:0:0:20:bassdrum.wav
32,192,3265,1,8,0:0:0:0:
96,192,3265,128,0,3596:0:0:0:0:
160,192,3596,1,0,0:0:0:0:
352,192,3596,1,0,0:0:0:30:hihat.wav
288,192,3734,1,0,0:0:0:0:
224,192,3845,1,0,0:0:0:0:
480,192,3928,1,0,0:0:0:30:hihat.wav
96,192,3928,1,0,0:0:0:0:
160,192,4093,1,8,0:0:0:0:
352,192,4259,1,0,0:0:0:20:bassdrum.wav
224,192,4259,1,0,0:0:0:0:
416,192,4259,128,0,6083:0:0:0:0:
288,192,4425,1,0,0:0:0:0:
352,192,4591,1,0,0:0:0:0:
224,192,4591,1,0,0:0:0:30:hihat.wav
160,192,4757,1,0,0:0:0:0:
288,192,4757,1,0,0:0:0:20:bassdrum.wav
96,192,4922,1,0,0:0:0:0:
224,192,4922,1,0,0:0:0:30:hihat.wav
160,192,5088,1,0,0:0:0:0:
32,192,5254,1,8,0:0:0:0:
224,192,5254,1,0,0:0:0:0:
352,192,5254,1,0,0:0:0:0:
96,192,5586,1,0,0:0:0:0:
224,192,5586,1,0,0:0:0:30:hihat.wav
160,192,5751,1,0,0:0:0:0:
288,192,5751,1,8,0:0:0:0:
224,192,5917,1,0,0:0:0:0:
352,192,5917,1,0,0:0:0:30:hihat.wav
288,192,6083,1,8,0:0:0:0:
96,192,6249,128,0,6580:0:0:0:0:
480,192,6249,1,0,0:0:0:20:bassdrum.wav
224,192,6249,1,0,0:0:0:0:
416,192,6414,1,0,0:0:0:0:
224,192,6580,128,0,6912:0:0:0:0:
480,192,6580,1,0,0:0:0:30:hihat.wav
288,192,6580,1,0,0:0:0:0:
416,192,6746,1,0,0:0:0:40:bassdrum.wav
480,192,6912,1,0,0:0:0:0:
96,192,6912,1,0,0:0:0:30:hihat.wav
352,192,6912,128,0,7243:0:0:0:0:
160,192,7078,1,0,0:0:0:40:bassdrum.wav
32,192,7243,1,8,0:0:0:0:
224,192,7243,1,0,0:0:0:0:
288,192,7243,128,0,7741:0:0:0:0:
480,192,7243,1,0,0:0:0:0:
480,192,7575,1,0,0:0:0:30:hihat.wav
416,192,7741,1,0,0:0:0:0:
224,192,7741,1,8,0:0:0:0:
160,192,7824,1,0,0:0:0:0:
96,192,7906,128,0,8238:0:0:0:0:
352,192,7906,1,0,0:0:0:30:hihat.wav
416,192,8072,1,8,0:0:0:0:
32,192,8238,1,4,0:0:0:0:
288,192,8238,128,0,11056:0:0:0:0:
352,192,8238,1,0,0:0:0:0:
480,192,8238,1,0,0:0:0:20:bassdrum.wav
416,192,8570,1,0,0:0:0:30:hihat.wav
96,192,8570,1,0,0:0:0:0:
160,192,8735,1,0,0:0:0:20:bassdrum.wav
480,192,8901,1,0,0:0:0:0:
224,192,8901,1,0,0:0:0:30:hihat.wav
160,192,9067,1,0,0:0:0:20:bassdrum.wav
32,192,9233,1,8,0:0:0:0:
96,192,9233,1,0,0:0:0:0:
416,192,9233,1,0,0:0:0:0:
480,192,9564,1,0,0:0:0:30:hihat.wav
352,192,9730,1,8,0:0:0:0:
416,192,9730,1,0,0:0:0:0:
96,192,9896,1,0,0:0:0:30:hihat.wav
160,192,10062,1,0,0:0:0:0:
224,192,10062,1,8,0:0:0:0:
96,192,10227,1,0,0:0:0:0:
416,192,10227,1,0,0:0:0:20:bassdrum.wav
480,192,10559,1,0,0:0:0:0:
352,192,10559,1,0,0:0:0:30:hihat.wav
224,192,10725,1,0,0:0:0:20:bassdrum.wav
96,192,10891,1,0,0:0:0:30:hihat.wav
160,192,10891,1,0,0:0:0:0:
224,192,11056,1,0,0:0:0:20:bassdrum.wav
32,192,11222,1,8,0:0:0:0:
480,192,11222,1,0,0:0:0:0:
352,192,11222,1,0,0:0:0:0:
416,192,11222,128,0,11719:0:0:0:0:
96,192,11554,1,0,0:0:0:0:
224,192,11554,1,0,0:0:0:30:hihat.wav
288,192,11719,1,8,0:0:0:0:
480,192,11885,1,0,0:0:0:30:hihat.wav
160,192,11885,128,0,12217:0:0:0:0:
288,192,12051,1,8,0:0:0:0:
96,192,12217,128,0,14206:0:0:0:20:bassdrum.wav
416,192,12217,1,0,0:0:0:0:
352,192,12548,1,0,0:0:0:30:hihat.wav
224,192,12714,1,0,0:0:0:20:bassdrum.wav
288,192,12880,1,0,0:0:0:30:hihat.wav
352,192,13046,1,0,0:0:0:20:bassdrum.wav
32,192,13212,1,8,0:0:0:0:
224,192,13212,1,0,0:0:0:0:
416,192,13212,1,0,0:0:0:0:
480,192,13212,1,0,0:0:0:0:
160,192,13543,1,0,0:0:0:30:hihat.wav
288,192,13709,1,8,0:0:0:0:
416,192,13875,1,0,0:0:0:30:hihat.wav
480,192,14040,1,8,0:0:0:0:
288,192,14206,1,0,0:0:0:0:
416,192,14206,1,0,0:0:0:20:bassdrum.wav
224,192,14372,1,0,0:0:0:0:
160,192,14538,1,0,0:0:0:30:hihat.wav
96,192,14538,1,0,0:0:0:0:
352,192,14704,1,0,0:0:0:20:bassdrum.wav
224,192,14704,1,0,0:0:0:0:
288,192,14869,1,0,0:0:0:30:hihat.wav
224,192,15035,1,0,0:0:0:20:bassdrum.wav
480,192,15035,1,0,0:0:0:0:
32,192,15201,1,8,0:0:0:0:
416,192,15201,1,0,0:0:0:0:
288,192,15201,1,0,0:0:0:0:
160,192,15201,1,0,0:0:0:0:
352,192,15367,1,0,0:0:0:0:
288,192,15532,1,0,0:0:0:0:
96,192,15532,1,0,0:0:0:30:hihat.wav
480,192,15698,1,0,0:0:0:0:
160,192,15698,1,8,0:0:0:0:
416,192,15864,1,0,0:0:0:0:
224,192,15864,1,0,0:0:0:30:hihat.wav
352,192,16030,1,8,0:0:0:0:
32,192,16196,1,4,0:0:0:0:
160,192,16196,1,0,0:0:0:20:bassdrum.wav
288,192,16196,1,0,0:0:0:0:
416,192,16196,128,0,19180:0:0:0:0:
96,192,16527,1,0,0:0:0:30:hihat.wav
352,192,16527,1,0,0:0:0:0:
160,192,16693,1,0,0:0:0:40:bassdrum.wav
480,192,16859,1,0,0:0:0:0:
224,192,16859,1,0,0:0:0:30:hihat.wav
288,192,17025,1,0,0:0:0:20:bassdrum.wav
32,192,17190,1,8,0:0:0:0:
96,192,17190,1,0,0:0:0:0:
352,192,17190,1,0,0:0:0:0:
480,192,17522,1,0,0:0:0:30:hihat.wav
288,192,17522,1,0,0:0:0:0:
352,192,17688,1,8,0:0:0:0:
96,192,17853,1,0,0:0:0:0:
224,192,17853,1,0,0:0:0:30:hihat.wav
288,192,18019,1,8,0:0:0:0:
32,192,18185,1,4,0:0:0:0:
480,192,18185,1,0,0:0:0:0:
160,192,18185,1,0,0:0:0:20:bassdrum.wav
352,192,18185,1,0,0:0:0:0:
288,192,18351,1,0,0:0:0:0:
480,192,18517,1,0,0:0:0:0:
224,192,18517,1,0,0:0:0:30:hihat.wav
160,192,18682,1,0,0:0:0:40:bassdrum.wav
480,192,18848,1,0,0:0:0:0:
96,192,18848,1,0,0:0:0:30:hihat.wav
224,192,19014,1,0,0:0:0:20:bassdrum.wav
32,192,19180,1,8,0:0:0:0:
96,192,19180,1,0,0:0:0:0:
288,192,19180,1,0,0:0:0:0:
480,192,19180,128,0,19677:0:0:0:0:
96,192,19511,1,0,0:0:0:0:
224,192,19511,1,0,0:0:0:30:hihat.wav
352,192,19677,128,0,19843:0:0:0:0:
160,192,19677,1,8,0:0:0:0:
96,192,19843,1,0,0:0:0:30:hihat.wav
288,192,19843,128,0,20174:0:0:0:0:
224,192,19843,1,0,0:0:0:0:
416,192,20009,1,8,0:0:0:0:
32,192,20174,1,4,0:0:0:0:
160,192,20174,1,0,0:0:0:0:
96,192,20174,1,0,0:0:0:20:bassdrum.wav
352,192,20174,128,0,22164:0:0:0:0:
224,192,20340,1,0,0:0:0:0:
96,192,20506,1,0,0:0:0:0:
480,192,20506,1,0,0:0:0:30:hihat.wav
288,192,20672,1,0,0:0:0:20:bassdrum.wav
96,192,20838,1,0,0:0:0:30:hihat.wav
224,192,21003,1,0,0:0:0:20:bassdrum.wav
32,192,21169,1,8,0:0:0:0:
416,192,21169,1,0,0:0:0:0:
480,192,21169,1,0,0:0:0:0:
160,192,21501,1,0,0:0:0:30:hihat.wav
480,192,21501,1,0,0:0:0:0:
224,192,21666,1,8,0:0:0:0:
160,192,21832,1,0,0:0:0:0:
416,192,21832,1,0,0:0:0:30:hihat.wav
224,192,21998,1,8,0:0:0:0:
32,192,22164,1,4,0:0:0:0:
288,192,22164,1,0,0:0:0:0:
480,192,22164,1,0,0:0:0:0:
224,192,22330,1,0,0:0:0:0:
416,192,22330,1,0,0:0:0:0:
32,192,22330,1,8,0:0:0:0:
32,192,22661,1,4,0:0:0:0:
416,192,22661,1,0,0:0:0:0:
224,192,22661,1,0,0:0:0:0:
480,192,22827,1,0,0:0:0:0:
288,192,22827,1,0,0:0:0:0:
32,192,22827,1,8,0:0:0:0:
32,192,23158,1,8,0:0:0:0:
352,192,23158,1,0,0:0:0:0:
480,192,23158,1,0,0:0:0:0:
224,192,23324,1,0,0:0:0:0:
32,192,23324,1,8,0:0:0:0:
288,192,23490,1,0,0:0:0:0:
416,192,23490,1,0,0:0:0:20:bassdrum.wav
160,192,23656,1,0,0:0:0:40:bassdrum.wav
224,192,23822,1,0,0:0:0:0:
352,192,23822,1,0,0:0:0:20:bassdrum.wav
480,192,23987,1,0,0:0:0:40:bassdrum.wav
32,192,24153,1,4,0:0:0:0:
288,192,24153,1,0,0:0:0:20:soft-hitclap3.wav
416,192,24153,1,0,0:0:0:0:
96,192,24319,1,0,0:0:0:20:soft-hitclap3.wav
160,192,24485,1,0,0:0:0:20:soft-hitclap3.wav
224,192,24651,1,0,0:0:0:20:soft-hitclap3.wav
288,192,24816,1,0,0:0:0:20:soft-hitclap3.wav
416,192,24982,1,0,0:0:0:20:soft-hitclap3.wav
96,192,25148,128,0,25231:0:0:0:0:
352,192,25148,1,0,0:0:0:20:soft-hitclap3.wav
224,192,25479,1,0,0:0:0:20:soft-hitclap3.wav
352,192,25645,1,0,0:0:0:20:soft-hitclap3.wav
160,192,25811,1,0,0:0:0:20:soft-hitclap3.wav
288,192,25977,1,0,0:0:0:20:soft-hitclap3.wav
96,192,26143,1,0,0:0:0:0:
416,192,26143,1,0,0:0:0:20:soft-hitclap3.wav
224,192,26143,1,0,0:0:0:0:
352,192,26474,1,0,0:0:0:20:soft-hitclap3.wav
288,192,26640,1,0,0:0:0:20:soft-hitclap3.wav
416,192,26806,1,0,0:0:0:0:
224,192,26806,1,0,0:0:0:20:soft-hitclap3.wav
96,192,27137,128,0,27220:0:0:0:0:
288,192,27137,1,0,0:0:0:20:soft-hitclap3.wav
416,192,27303,1,0,0:0:0:20:soft-hitclap3.wav
352,192,27469,1,0,0:0:0:20:soft-hitclap3.wav
480,192,27579,1,0,0:0:0:20:soft-hitclap3.wav
288,192,27690,1,0,0:0:0:20:soft-hitclap3.wav
160,192,27800,1,0,0:0:0:20:soft-hitclap3.wav
96,192,27966,1,0,0:0:0:20:soft-hitclap3.wav
480,192,28132,128,0,28215:0:0:0:0:
224,192,28132,1,0,0:0:0:20:soft-hitclap3.wav
96,192,28298,1,0,0:0:0:20:soft-hitclap3.wav
160,192,28464,1,0,0:0:0:20:soft-hitclap3.wav
224,192,28629,1,0,0:0:0:20:soft-hitclap3.wav
288,192,28795,1,0,0:0:0:20:soft-hitclap3.wav
480,192,28961,1,0,0:0:0:20:soft-hitclap3.wav
288,192,29127,1,0,0:0:0:20:soft-hitclap3.wav
416,192,29127,1,0,0:0:0:0:
96,192,29127,128,0,29210:0:0:0:0:
288,192,29790,1,0,0:0:0:20:soft-hitclap3.wav
352,192,29956,1,0,0:0:0:20:soft-hitclap3.wav
416,192,30121,1,0,0:0:0:20:soft-hitclap3.wav
480,192,30121,128,0,30204:0:0:0:0:
160,192,30453,1,0,0:0:0:20:soft-hitclap3.wav
224,192,30619,1,0,0:0:0:20:soft-hitclap3.wav
288,192,30784,1,0,0:0:0:20:soft-hitclap3.wav
352,192,30950,1,0,0:0:0:20:soft-hitclap3.wav
480,192,31116,1,0,0:0:0:20:soft-hitclap3.wav
96,192,31116,128,0,31199:0:0:0:0:
352,192,31448,1,0,0:0:0:20:soft-hitclap3.wav
480,192,31558,1,0,0:0:0:20:soft-hitclap3.wav
288,192,31669,1,0,0:0:0:20:soft-hitclap3.wav
224,192,31779,1,0,0:0:0:20:soft-hitclap3.wav
96,192,31945,1,0,0:0:0:20:soft-hitclap3.wav
32,192,32111,1,2,0:0:0:0:
416,192,32111,1,0,0:0:0:0:
224,192,32111,1,0,0:0:0:20:soft-hitclap3.wav
288,192,32277,1,0,0:0:0:20:soft-hitclap3.wav
160,192,32442,1,0,0:0:0:20:soft-hitclap3.wav
480,192,32442,1,0,0:0:0:0:
352,192,32608,1,0,0:0:0:20:soft-hitclap3.wav
416,192,32774,1,0,0:0:0:20:soft-hitclap3.wav
224,192,32774,1,0,0:0:0:0:
96,192,32940,1,0,0:0:0:20:soft-hitclap3.wav
160,192,33105,1,0,0:0:0:0:
480,192,33105,1,0,0:0:0:20:soft-hitclap3.wav
288,192,33271,1,0,0:0:0:20:soft-hitclap3.wav
416,192,33437,1,0,0:0:0:0:
96,192,33437,1,0,0:0:0:20:soft-hitclap3.wav
224,192,33603,1,0,0:0:0:20:soft-hitclap3.wav
160,192,33769,1,0,0:0:0:20:soft-hitclap3.wav
352,192,33769,1,0,0:0:0:0:
480,192,33934,1,0,0:0:0:20:soft-hitclap3.wav
416,192,34100,1,0,0:0:0:0:
96,192,34100,1,0,0:0:0:20:soft-hitclap3.wav
32,192,34100,1,2,0:0:0:0:
288,192,34266,1,0,0:0:0:20:soft-hitclap3.wav
160,192,34432,1,0,0:0:0:0:
480,192,34432,1,0,0:0:0:20:soft-hitclap3.wav
352,192,34597,1,0,0:0:0:20:soft-hitclap3.wav
224,192,34763,1,0,0:0:0:0:
416,192,34763,1,0,0:0:0:20:soft-hitclap3.wav
96,192,34929,1,0,0:0:0:20:soft-hitclap3.wav
160,192,35095,1,0,0:0:0:0:
480,192,35095,1,0,0:0:0:20:soft-hitclap3.wav
288,192,35261,1,0,0:0:0:20:soft-hitclap3.wav
416,192,35426,1,0,0:0:0:20:soft-hitclap3.wav
96,192,35426,1,0,0:0:0:0:
224,192,35592,1,0,0:0:0:20:soft-hitclap3.wav
352,192,35758,1,0,0:0:0:0:
160,192,35758,1,0,0:0:0:20:soft-hitclap3.wav
480,192,35924,1,0,0:0:0:20:soft-hitclap3.wav
416,192,36090,1,0,0:0:0:0:
224,192,36090,1,0,0:0:0:20:soft-hitclap3.wav
32,192,36090,1,2,0:0:0:0:
288,192,36255,1,0,0:0:0:20:soft-hitclap3.wav
160,192,36421,1,0,0:0:0:20:soft-hitclap3.wav
480,192,36421,1,0,0:0:0:0:
352,192,36587,1,0,0:0:0:20:soft-hitclap3.wav
224,192,36753,1,0,0:0:0:0:
416,192,36753,1,0,0:0:0:20:soft-hitclap3.wav
96,192,36918,1,0,0:0:0:20:soft-hitclap3.wav
160,192,37084,1,0,0:0:0:0:
480,192,37084,1,0,0:0:0:20:soft-hitclap3.wav
288,192,37250,1,0,0:0:0:20:soft-hitclap3.wav
96,192,37416,1,0,0:0:0:0:
416,192,37416,1,0,0:0:0:20:soft-hitclap3.wav
224,192,37582,1,0,0:0:0:20:soft-hitclap3.wav
352,192,37747,1,0,0:0:0:0:
160,192,37747,1,0,0:0:0:20:soft-hitclap3.wav
480,192,37913,1,0,0:0:0:20:soft-hitclap3.wav
32,192,38079,1,0,0:0:0:0:
352,192,38079,1,0,0:0:0:20:soft-hitclap3.wav
160,192,38079,1,2,0:0:0:0:
224,192,38245,1,2,0:0:0:0:
416,192,38245,1,0,0:0:0:20:soft-hitclap3.wav
288,192,38410,1,2,0:0:0:0:
480,192,38410,1,0,0:0:0:20:soft-hitclap3.wav
224,192,38576,1,2,0:0:0:0:
416,192,38576,1,0,0:0:0:20:soft-hitclap3.wav
352,192,38742,1,0,0:0:0:20:soft-hitclap3.wav
160,192,38742,1,2,0:0:0:0:
416,192,38908,1,0,0:0:0:20:soft-hitclap3.wav
96,192,38908,1,2,0:0:0:0:
160,192,39074,1,2,0:0:0:0:
480,192,39074,1,0,0:0:0:20:soft-hitclap3.wav
224,192,39239,1,2,0:0:0:0:
416,192,39239,1,0,0:0:0:20:soft-hitclap3.wav
160,192,39405,1,2,0:0:0:0:
352,192,39405,1,0,0:0:0:20:soft-hitclap3.wav
96,192,39571,1,2,0:0:0:0:
288,192,39571,1,0,0:0:0:20:soft-hitclap3.wav
160,192,39737,1,2,0:0:0:0:
224,192,39737,1,0,0:0:0:20:soft-hitclap3.wav
96,192,40068,128,0,40151:0:0:0:0:
352,192,40068,1,0,0:0:0:20:soft-hitclap3.wav
416,192,40400,1,0,0:0:0:20:soft-hitclap3.wav
480,192,40731,1,0,0:0:0:20:soft-hitclap3.wav
96,192,41063,1,0,0:0:0:20:soft-hitclap3.wav
160,192,41395,1,0,0:0:0:20:soft-hitclap3.wav
224,192,41726,1,0,0:0:0:20:soft-hitclap3.wav
288,192,42058,1,0,0:0:0:20:soft-hitclap3.wav
480,192,42058,1,0,0:0:0:20:soft-hitfinish3.wav
