osu file format v14

[General]
AudioFilename: 7.VII. Granat.mp3
AudioLeadIn: 2000
PreviewTime: 281
Countdown: 0
SampleSet: Soft
StackLeniency: 0.7
Mode: 3
LetterboxInBreaks: 0
SpecialStyle: 0
WidescreenStoryboard: 1

[Editor]
Bookmarks: 281,6249,14206,16196,22164,24153,32111,40068
DistanceSpacing: 1
BeatDivisor: 4
GridSize: 4
TimelineZoom: 0.7

[Metadata]
Title:Granat
TitleUnicode:Granat
Artist:Drop
ArtistUnicode:Drop
Creator:-Kamikaze-
Version:5K Easy
Source:
Tags:竜と炎の物語 清風明月 c85 seifuu meigetsu ryuu to honou no monogatari Dragon and Flame Rayz141 Eternalie Ripazhakgggdkp Tidek Bobbias Fullerene- rCaliberGX lZenxl Zenx Z3nx
BeatmapID:647965
BeatmapSetID:281349

[Difficulty]
HPDrainRate:7
CircleSize:5
OverallDifficulty:7
ApproachRate:9
SliderMultiplier:1.79999990463257
SliderTickRate:1

[Events]
//Background and Video events
0,0,"bg.jpg",0,0
//Break Periods
//Storyboard Layer 0 (Background)
//Storyboard Layer 1 (Fail)
//Storyboard Layer 2 (Pass)
//Storyboard Layer 3 (Foreground)
//Storyboard Sound Samples
Sample,612,0,"hihat.wav",30
Sample,778,0,"bassdrum.wav",40
Sample,944,0,"hihat.wav",30
Sample,1607,0,"hihat.wav",30
Sample,1938,0,"hihat.wav",30
Sample,2601,0,"hihat.wav",30
Sample,2767,0,"bassdrum.wav",40
Sample,2933,0,"hihat.wav",30
Sample,3099,0,"bassdrum.wav",40
Sample,3596,0,"hihat.wav",30
Sample,3928,0,"hihat.wav",30
Sample,4591,0,"hihat.wav",30
Sample,4757,0,"bassdrum.wav",40
Sample,4922,0,"hihat.wav",30
Sample,5586,0,"hihat.wav",30
Sample,5917,0,"hihat.wav",30
Sample,6580,0,"hihat.wav",30
Sample,6912,0,"hihat.wav",30
Sample,7906,0,"hihat.wav",30
Sample,8570,0,"hihat.wav",30
Sample,8735,0,"bassdrum.wav",40
Sample,8901,0,"hihat.wav",30
Sample,9067,0,"bassdrum.wav",40
Sample,10559,0,"hihat.wav",30
Sample,10725,0,"bassdrum.wav",40
Sample,10891,0,"hihat.wav",30
Sample,11056,0,"bassdrum.wav",40
Sample,11885,0,"hihat.wav",30
Sample,12548,0,"hihat.wav",30
Sample,12714,0,"bassdrum.wav",40
Sample,12880,0,"hihat.wav",30
Sample,13046,0,"bassdrum.wav",40
Sample,15035,0,"bassdrum.wav",40
Sample,16527,0,"hihat.wav",30
Sample,16693,0,"bassdrum.wav",40
Sample,16859,0,"hihat.wav",30
Sample,17025,0,"bassdrum.wav",40
Sample,17190,0,"hihat.wav",30
Sample,18517,0,"hihat.wav",30
Sample,18682,0,"bassdrum.wav",40
Sample,18848,0,"hihat.wav",30
Sample,19014,0,"bassdrum.wav",40
Sample,19180,0,"hihat.wav",30
Sample,20506,0,"hihat.wav",30
Sample,20672,0,"bassdrum.wav",40
Sample,20838,0,"hihat.wav",30
Sample,21003,0,"bassdrum.wav",40
Sample,24319,0,"soft-hitclap3.wav",25
Sample,24485,0,"soft-hitclap3.wav",25
Sample,24651,0,"soft-hitclap3.wav",25
Sample,24816,0,"soft-hitclap3.wav",25
Sample,24982,0,"soft-hitclap3.wav",25
Sample,25148,0,"hihat.wav",30
Sample,25811,0,"soft-hitclap3.wav",25
Sample,25977,0,"soft-hitclap3.wav",25
Sample,26143,0,"soft-hitclap3.wav",25
Sample,26640,0,"soft-hitclap3.wav",25
Sample,26806,0,"soft-hitclap3.wav",25
Sample,27469,0,"soft-hitclap3.wav",25
Sample,27800,0,"soft-hitclap3.wav",25
Sample,27966,0,"soft-hitclap3.wav",25
Sample,28132,0,"soft-hitclap3.wav",25
Sample,28298,0,"soft-hitclap3.wav",25
Sample,28464,0,"soft-hitclap3.wav",25
Sample,28629,0,"soft-hitclap3.wav",25
Sample,28795,0,"soft-hitclap3.wav",25
Sample,28961,0,"soft-hitclap3.wav",25
Sample,29127,0,"soft-hitclap3.wav",25
Sample,29790,0,"soft-hitclap3.wav",25
Sample,29956,0,"soft-hitclap3.wav",25
Sample,30121,0,"soft-hitclap3.wav",25
Sample,30619,0,"soft-hitclap3.wav",25
Sample,30784,0,"soft-hitclap3.wav",25
Sample,30784,0,"hihat.wav",30
Sample,30950,0,"soft-hitclap3.wav",25
Sample,31116,0,"hihat.wav",30
Sample,31448,0,"soft-hitclap3.wav",25
Sample,31779,0,"soft-hitclap3.wav",25
Sample,31945,0,"soft-hitclap3.wav",25
Sample,32111,0,"soft-hitclap3.wav",25
Sample,32442,0,"soft-hitclap3.wav",25
Sample,32774,0,"soft-hitclap3.wav",25
Sample,33437,0,"soft-hitclap3.wav",25
Sample,33769,0,"soft-hitclap3.wav",25
Sample,34432,0,"soft-hitclap3.wav",25
Sample,34763,0,"soft-hitclap3.wav",25
Sample,35426,0,"soft-hitclap3.wav",25
Sample,35758,0,"soft-hitclap3.wav",25
Sample,36090,0,"soft-hitclap3.wav",25
Sample,36421,0,"soft-hitclap3.wav",25
Sample,36753,0,"soft-hitclap3.wav",25
Sample,37416,0,"soft-hitclap3.wav",25
Sample,37747,0,"soft-hitclap3.wav",25
Sample,38410,0,"soft-hitclap3.wav",25
Sample,38742,0,"soft-hitclap3.wav",25
Sample,39405,0,"soft-hitclap3.wav",25
Sample,39737,0,"soft-hitclap3.wav",25
Sample,40400,0,"soft-hitclap3.wav",25
Sample,40731,0,"soft-hitclap3.wav",25
Sample,41395,0,"soft-hitclap3.wav",25
Sample,41726,0,"soft-hitclap3.wav",25
Sample,42058,0,"soft-hitclap3.wav",25

[TimingPoints]
281,331.5649867374,3,2,1,20,1,0

[Colours]
Combo1 : 255,128,192
Combo2 : 128,255,128
Combo3 : 0,255,255
Combo4 : 255,255,128

[HitObjects]
32,192,281,5,4,0:0:0:0:
460,192,281,1,0,0:0:0:40:bassdrum.wav
224,192,1275,1,8,0:0:0:0:
416,192,2270,1,0,0:0:0:40:bassdrum.wav
256,192,3265,1,8,0:0:0:0:
96,192,4259,1,0,0:0:0:40:bassdrum.wav
288,192,5254,1,8,0:0:0:0:
480,192,6249,1,0,0:0:0:40:bassdrum.wav
256,192,7243,1,8,0:0:0:0:
32,192,8238,1,4,0:0:0:0:
460,192,8238,1,0,0:0:0:40:bassdrum.wav
160,192,9233,1,8,0:0:0:0:
480,192,10227,1,0,0:0:0:40:bassdrum.wav
358,192,11222,1,8,0:0:0:0:
51,192,12217,1,0,0:0:0:40:bassdrum.wav
256,192,13212,1,8,0:0:0:0:
460,192,14206,1,0,0:0:0:40:bassdrum.wav
358,192,14704,1,0,0:0:0:40:bassdrum.wav
256,192,15201,1,0,0:0:0:30:hihat.wav
153,192,15698,1,8,0:0:0:0:
32,192,16196,1,0,0:0:0:40:bassdrum.wav
460,192,16196,1,4,0:0:0:0:
224,192,17190,1,8,0:0:0:0:
358,192,18185,1,4,0:0:0:0:
153,192,18185,1,0,0:0:0:40:bassdrum.wav
460,192,19180,1,8,0:0:0:0:
32,192,20174,1,0,0:0:0:40:bassdrum.wav
256,192,20174,1,4,0:0:0:0:
160,192,21169,1,8,0:0:0:0:
256,192,22164,1,4,0:0:0:0:
460,192,22164,1,0,0:0:0:0:
32,192,22827,1,8,0:0:0:0:
460,192,22827,1,0,0:0:0:0:
256,192,23158,1,8,0:0:0:0:
153,192,23490,1,0,0:0:0:40:bassdrum.wav
358,192,23822,1,0,0:0:0:40:bassdrum.wav
460,192,24153,1,4,0:0:0:25:soft-hitclap3.wav
256,192,25148,1,0,0:0:0:25:soft-hitclap3.wav
51,192,26143,1,0,0:0:0:30:hihat.wav
160,192,27137,1,0,0:0:0:25:soft-hitclap3.wav
352,192,28132,1,0,0:0:0:30:hihat.wav
224,192,29127,1,0,0:0:0:30:hihat.wav
416,192,30121,1,0,0:0:0:30:hihat.wav
288,192,31116,1,0,0:0:0:25:soft-hitclap3.wav
96,192,32111,1,2,0:0:0:0:
480,192,33105,1,0,0:0:0:25:soft-hitclap3.wav
153,192,34100,1,0,0:0:0:25:soft-hitclap3.wav
358,192,35095,1,0,0:0:0:25:soft-hitclap3.wav
96,192,36090,1,2,0:0:0:0:
480,192,37084,1,0,0:0:0:25:soft-hitclap3.wav
160,192,38079,128,2,39074:0:0:0:0:
358,192,39074,128,2,39737:0:0:0:0:
51,192,40068,1,0,0:0:0:25:soft-hitclap3.wav
224,192,41063,1,0,0:0:0:25:soft-hitclap3.wav
460,192,42058,1,0,0:0:0:25:soft-hitfinish3.wav
