osu file format v7

[General]
AudioFilename: Gensou Kidan ( teruyoruhime + mikotonori Ver. ).mp3
AudioLeadIn: 0
PreviewTime: 34653
Countdown: 0
SampleSet: Soft
StackLeniency: 0.7
Mode: 0
LetterboxInBreaks: 1

[Editor]
Bookmarks: 16004,53166,59359,122069
DistanceSpacing: 1
BeatDivisor: 2
GridSize: 8

[Metadata]
Title:Gensou Kidan (Kaguyahime+Mikotonori Ver.)
Artist:Drop
Creator:Shinxyn
Version:Normal
Source:Touhou
Tags:U.N Owen was her hatsuki yura flandre scarlet koya teruyoruhime

[Difficulty]
HPDrainRate:4
CircleSize:4
OverallDifficulty:6
SliderMultiplier:1.2
SliderTickRate:1

[Events]
//Background and Video events
0,0,"scarlet.jpg"
//Break Periods
2,53441,58384
//Storyboard Layer 0 (Background)
//Storyboard Layer 1 (Fail)
//Storyboard Layer 2 (Pass)
//Storyboard Layer 3 (Foreground)
//Storyboard Sound Samples
//Background Colour Transformations
3,100,163,162,255

[TimingPoints]
596,387.096774193548,4,2,0,90,1,0
28362,-100,4,2,0,60,0,0
34265,-100,4,2,0,80,0,0
40072,-100,4,2,0,0,0,0
40652,-100,4,2,0,90,0,0
59039,-100,4,2,0,70,0,0
65233,-100,4,2,0,80,0,0
66007,-100,4,1,0,50,0,0
70846,-100,4,2,0,70,0,0
71718,-100,4,2,0,90,0,0
94846,-100,4,1,0,60,0,0
95233,-100,4,1,0,40,0,0
95620,-100,4,1,0,50,0,0
96007,-100,4,2,0,90,0,0
96588,-100,4,2,0,0,0,0
96976,-100,4,2,0,60,0,0
103168,-100,4,2,0,80,0,0
109168,-100,4,2,0,90,0,0

[Colours]
Combo1 : 254,107,232
Combo2 : 104,253,126
Combo3 : 252,112,125
Combo4 : 247,247,247
Combo5 : 101,196,252

[HitObjects]
256,136,8337,2,0,B|224:64|144:40,4,120,4|2|0|0|0
256,256,10273,6,0,B|280:328|368:344,4,120,0|2|0|0|0
376,224,12208,6,0,B|456:192|480:112,4,120,0|2|0|0|0
344,112,14144,6,0,B|304:64|240:53,4,120,0|2|0|0|0
232,160,16079,5,4
168,256,16466,1,2
64,192,16854,1,0
128,88,17241,1,2
232,160,17628,5,0
352,160,18015,1,2
232,160,18402,1,0
352,160,18789,1,2
304,272,19176,5,0
200,328,19563,1,2
176,208,19950,1,0
288,160,20337,1,2
336,48,20725,5,0
288,160,21112,1,2
336,48,21499,1,2
440,264,22273,5,4
336,328,22660,1,2
232,264,23047,1,0
128,328,23434,1,2
128,208,23821,5,0
128,208,24208,1,2
128,208,24595,1,0
128,208,24983,1,2
128,88,25370,5,0
232,144,25757,1,2
336,88,26144,1,0
440,144,26531,1,2
440,264,26918,5,0
440,144,27305,1,2
440,264,27692,1,2
208,328,28466,6,0,B|80:280|80:120,2,240,4|0|0
296,248,30402,2,0,B|352:208|352:136,2,120
224,152,31563,5,0
208,272,31950,1,0
112,192,32337,2,0,B|80:128|120:64,1,120,0|0
224,152,33112,2,0,B|288:176|376:160,1,120
288,56,33886,1,0
48,56,34660,5,4
48,176,35047,1,2
48,296,35434,1,0
48,176,35821,1,2
144,104,36208,1,0
264,104,36595,2,0,B|328:112|360:184,1,120,2|0
352,296,37370,1,2
232,296,37757,6,0,B|168:304|104:264,1,120,0|2
192,184,38531,1,0
216,64,38918,1,2
256,192,39305,12,0,40466
48,336,40854,6,0,B|152:216,1,120,4|2
240,216,41628,2,0,B|176:192|144:128,1,120,0|2
64,56,42402,1,0
24,168,42789,2,0,B|96:176|144:264,2,120,2|0|2
40,288,43950,5,0
144,312,44337,2,0,B|208:336|296:312,1,120,2|0
360,248,45112,2,0,B|296:216|208:248,2,120,2|0|2
360,248,46273,1,0
208,64,47047,5,4
136,160,47434,1,2
256,168,47821,1,0
152,104,48208,1,2
192,216,48595,1,0
72,192,48983,2,0,B|80:336|232:344,1,240,2|2
344,344,50144,6,0,B|408:360|472:320,1,120,4|0
464,208,50918,2,0,B|400:192|328:232,1,120,4|0
256,192,51692,12,4,53241
376,96,59434,6,0,B|256:40|136:96|136:96|136:96,2,240,0|0|0
256,304,61757,2,0,B|256:176,1,120
344,272,62531,6,0,B|296:288|256:328|256:352|256:352|256:328|216:288|168:272,2,240,0|0|0
256,48,64854,2,0,B|280:96|232:128|272:208,1,120
216,280,65628,6,0,B|144:264|120:192,1,120,4|0
126,87,66402,2,0,B|144:16|238:-1,1,120
232,120,67176,2,0,B|336:224,2,120
232,120,68337,1,0
136,192,68725,6,0,B|80:240|112:328,1,120,0|0
216,264,69499,2,0,B|272:216|248:136,1,120
136,192,70273,2,0,B|112:120|184:56,1,120
280,80,71047,2,0,B|384:80,2,90,4|4|4
280,80,71821,6,0,B|272:216|136:296,1,240,4|0
400,296,73370,2,0,B|296:232|320:80,1,240
280,200,74531,1,0
96,200,75112,5,0
216,200,75499,1,0
136,288,75886,1,0
216,200,76273,1,0
336,200,76660,1,0
408,104,77047,1,0
336,200,77434,1,0
396,200,77628,1,0
455,200,77821,6,0,B|455:280,2,60,0|4|0
360,128,78595,1,0
256,64,78983,1,0
256,184,79370,1,0
152,128,79757,1,0
56,200,80144,1,0
160,264,80531,2,0,B|224:296|288:264,1,120
384,216,81305,5,0
360,336,81692,1,0
384,216,82079,1,0
472,296,82466,1,0
384,216,82854,1,0
312,120,83241,1,0
384,216,83628,1,0
408,160,83821,1,0
432,104,84015,6,0,B|464:32,1,60,0|4
336,48,84595,2,0,B|256:40|224:120,1,120,2|0
312,192,85370,2,0,B|272:248|184:240,1,120,2|0
160,128,86144,1,2
64,200,86531,1,2
160,128,86918,1,2
136,248,87305,6,0,B|104:304|232:352,1,120,2|0
312,336,88079,2,0,B|328:288|216:240,1,120,2|0
192,144,88854,1,2
136,248,89241,1,2
80,144,89628,1,0
320,144,90402,6,0,B|344:232|392:248,1,120,4|2
440,144,91176,2,0,B|408:48|368:32,1,120,0|2
320,144,91950,1,2
200,144,92337,1,0
80,144,92725,1,2
40,256,93112,1,2
160,256,93499,6,0,B|304:256,1,120,0|2
400,256,94273,2,0,B|256:256,1,120,0|2
280,136,95047,1,0
280,256,95434,1,0
280,376,95821,2,0,B|144:360|80:216,1,240,0|0
336,264,97370,6,0,B|400:240|440:144,1,120,4|0
336,264,98144,2,0,B|272:240|240:176,1,120,0|0
328,104,98918,1,0
208,104,99305,2,0,B|80:104,1,120,0|0
88,104,100079,1,0
24,208,100466,6,0,B|72:256|160:232,1,120
248,200,101241,1,0
336,120,101628,2,0,B|264:88|184:120,2,120
352,240,102789,1,0
136,336,103563,5,4
256,336,103950,1,2
376,336,104337,1,0
456,240,104724,1,2
376,152,105111,1,0
256,152,105499,2,0,B|120:152,2,120,2|0|2
336,248,106660,5,0
216,248,107047,2,0,B|80:248,2,120,2|0|2
256,192,108208,12,0,109370
256,192,109757,5,4
256,192,110144,1,2
168,272,110531,1,0
168,272,110918,1,2
80,192,111305,1,0
168,112,111692,2,0,B|232:88|320:128,2,120,2|0|2
208,224,112854,5,0
288,312,113241,1,2
400,264,113628,2,0,B|480:240|448:144,1,120,0|2
336,168,114402,2,0,B|272:128,4,60,2|0|2|0|2
168,336,115950,5,4
168,216,116337,1,2
112,112,116725,1,0
232,112,117112,1,2
352,112,117499,1,0
400,224,117886,2,0,B|464:256|456:352,2,120,2|0|2
260,262,119047,6,0,B|200:304|128:248,1,120,4|0
216,160,119821,2,0,B|280:120|352:168,1,120,4|0
256,192,120595,12,4,122144
