osu file format v7

[General]
AudioFilename: Gensou Kidan ( teruyoruhime + mikotonori Ver. ).mp3
AudioLeadIn: 2000
PreviewTime: 34653
Countdown: 0
SampleSet: Soft
StackLeniency: 0.7
Mode: 0
LetterboxInBreaks: 1

[Editor]
Bookmarks: 14136,16004,53166,59359,122069
DistanceSpacing: 1
BeatDivisor: 4
GridSize: 8

[Metadata]
Title:Gensou Kidan (Kaguyahime+Mikotonori Ver.)
Artist:Drop
Creator:Shinxyn
Version:Insane
Source:Touhou
Tags:U.N Owen was her hatsuki yura flandre scarlet koya teruyoruhime

[Difficulty]
HPDrainRate:5
CircleSize:4
OverallDifficulty:8
SliderMultiplier:1.6
SliderTickRate:1

[Events]
//Background and Video events
0,0,"scarlet.jpg"
//Break Periods
2,53441,58684
//Storyboard Layer 0 (Background)
//Storyboard Layer 1 (Fail)
//Storyboard Layer 2 (Pass)
//Storyboard Layer 3 (Foreground)
//Storyboard Sound Samples
//Background Colour Transformations
3,100,163,162,255

[TimingPoints]
596,387.096774193548,4,2,0,90,1,0
28362,-100,4,2,0,60,0,0
34265,-100,4,2,0,80,0,0
40652,-100,4,2,0,90,0,0
59039,-100,4,2,0,70,0,0
65233,-100,4,2,0,80,0,0
70992,-100,4,2,0,70,0,0
71718,-100,4,2,0,90,0,0
94942,-100,4,1,0,50,0,0
96976,-100,4,2,0,60,0,0
103168,-100,4,2,0,80,0,0
109168,-100,4,2,0,90,0,0

[Colours]
Combo1 : 254,107,232
Combo2 : 104,253,126
Combo3 : 252,112,125
Combo4 : 247,247,247
Combo5 : 101,196,252

[HitObjects]
304,136,596,1,2
296,136,692,1,0
288,136,789,1,0
280,136,886,1,2
272,136,983,1,0
264,136,1079,1,0
256,136,1176,1,2
248,136,1273,1,0
240,136,1369,1,0
232,136,1466,1,2
224,136,1563,1,0
216,136,1660,1,0
208,136,1757,2,0,B|56:136,2,106.666666666667
208,248,2531,5,2
216,248,2627,1,0
224,248,2724,1,0
232,248,2821,1,2
240,248,2918,1,0
248,248,3014,1,0
256,248,3111,1,2
264,248,3208,1,0
272,248,3304,1,0
280,248,3401,1,2
288,248,3498,1,0
296,248,3595,1,0
304,248,3692,2,0,B|456:248,2,106.666666666667
256,344,4466,5,2
250,338,4562,1,0
244,332,4659,1,0
239,327,4756,1,2
233,321,4853,1,0
227,315,4949,1,0
222,310,5046,1,2
216,304,5143,1,0
210,298,5241,1,0
205,293,5336,1,2
199,287,5433,1,0
193,281,5530,1,0
188,276,5627,2,0,B|80:168,2,106.666666666667
264,200,6402,5,2
269,194,6498,1,0
275,188,6595,1,0
280,183,6692,1,2
286,177,6789,1,0
292,171,6885,1,0
297,166,6982,1,2
303,160,7079,1,0
309,154,7175,1,0
314,149,7272,1,2
320,143,7369,1,0
326,137,7466,1,0
331,132,7563,2,0,B|438:24,2,106.666666666667
256,56,8337,5,4
248,48,8433,1,0
240,40,8530,1,0
232,32,8627,1,2
224,40,8724,1,0
216,48,8820,1,0
208,56,8917,1,2
200,48,9014,1,0
192,40,9112,1,0
184,32,9207,1,2
176,40,9304,1,0
168,48,9401,1,0
160,56,9498,2,0,B|52:163,2,106.666666666667
160,160,10273,5,2
168,168,10369,1,0
176,176,10466,1,0
184,184,10563,1,2
192,192,10660,1,0
200,200,10756,1,0
208,208,10853,1,2
216,216,10950,1,0
224,224,11046,1,0
232,232,11143,1,2
240,240,11240,1,0
248,248,11337,1,0
256,256,11434,2,0,B|344:352,2,106.666666666667
360,256,12208,5,2
368,248,12304,1,0
376,240,12401,1,0
384,232,12498,1,2
392,224,12595,1,0
400,216,12691,1,0
408,208,12788,1,2
400,200,12885,1,0
392,192,12983,1,0
384,184,13078,1,2
376,176,13175,1,0
368,168,13272,1,0
360,160,13369,2,0,B|312:128|248:152,2,106.666666666667
304,248,14144,5,2
296,256,14240,1,0
288,248,14337,1,0
280,256,14434,1,2
272,248,14531,1,0
264,256,14627,1,0
256,248,14724,1,2
248,256,14821,1,0
240,248,14917,1,0
232,256,15014,1,2
224,248,15111,1,0
216,256,15208,1,0
208,248,15305,1,2
296,192,15563,1,2
288,88,15821,1,2
200,144,16079,6,0,B|168:104|96:104,1,80,4|0
136,184,16466,2,0,B|120:240|152:272,1,80
216,224,16854,2,0,B|272:200|280:144,1,80,2|0
200,144,17241,2,0,B|152:144|128:200,1,80
144,264,17628,6,0,B|168:312|248:296,1,80,2|0
280,264,18015,2,0,B|304:224|280:176,1,80
216,224,18402,2,0,B|192:256|216:304,1,80,2|0
280,344,18789,1,2
360,344,18983,5,2
400,336,19079,1,0
440,312,19176,2,0,B|480:280|472:224,1,80,2|0
392,248,19563,2,0,B|344:280|296:256,1,80
240,272,19950,2,0,B|200:312|128:288,1,80,2|0
88,312,20337,2,0,B|32:304|8:272,1,80
108,159,20725,6,0,B|112:200|80:232,1,80,2|0
175,51,21112,2,0,B|200:80|184:128,1,80,0|0
112,96,21499,1,2
184,128,21692,5,0
336,192,21886,1,0
408,224,22079,5,0
408,224,22176,1,0
408,224,22273,2,0,B|384:272|320:272,1,80,4|0
336,192,22660,2,0,B|360:144|416:144,1,80
346,270,23047,2,0,B|322:318|258:318,1,80,2|0
272,240,23434,2,0,B|296:192|352:192,1,80
282,318,23821,2,0,B|258:366|194:366,1,80,2|0
144,336,24208,5,0
32,40,24595,1,0
312,200,24983,1,2
152,176,25370,6,0,B|192:144|184:88,1,80,2|0
152,176,25757,2,0,B|112:208|112:256,1,80
112,110,26144,2,0,B|112:152|152:176,1,80,2|0
196,240,26531,2,0,B|192:208|152:176,1,80
160,312,26918,2,0,B|224:376|320:336,2,160,2|0|2
152,232,27886,5,0
152,72,28079,1,0
288,152,28273,1,0
288,152,28466,6,0,B|384:144|432:224,1,160,4|0
392,288,29047,1,0
328,240,29241,2,0,B|232:248|160:192,1,160,0|2
144,128,29821,1,0
88,192,30015,2,0,B|104:272|200:296,1,160
272,312,30595,1,0
216,368,30789,2,0,B|112:360|56:288,1,160,0|0
304,88,31563,5,2
264,160,31757,1,0
344,160,31950,2,0,B|328:216|288:248,1,80
264,160,32337,1,2
224,88,32531,1,0
184,72,32628,1,0
144,88,32725,2,0,B|88:104|80:176,1,80
168,168,33112,5,2
96,264,33305,1,0
168,168,33499,1,2
240,264,33692,1,0
168,168,33886,1,2
320,168,34079,2,0,B|360:168,3,26.6666666666667
56,336,34660,6,0,B|96:360|160:352,1,80,2|0
176,352,34950,1,0
216,336,35047,2,0,B|264:320|312:336,1,80,2|0
336,344,35337,1,0
376,352,35434,2,0,B|424:320|432:256,1,80,2|0
440,248,35725,1,0
448,208,35821,2,0,B|456:160|424:120,1,80,2|0
408,96,36112,1,0
368,104,36208,2,0,B|328:144|264:128,1,80,2|0
264,136,36499,1,0
224,128,36595,5,2
104,112,36789,1,2
136,232,36983,1,2
256,248,37176,1,2
224,128,37370,2,0,B|120:128|136:248,1,160,0|0
184,296,37950,5,0
248,344,38144,2,0,B|344:344,1,80,2|0
392,304,38531,1,2
344,240,38725,1,0
328,200,38821,1,0
336,160,38918,1,2
392,96,39112,1,0
480,200,39305,5,0
480,200,39402,1,0
480,200,39499,1,0
480,200,39595,1,0
480,200,39692,1,0
480,200,39789,1,0
480,200,39886,1,0
480,200,39983,1,0
480,200,40079,1,0
480,200,40466,1,0
360,296,40854,6,0,B|304:336|208:320,1,120,2|0
245,324,41241,2,0,B|200:320|160:296,1,80,0|0
104,256,41628,2,0,B|64:232|64:184,1,80,2|0
208,112,42015,2,0,B|256:144|248:192,1,80,0|0
88,136,42402,2,0,B|104:96|160:96,1,80,2|0
232,240,42789,2,0,B|205:273|160:280,1,80,2|2
88,136,43176,1,2
32,288,43370,1,2
160,192,43563,1,2
480,288,43950,5,2
408,320,44144,1,0
328,296,44337,2,0,B|288:272|296:208,1,80,2|0
376,232,44725,2,0,B|432:256|472:200,1,80,2|0
480,200,45015,1,0
496,160,45112,1,2
416,160,45305,1,0
336,152,45499,5,2
184,112,45692,1,2
224,264,45886,1,2
288,112,46079,1,2
168,216,46273,1,2
184,56,46466,5,0
272,192,46660,1,0
352,56,46854,1,0
352,56,47047,6,0,B|368:104|472:128,1,120,4|0
480,136,47434,2,0,B|456:184|384:192,1,80,2|0
344,208,47821,2,0,B|368:264|432:264,1,80,2|0
480,288,48208,1,2
256,208,48595,1,0
32,288,48983,6,0,B|80:264|96:224,1,80,2|0
128,120,49370,1,2
208,208,49563,1,2
90,235,49757,1,2
216,328,50144,5,4
264,264,50337,1,0
208,208,50531,2,0,B|160:176|160:112,1,80,2|0
240,136,50918,1,4
296,200,51112,1,0
312,168,51208,1,0
320,128,51305,1,2
240,136,51499,1,0
224,56,51692,1,4
144,80,51886,6,0,B|96:64,2,40,2|0|2
80,128,52273,1,2
64,168,52370,1,0
64,208,52466,1,2
88,240,52563,1,0
120,264,52660,1,2
160,272,52757,1,2
200,272,52854,2,0,B|248:256,4,40,2|0|0|0|4
416,72,59434,6,0,B|480:80,2,53.3333333333333,2|0|0
400,128,59821,2,0,B|336:120,2,53.3333333333333
376,232,60208,6,0,B|440:240,2,53.3333333333333,2|0|0
352,280,60595,2,0,B|272:272,2,53.3333333333333
264,344,60983,6,0,B|216:384,2,53.3333333333333,2|0|0
216,312,61370,1,2
184,272,61499,1,2
168,224,61628,1,2
168,168,61757,1,0
400,104,62337,5,0
400,104,62434,1,0
400,104,62531,2,0,B|480:72,2,53.3333333333333,2|0|0
296,136,62918,2,0,B|224:160,2,53.3333333333333,0|0|0
352,224,63305,6,0,B|392:304,2,53.3333333333333,2|0|0
296,136,63692,2,0,B|264:72,2,53.3333333333333
232,224,64079,6,0,B|184:280,2,53.3333333333333,2|0|0
296,136,64466,1,2
296,136,64595,1,2
296,136,64725,1,0
296,136,64854,2,0,B|360:152|368:200,2,80,2|0|0
296,136,65434,1,0
136,104,65628,5,4
136,104,65757,1,0
136,104,65886,1,0
104,144,66015,1,2
104,144,66144,1,0
104,144,66273,1,0
144,208,66402,5,2
144,208,66531,1,0
144,208,66661,1,0
112,248,66790,1,2
112,248,66919,1,0
112,248,67048,1,0
144,312,67177,5,2
144,312,67306,1,0
144,312,67435,1,0
112,352,67564,1,2
64,336,67693,1,2
32,288,67822,1,0
24,232,67950,2,0,B|72:192|64:128,1,80,2|0
48,88,68337,2,0,B|40:48|80:16,1,80
128,80,68725,5,2
168,96,68854,1,0
200,112,68983,1,0
200,152,69112,1,2
232,168,69241,1,0
264,184,69370,1,0
264,224,69499,5,2
232,240,69628,1,0
200,256,69757,1,0
200,296,69886,1,2
168,312,70016,1,0
128,328,70145,1,0
88,328,70274,5,2
56,280,70403,1,2
48,224,70532,1,2
64,168,70661,1,2
104,128,70790,1,2
160,120,70919,1,2
216,136,71048,5,4
448,192,71337,1,4
216,240,71628,2,0,B|168:240,2,40,4|0|4
288,280,72015,6,0,B|256:344,2,40,0|0|2
352,240,72402,1,0
288,192,72595,2,0,B|248:160|240:112,1,80,0|0
200,120,72886,1,0
184,80,72983,2,0,B|200:48|272:40,1,80,2|0
320,88,73370,6,0,B|360:120|424:112,1,80
432,104,73660,1,0
464,128,73757,2,0,B|480:176|448:224,1,80,2|0
408,272,74144,6,0,B|366:293|312:272,1,80
330,278,74434,1,0
330,278,74531,1,2
176,320,74725,1,0
176,320,74821,1,0
176,320,74918,1,4
104,280,75112,6,0,B|136:248|136:192,1,80
192,48,75499,2,0,B|176:96|200:144,1,80
208,288,75886,2,0,B|240:256|240:200,1,80
296,56,76273,2,0,B|280:104|304:152,1,80
320,296,76660,2,0,B|352:264|352:208,1,80
408,64,77047,2,0,B|392:112|416:160,1,80
344,192,77434,5,0
168,192,77628,1,0
168,192,77821,1,0
168,192,77918,1,0
168,192,78015,1,4
144,24,78208,6,0,B|192:40|232:24,1,80
376,64,78595,2,0,B|336:80|288:64,1,80
136,96,78983,2,0,B|184:112|224:96,1,80
368,136,79370,2,0,B|328:152|280:136,1,80
128,168,79757,2,0,B|176:184|216:168,1,80
360,208,80144,2,0,B|320:224|272:208,1,80
120,240,80531,2,0,B|168:256|208:240,1,80
351,280,80918,2,0,B|312:296|273:282,1,80
360,144,81305,6,0,B|288:72,1,80
152,240,81692,2,0,B|224:312,1,80
344,112,82079,2,0,B|272:40,1,80
168,272,82466,2,0,B|240:344,1,80
328,80,82854,2,0,B|256:8,1,80
184,304,83241,2,0,B|256:376,1,80
256,88,83628,5,0
256,296,83821,1,0
256,192,84015,5,0
256,192,84112,1,0
256,192,84208,2,0,B|216:192|160:232,1,80,4|0
128,280,84595,2,0,B|72:264|56:200,1,80,0|0
120,168,84983,2,0,B|168:184|192:240,1,80,2|0
208,296,85370,2,0,B|256:304|296:256,1,80,0|0
336,208,85757,2,0,B|368:240|360:312,1,80,2|0
312,344,86144,5,0
88,112,86531,1,0
400,32,86918,1,2
456,184,87305,6,0,B|448:232|392:248,1,80,2|0
360,176,87692,2,0,B|328:224|272:232,1,80
280,152,88079,2,0,B|240:168|192:168,1,80,2|0
136,208,88466,2,0,B|176:240|232:248,1,80
144,296,88854,2,0,B|192:320|256:312,1,80,2|0
184,384,89241,2,0,B|232:392|272:368,1,80,2|0
304,304,89628,1,2
344,232,89821,5,0
256,96,90015,1,0
176,96,90208,5,0
176,96,90305,1,0
176,96,90402,2,0,B|168:144|112:160,1,80,4|0
56,184,90789,2,0,B|64:232|48:288,1,80
48,344,91176,2,0,B|112:344|128:288,1,80,2|0
192,272,91563,2,0,B|208:232|192:176,1,80
192,112,91950,2,0,B|240:112|288:152,1,80,2|0
120,200,92337,5,0
440,200,92725,1,0
120,200,93112,1,2
160,272,93305,5,0
160,272,93402,1,0
160,272,93499,2,0,B|208:320|256:320,1,80,2|0
296,272,93886,2,0,B|344:280|400:240,1,80
320,192,94273,2,0,B|272:192|240:168,1,80,2|0
176,136,94660,2,0,B|152:184|192:224,1,80,0|0
240,264,95047,6,0,B|224:296,4,20
272,240,95337,2,0,B|336:272,4,40
256,200,95821,2,0,B|192:160,4,40
296,184,96305,2,0,B|328:144,2,40
432,272,97370,6,0,B|376:328|264:312,1,160,4|2
120,328,98144,2,0,B|48:272|40:176,1,160,0|2
168,96,98918,2,0,B|264:80|344:128,1,160,0|2
280,184,99499,1,0
360,192,99692,2,0,B|424:168|440:104|360:48,1,160,0|0
280,184,100466,5,2
216,240,100660,1,0
176,312,100854,2,0,B|136:280|136:232,1,80,2|0
216,240,101241,1,2
288,280,101434,1,0
328,288,101531,1,0
368,280,101628,2,0,B|416:280|456:256,1,80,2|0
384,208,102015,5,0
320,64,102208,1,0
192,160,102402,1,2
344,200,102595,1,2
280,56,102789,1,2
152,144,102983,2,0,B|104:128,3,26.6666666666667
16,232,103563,6,0,B|72:216|120:248,1,80,2|0
136,248,103853,1,0
176,264,103950,2,0,B|224:288|272:264,1,80,2|0
296,264,104240,1,0
336,248,104337,2,0,B|384:216|392:152,1,80,2|0
400,152,104628,1,0
408,112,104724,2,0,B|416:64|384:24,1,80,2|0
368,0,105015,1,0
344,32,105111,2,0,B|304:72|240:56,1,80,2|0
271,60,105402,1,0
271,60,105499,6,0,B|272:176,1,80,2|0
271,260,105886,1,2
271,140,106079,1,2
216,256,106273,2,0,B|240:328|312:328|336:232,1,160,0|2
384,152,106853,5,0
344,80,107047,2,0,B|392:64|440:88,1,80,2|0
384,152,107434,1,2
424,224,107628,1,0
384,240,107724,1,0
344,224,107821,1,2
384,152,108015,1,0
304,152,108208,5,0
288,152,108305,1,0
272,152,108402,1,0
256,152,108498,1,0
240,152,108595,1,0
224,152,108692,1,0
208,152,108789,1,0
192,152,108886,1,0
176,152,108982,1,0
16,152,109369,1,0
56,304,109757,6,0,B|128:312|170:275,1,120,2|0
200,256,110144,2,0,B|155:252|115:228,1,80
184,184,110531,2,0,B|144:160|144:112,1,80,2|0
264,232,110918,2,0,B|312:264|304:312,1,80
256,152,111305,2,0,B|272:112|328:112,1,80,2|0
448,208,111692,2,0,B|421:241|376:248,1,80,0|2
424,96,112079,1,2
312,208,112273,1,2
184,304,112466,1,2
64,192,112853,5,2
136,224,113047,1,0
208,192,113241,2,0,B|176:160|128:144,1,80,2|0
192,88,113628,2,0,B|232:120|288:120,1,80,2|0
304,128,113918,1,0
344,120,114015,2,0,B|384:112|432:72,1,80,2|0
448,160,114402,5,2
368,248,114595,1,2
256,208,114789,1,2
144,248,114982,1,2
64,160,115176,1,2
176,112,115369,5,0
336,112,115563,1,0
256,256,115757,1,0
176,288,115950,6,0,B|208:344|296:360,1,120,4|0
271,354,116337,2,0,B|344:368|376:352,1,80
384,288,116724,2,0,B|315:274|291:218,1,120,2|0
291,219,117112,2,0,B|271:167|247:151,1,80
176,112,117499,1,2
104,256,117886,6,0,B|152:232|168:192,1,80,2|0
296,112,118273,1,2
136,144,118466,1,0
288,184,118660,1,2
184,328,119047,5,4
256,288,119240,1,0
328,256,119434,2,0,B|384:256|424:208,1,80,2|0
440,160,119821,1,4
360,160,120015,1,0
360,160,120111,1,0
360,160,120208,1,2
296,112,120402,1,0
224,88,120595,1,4
256,192,120692,12,4,122144
