osu file format v7

[General]
AudioFilename: Gensou Kidan ( teruyoruhime + mikotonori Ver. ).mp3
AudioLeadIn: 0
PreviewTime: 34653
Countdown: 0
SampleSet: Soft
StackLeniency: 0.7
Mode: 0
LetterboxInBreaks: 1

[Editor]
Bookmarks: 16004,53166,59359,122069
DistanceSpacing: 1
BeatDivisor: 4
GridSize: 8

[Metadata]
Title:Gensou Kidan (Kaguyahime+Mikotonori Ver.)
Artist:Drop
Creator:Shinxyn
Version:Hard
Source:Touhou
Tags:U.N Owen was her hatsuki yura flandre scarlet koya teruyoruhime

[Difficulty]
HPDrainRate:6
CircleSize:4
OverallDifficulty:7
SliderMultiplier:1.6
SliderTickRate:1

[Events]
//Background and Video events
0,0,"scarlet.jpg"
//Break Periods
2,53441,58534
//Storyboard Layer 0 (Background)
//Storyboard Layer 1 (Fail)
//Storyboard Layer 2 (Pass)
//Storyboard Layer 3 (Foreground)
//Storyboard Sound Samples
//Background Colour Transformations
3,100,163,162,255

[TimingPoints]
596,387.096774193548,4,2,0,90,1,0
28362,-100,4,2,0,60,0,0
34265,-100,4,2,0,80,0,0
40072,-100,4,2,0,0,0,0
40652,-100,4,2,0,90,0,0
59039,-100,4,2,0,70,0,0
65233,-100,4,2,0,80,0,0
70992,-100,4,2,0,70,0,0
71718,-100,4,2,0,90,0,0
94942,-100,4,1,0,50,0,0
95910,-100,4,2,0,90,0,0
96105,-200,4,2,0,90,0,0
96588,-100,4,2,0,0,0,0
96976,-100,4,2,0,60,0,0
103168,-100,4,2,0,80,0,0
109168,-100,4,2,0,90,0,0

[Colours]
Combo1 : 254,107,232
Combo2 : 104,253,126
Combo3 : 252,112,125
Combo4 : 247,247,247
Combo5 : 101,196,252

[HitObjects]
384,120,8337,2,0,B|360:72|304:80,1,80,4|0
312,160,8725,2,0,B|248:224|128:160,1,160,2|0
112,120,9305,2,0,B|72:152|96:224,1,80,2|0
136,256,9692,5,0
216,344,9886,1,0
296,264,10079,1,2
368,232,10273,6,0,B|392:272|352:336,1,80,0|0
296,264,10660,2,0,B|272:200|312:152|376:144,1,160,2|0
440,176,11241,2,0,B|456:128|424:88,1,80,2|0
360,64,11628,5,0
240,64,11821,1,0
208,176,12015,1,2
152,120,12208,6,0,B|120:152|64:144,1,80
16,96,12595,2,0,B|-32:192|88:232,1,160,2|0
56,304,13176,2,0,B|96:336|144:328,1,80,2|0
160,256,13563,5,0
208,368,13757,1,0
280,272,13950,1,2
328,208,14144,6,0,B|368:240|360:288,1,80
280,272,14531,2,0,B|252:326|176:328|155:239,1,160,2|0
80,256,15112,2,0,B|80:208|136:176,1,80,2|0
192,160,15499,5,2
240,48,15692,1,2
264,168,15886,1,2
304,96,16079,6,0,B|352:112|368:152,1,80,4|0
432,104,16466,2,0,B|456:144|424:200,1,80
360,224,16854,2,0,B|352:272|303:277,1,80,2|0
231,252,17241,2,0,B|239:204|303:196,1,80
308,276,17628,6,0,B|332:324|412:308,1,80,2|0
432,256,18015,2,0,B|456:216|432:168,1,80
362,148,18402,2,0,B|338:180|362:228,1,80,2|0
280,200,18789,1,0
120,200,19176,6,0,B|120:240|80:272,1,80,2|0
60,343,19563,2,0,B|112:360|160:304,1,80
84,268,19950,2,0,B|36:244|28:196,1,80,2|0
24,128,20337,2,0,B|72:104|128:120,1,80
184,128,20725,6,0,B|224:144|280:136,1,80,2|0
328,96,21112,2,0,B|353:125|337:173,1,80,0|0
272,216,21499,1,0
224,280,21692,5,0
160,384,21886,1,0
136,272,22079,1,2
136,272,22273,6,0,B|120:328|48:328,1,80,4|0
136,272,22660,2,0,B|160:224|216:224,1,80
248,288,23047,2,0,B|232:344|160:344,1,80,2|0
248,288,23434,2,0,B|272:240|328:240,1,80
384,272,23821,6,0,B|400:216|472:216,1,80,2|0
384,272,24208,2,0,B|360:320|304:320,1,80
248,288,24595,1,0
88,288,24983,1,2
208,184,25370,6,0,B|248:184|288:144,1,80,2|0
240,80,25757,2,0,B|216:120|144:120,1,80
104,152,26144,2,0,B|104:194|144:232,1,80,2|0
208,184,26531,2,0,B|168:160|172:116,1,80
240,80,26918,2,0,B|256:168|368:208,1,160,2|0
376,40,27692,6,0,B|360:120,1,80
328,272,28079,2,0,B|312:352,1,80,0|2
232,352,28466,6,0,B|160:296|185:191,1,160,4|2
181,209,29047,1,0
192,128,29241,2,0,B|128:72|24:80,1,160,0|2
43,79,29821,1,0
24,152,30015,2,0,B|40:232|128:280,1,160,0|2
118,274,30595,1,0
176,328,30789,2,0,B|256:288|272:200,1,160,0|0
270,206,31370,1,0
280,128,31563,5,2
208,168,31757,2,0,B|176:128|216:72,2,80,0|2|2
280,128,32337,1,2
344,80,32531,2,0,B|384:48,2,40,0|0|2
352,160,32918,1,0
352,240,33112,5,2
288,280,33305,1,0
216,248,33499,1,2
288,280,33692,1,2
296,360,33886,2,0,B|384:344|432:256,1,160
376,120,34660,6,0,B|328:112|296:80,1,80,2|0
224,112,35047,2,0,B|192:152|144:152,1,80,2|0
80,160,35434,2,0,B|72:112|136:64,1,80,2|0
156,151,35821,2,0,B|179:179|171:227,1,80,2|0
160,304,36208,2,0,B|208:307|240:267,1,80,2|0
288,216,36595,5,2
328,144,36789,1,0
352,64,36983,2,0,B|432:112|384:216,1,160
240,184,37757,5,2
168,224,37950,1,0
120,160,38144,2,0,B|168:144|184:104,2,80,2|0|2
64,104,38725,1,0
64,104,38821,1,0
64,104,38918,1,2
8,160,39112,1,0
256,192,39305,12,0,40466
360,296,40854,6,0,B|328:328|264:320,1,80,2|0
288,240,41241,2,0,B|240:256|192:224,1,80
240,160,41628,2,0,B|200:136|200:88,1,80,2|0
288,104,42015,2,0,B|336:136|328:184,1,80,0|0
288,240,42402,2,0,B|296:280|240:344,1,80,2|0
192,272,42789,2,0,B|165:305|120:312,1,80,2|2
120,232,43176,5,2
48,136,43370,1,2
168,120,43563,1,2
352,272,43950,5,2
432,296,44144,1,0
416,216,44337,2,0,B|376:192|384:128,2,80,2|0|2
432,296,44918,2,0,B|496:320,2,40,0|0|2
352,272,45305,6,0,B|256:272,1,80
152,272,45692,1,2
256,208,45886,1,2
213,319,46079,1,2
176,208,46273,1,2
272,272,46466,5,0
112,296,46660,1,0
214,167,46854,1,0
216,88,47047,6,0,B|280:96|296:152,1,80,4|0
360,128,47434,2,0,B|408:128|424:200,1,80,0|0
336,208,47821,2,0,B|248:208,1,80,2|0
176,208,48208,2,0,B|80:208,1,80
16,208,48595,1,2
88,352,48983,6,0,B|144:344|152:288,1,80,2|0
206,255,49370,2,0,B|166:263|142:319,1,80
148,306,49757,1,0
304,312,50144,5,4
376,280,50337,1,0
432,216,50531,1,2
440,136,50725,1,0
424,56,50918,1,4
360,104,51112,1,0
360,144,51208,1,0
352,184,51305,1,2
288,232,51499,1,0
280,152,51692,1,4
256,192,51789,12,4,53241
184,184,59434,6,0,B|216:128,5,53.3333333333333,2|0|0|0|0|0
184,184,60208,2,0,B|144:248,5,53.3333333333333,2|0|0|0|0|0
184,184,60982,2,0,B|112:136,5,53.3333333333333,2|0|0|0|0|0
184,184,61756,1,2
328,200,62531,6,0,B|296:256,5,53.3333333333333,2|0|0|0|0|0
328,200,63305,2,0,B|368:136,5,53.3333333333333,2|0|0|0|0|0
328,200,64079,2,0,B|400:248,5,53.3333333333333,2|0|0|0|0|0
328,200,64853,1,2
144,248,65628,6,0,B|80:248,2,53.3333333333333,2|0|0
144,248,66015,2,0,B|104:304,2,53.3333333333333
144,248,66402,2,0,B|184:312,2,53.3333333333333,2|0|0
144,248,66789,2,0,B|224:248,2,53.3333333333333
144,248,67177,2,0,B|176:192,2,53.3333333333333,2|0|0
144,248,67564,2,0,B|88:168,2,53.3333333333333
144,248,67951,1,2
376,136,68725,6,0,B|440:136,2,53.3333333333333,2|0|0
376,136,69112,2,0,B|416:80,2,53.3333333333333
376,136,69499,2,0,B|336:72,2,53.3333333333333,2|0|0
376,136,69886,2,0,B|296:136,2,53.3333333333333
376,136,70274,2,0,B|344:192,2,53.3333333333333,2|0|0
376,136,70661,2,0,B|432:216,2,53.3333333333333
376,136,71048,1,4
272,192,71337,1,4
160,248,71628,1,4
88,280,71821,6,0,B|48:256|48:200,2,80,4|0|2
152,328,72402,1,2
224,296,72595,2,0,B|272:272|280:240,2,80,0|0|2
160,248,73176,1,2
128,176,73370,6,0,B|176:152|232:200,2,80,0|0|2
96,104,73950,1,2
176,88,74144,2,0,B|224:88|264:128,1,80
288,184,74531,5,0
312,304,74725,1,2
408,232,74918,1,4
360,168,75112,6,0,B|392:136|392:80,1,80,0|0
391,96,75499,2,0,B|352:80|288:96,1,80
312,90,75886,2,0,B|304:136|272:168,1,80,0|0
277,161,76273,2,0,B|240:144|192:160,1,80
199,157,76660,2,0,B|232:112|232:80,1,80,0|0
231,85,77047,2,0,B|192:64|144:88,1,80
112,152,77434,5,0
24,232,77628,1,0
136,264,77821,1,2
48,176,78015,1,4
64,96,78208,6,0,B|96:64|152:88,1,80
138,82,78595,2,0,B|176:56|224:88,1,80
213,81,78983,2,0,B|264:104|320:64,1,80
291,80,79370,2,0,B|336:96|376:72,1,80
368,75,79757,2,0,B|424:96|416:160,1,80
416,134,80144,2,0,B|448:168|432:224,1,80
435,208,80531,2,0,B|392:224|384:272,1,80
385,266,80918,2,0,B|336:272|328:344,1,80
254,271,81305,6,0,B|256:176,1,80
257,112,81692,2,0,B|255:207,1,80
187,234,82079,2,0,B|269:184,1,80
323,150,82466,2,0,B|241:200,1,80
188,147,82854,2,0,B|268:201,1,80
322,237,83241,2,0,B|242:183,1,80
168,192,83628,5,0
336,192,83821,1,0
256,56,84015,1,2
256,136,84208,6,0,B|290:110|330:110,1,80,4|0
336,192,84595,2,0,B|392:192|424:128,1,80,0|0
424,80,84983,2,0,B|472:96|496:152,1,80,2|0
472,208,85370,2,0,B|448:240|392:264,1,80,0|0
328,272,85757,2,0,B|272:256|248:200,1,80,2|0
216,160,86144,2,0,B|192:120|144:104,1,80
128,184,86531,1,0
200,328,86918,1,2
360,328,87305,6,0,B|400:317|416:272,1,80,2|0
360,216,87692,2,0,B|344:264|288:280,1,80
248,216,88079,2,0,B|288:208|304:152,1,80,2|0
240,104,88466,2,0,B|224:160|160:176,1,80,0|0
128,112,88854,2,0,B|176:104|184:32,1,80,2|0
104,40,89241,1,0
264,32,89628,1,0
328,80,89821,5,0
424,152,90015,1,0
392,40,90208,1,2
328,80,90402,6,2,B|320:128|264:144,1,80,4|0
240,208,90789,2,0,B|256:304,1,80
336,280,91176,2,0,B|384:264|408:208,1,80,2|0
424,152,91563,2,0,B|400:56,1,80
328,80,91950,2,0,B|320:128|264:144,1,80,2|0
240,208,92337,2,0,B|256:304,1,80
336,280,92725,1,0
424,152,93112,1,0
472,304,93499,6,0,B|432:304|392:336,1,80,2|0
320,360,93886,2,0,B|280:376|216:360,1,80
320,360,94273,2,0,B|272:360|240:328,1,80,2|0
320,360,94660,2,0,B|272:336|256:304,1,80
320,360,95047,2,0,B|248:304|288:200,1,160
312,56,95821,5,0
352,208,96015,1,0
208,160,96208,2,0,B|104:192,1,80
184,336,97370,6,0,B|276:349|332:293,1,160,4|2
176,248,98144,2,0,B|104:192|96:96,1,160,0|2
240,192,98918,2,0,B|312:240|416:216,1,160,0|2
464,184,99499,1,0
408,128,99692,2,0,B|336:88|240:104,1,160,0|2
96,136,100466,5,2
160,184,100660,1,0
104,248,100854,1,2
184,248,101047,1,0
168,328,101241,1,2
240,288,101434,1,0
280,304,101531,1,0
320,304,101628,1,2
400,288,101821,1,0
384,208,102015,5,2
336,144,102208,1,0
384,208,102402,1,2
424,136,102595,1,0
376,72,102789,2,0,B|320:56|264:104|200:72,1,160,0|0
88,160,103563,6,0,B|128:120|192:176,1,80,2|0
128,224,103950,2,0,B|80:256|32:216,1,80,2|0
88,160,104337,2,0,B|144:144|144:64,1,80,2|0
112,32,104725,2,0,B|72:40|56:96,1,80,2|0
88,160,105112,2,0,B|88:272,1,80
32,296,105499,5,2
88,360,105692,1,0
144,296,105886,2,0,B|224:256|208:128,1,160,2|0
352,232,106660,5,2
304,296,106854,2,0,B|264:256|272:216,1,80,0|2
312,152,107241,1,0
232,152,107434,1,2
192,224,107628,1,0
200,264,107724,1,0
224,296,107821,1,2
304,296,108015,1,0
384,296,108208,6,0,B|432:296,8,40
384,296,109370,1,0
320,152,109757,6,0,B|368:152|416:104,1,80,2|0
320,152,110144,2,0,B|275:148|240:104,1,80
176,136,110531,2,0,B|175:177|215:201,1,80,2|0
176,136,110918,2,0,B|182:103|134:71,1,80
72,112,111305,2,0,B|88:72|144:72,1,80,2|0
120,152,111692,2,0,B|96:248,1,80,2|2
80,304,112079,5,2
200,304,112273,1,2
320,304,112466,1,2
440,192,112853,5,2
384,248,113047,1,0
328,192,113241,2,0,B|296:160|248:144,2,80,2|0|2
272,248,113821,1,0
272,248,113918,1,0
272,248,114015,1,2
256,328,114208,1,0
200,272,114402,5,2
192,152,114595,1,2
128,256,114789,1,2
240,208,114982,1,2
120,184,115176,1,2
200,96,115369,5,0
360,128,115563,1,0
280,272,115757,1,2
200,288,115950,6,0,B|216:336|280:352,1,80,4|0
336,328,116337,2,0,B|376:352|441:326,1,80
440,256,116724,2,0,B|432:224|371:202,1,80,2|0
360,128,117112,2,0,B|320:104|264:128,1,80
216,168,117499,1,2
88,264,117886,6,0,B|136:240|152:200,1,80,2|0
216,168,118273,1,2
144,128,118466,1,0
80,176,118660,1,2
168,312,119047,5,4
248,288,119240,1,0
328,264,119434,1,2
408,240,119628,1,0
392,320,119821,1,4
328,264,120015,1,0
304,232,120112,1,0
272,208,120208,1,0
192,232,120402,1,0
248,288,120595,1,4
256,192,120692,12,4,122144
