osu file format v13

[General]
AudioFilename: GET HYPER.mp3
AudioLeadIn: 0
PreviewTime: -1
Countdown: 1
SampleSet: Normal
StackLeniency: 0.7
Mode: 0
LetterboxInBreaks: 1
WidescreenStoryboard: 0

[Editor]
DistanceSpacing: 0.9
BeatDivisor: 16
GridSize: 4
TimelineZoom: 5.699997

[Metadata]
Title:Get Hyper!
TitleUnicode:Get Hyper!
Artist:Droidteka
ArtistUnicode:Droidteka
Creator:WilczekCK
Version:Hyped!
Source:
Tags:
BeatmapID:466800
BeatmapSetID:196823

[Difficulty]
HPDrainRate:6
CircleSize:5
OverallDifficulty:6
ApproachRate:9
SliderMultiplier:1.2
SliderTickRate:1

[Events]
//Background and Video events
Video,0,"Droideka - GET HYPER (Official Video).avi"
//Break Periods
//Storyboard Layer 0 (Background)
//Storyboard Layer 1 (Fail)
//Storyboard Layer 2 (Pass)
//Storyboard Layer 3 (Foreground)
//Storyboard Sound Samples
//Background Colour Transformations
3,100,163,162,255

[TimingPoints]
875.56026916779,352.77516462841,4,1,0,100,1,0

[HitObjects]
76,88,19837,5,0,0:0:0:0:
104,120,20013,1,0,0:0:0:0:
104,120,20190,2,0,L|108:192,1,60
152,168,20542,2,0,L|200:216,3,60,0|0|0|0,0:0|0:0|0:0|0:0,0:0:0:0:
244,240,21248,1,8,0:0:0:0:
356,180,21424,1,0,0:0:0:0:
392,304,21601,1,0,0:0:0:0:
356,180,21865,1,0,0:0:0:0:
168,284,22747,2,2,L|228:168,1,120,0|0,0:0|0:0,0:0:0:0:
372,84,23364,1,0,0:0:0:0:
180,76,23541,1,0,0:0:0:0:
272,80,23717,1,0,0:0:0:0:
240,176,24070,2,0,L|204:316,2,120,0|0|0,0:0|0:0|0:0,0:0:0:0:
408,40,25084,1,2,0:0:0:0:
328,96,25481,1,8,0:0:0:0:
320,96,25658,1,8,0:0:0:0:
312,96,25834,1,8,0:0:0:0:
308,96,26010,1,8,0:0:0:0:
300,96,26187,2,0,L|240:176,2,90,0|0|0,0:0|0:0|0:0,0:0:0:0:
300,48,26892,1,0,0:0:0:0:
300,48,27069,1,0,0:0:0:0:
300,48,27245,1,0,0:0:0:0:
300,48,27421,1,0,0:0:0:0:
300,48,27598,2,0,L|168:48,2,120,0|0|0,0:0|0:0|0:0,0:0:0:0:
392,64,28480,2,0,L|308:144,1,110
232,176,28950,1,0,0:0:0:0:
88,240,29126,1,0,0:0:0:0:
176,288,29273,2,0,L|236:288,1,60
276,296,29744,1,0,0:0:0:0:
352,216,29920,2,0,L|304:176,5,60,0|0|0|0|0|0,0:0|0:0|0:0|0:0|0:0|0:0,0:0:0:0:
328,120,31126,1,0,0:0:0:0:
344,104,31302,1,0,0:0:0:0:
356,120,31478,1,0,0:0:0:0:
368,104,31655,1,0,0:0:0:0:
392,128,31831,2,0,P|380:208|368:224,2,90,0|0|0,0:0|0:0|0:0,0:0:0:0:
352,104,32537,1,0,0:0:0:0:
328,136,32713,1,0,0:0:0:0:
304,104,32889,1,0,0:0:0:0:
280,136,33066,1,0,0:0:0:0:
264,104,33242,2,0,L|200:160,1,60
204,200,33595,2,0,L|352:204,1,120
388,208,34124,1,0,0:0:0:0:
424,240,34301,1,0,0:0:0:0:
424,280,34653,1,0,0:0:0:0:
316,216,35359,1,0,0:0:0:0:
320,252,35535,1,0,0:0:0:0:
344,296,35712,1,0,0:0:0:0:
452,168,36064,1,0,0:0:0:0:
412,192,36770,1,0,0:0:0:0:
412,192,36946,1,0,0:0:0:0:
412,192,37123,1,0,0:0:0:0:
408,192,37299,1,0,0:0:0:0:
408,192,37475,2,0,L|272:192,1,120
248,160,38005,2,0,L|192:116,1,60,0|0,0:0|0:0,0:0:0:0:
180,192,38357,2,0,L|112:220,1,60,0|0,0:0|0:0,0:0:0:0:
72,164,38710,2,0,L|28:80,1,90,0|0,0:0|0:0,0:0:0:0:
132,60,39092,1,0,0:0:0:0:
208,60,39269,1,0,0:0:0:0:
296,140,39622,2,0,L|280:264,1,120,0|0,0:0|0:0,0:0:0:0:
232,308,40151,1,0,0:0:0:0:
156,304,40327,1,0,0:0:0:0:
96,252,40503,2,0,L|76:156,1,90,0|0,0:0|0:0,0:0:0:0:
160,80,41033,1,0,0:0:0:0:
232,160,41209,1,0,0:0:0:0:
76,164,41385,2,0,L|100:252,1,90
184,268,41797,2,0,L|272:228,1,90
256,312,42150,2,0,L|328:336,1,70
348,152,42503,1,0,0:0:0:0:
348,152,42679,1,0,0:0:0:0:
348,152,42855,1,0,0:0:0:0:
348,152,43032,5,0,0:0:0:0:
348,152,43208,2,0,B|216:204|200:152|284:200,1,165
344,232,43825,2,0,L|292:264,3,60,0|0|0|0,0:0|0:0|0:0|0:0,0:0:0:0:
236,288,44619,2,0,L|212:220,1,60
256,72,44972,1,0,0:0:0:0:
256,192,45237,12,0,45942,0:0:0:0:
256,192,46648,12,0,47397,0:0:0:0:
256,192,48059,12,0,48852,0:0:0:0:
256,192,49514,12,0,50043,0:0:0:0:
264,184,50308,5,0,0:0:0:0:
328,116,50440,2,0,L|264:184,1,90
256,192,50925,12,0,51675,0:0:0:0:
256,192,52292,12,0,53042,0:0:0:0:
256,192,53703,12,0,54453,0:0:0:0:
64,104,55202,6,0,L|96:104,7,30,0|0|0|0|0|0|0|0,0:0|0:0|0:0|0:0|0:0|0:0|0:0|0:0,0:0:0:0:
160,176,55996,1,0,0:0:0:0:
244,248,56128,2,0,L|184:280,1,60
72,312,56569,2,0,B|72:288|96:288|64:256|88:236|48:216|100:192|60:172,1,135
96,96,57231,2,0,L|224:108,1,120,0|0,0:0|0:0,0:0:0:0:
236,168,58025,2,0,L|216:296,2,120,0|0|0,0:0|0:0|0:0,0:0:0:0:
288,68,59039,2,0,L|416:80,1,120,0|0,0:0|0:0,0:0:0:0:
392,168,59744,2,0,L|264:240,1,135,0|0,0:0|0:0,0:0:0:0:
172,200,60406,2,0,L|168:52,1,135,0|0,0:0|0:0,0:0:0:0:
168,65,61111,2,0,L|168:209,1,135
176,280,61817,2,0,L|320:232,1,150,0|0,0:0|0:0,0:0:0:0:
424,224,62611,1,0,0:0:0:0:
240,48,62919,1,0,0:0:0:0:
76,240,63272,1,0,0:0:0:0:
264,256,63669,2,0,L|224:136,2,120,0|0|0,0:0|0:0|0:0,0:0:0:0:
392,308,64551,1,0,0:0:0:0:
424,184,64727,1,0,0:0:0:0:
336,112,65080,2,0,L|272:160,1,75,0|0,0:0|0:0,0:0:0:0:
204,84,65565,1,0,0:0:0:0:
120,144,65786,2,0,L|120:224,1,75
184,248,66138,2,0,L|200:180,1,60,0|0,0:0|0:0,0:0:0:0:
300,176,66491,1,0,0:0:0:0:
300,176,66579,1,0,0:0:0:0:
300,176,66668,1,0,0:0:0:0:
300,176,66756,1,0,0:0:0:0:
300,176,66844,1,0,0:0:0:0:
300,176,66932,1,0,0:0:0:0:
300,172,67020,1,0,0:0:0:0:
300,172,67505,1,0,0:0:0:0:
300,176,67505,1,0,0:0:0:0:
